Subcategories

A-Pink - My My (2011)

Posted By: Mendose
A-Pink - My My (2011)

A-Pink - My My (2011)
Korean | MP4 | *720p* 1280x720 | 29.970 fps | AVC 8000 Kbps | AAC 192 Kbps | 4:12 min | 243 MB
Korean Pop


A Pink is a seven-member South Korean girl group under A Cube Entertainment formed in 2011. Their members are Park Chorong, Yoon Bomi, Jung Eunji, Son Naeun, Hong Yookyung, Kim Namjoo and Oh Hayoung.

General
Format : MPEG-4
Format profile : Base Media / Version 2
Codec ID : mp42
File size : 243 MiB
Duration : 4mn 12s
Overall bit rate : 8 066 Kbps
Encoded date : UTC 2011-11-23 02:21:57
Tagged date : UTC 2011-11-23 02:21:57
©TIM : 00;00;00;00

Video
ID : 1
Format : AVC
Format/Info : Advanced Video Codec
Format profile : High@L5.1
Format settings, CABAC : Yes
Format settings, ReFrames : 3 frames
Format settings, GOP : M=3, N=33
Codec ID : avc1
Codec ID/Info : Advanced Video Coding
Duration : 4mn 12s
Bit rate mode : Constant
Bit rate : 8 000 Kbps
Width : 1 280 pixels
Height : 720 pixels
Display aspect ratio : 16:9
Frame rate mode : Constant
Frame rate : 29.970 fps
Standard : NTSC
Color space : YUV
Chroma subsampling : 4:2:0
Bit depth : 8 bits
Scan type : Progressive
Bits/(Pixel*Frame) : 0.290
Stream size : 237 MiB (98%)
Language : English
Encoded date : UTC 2011-11-23 02:21:57
Tagged date : UTC 2011-11-23 02:21:57
Color primaries : BT.709-5, BT.1361, IEC 61966-2-4, SMPTE RP177
Transfer characteristics : BT.709-5, BT.1361
Matrix coefficients : BT.709-5, BT.1361, IEC 61966-2-4 709, SMPTE RP177

Audio
ID : 2
Format : AAC
Format/Info : Advanced Audio Codec
Format profile : LC
Codec ID : 40
Duration : 4mn 12s
Bit rate mode : Variable
Bit rate : 192 Kbps
Maximum bit rate : 301 Kbps
Channel(s) : 2 channels
Channel positions : Front: L R
Sampling rate : 48.0 KHz
Compression mode : Lossy
Stream size : 5.71 MiB (2%)
Language : English
Encoded date : UTC 2011-11-23 02:21:58
Tagged date : UTC 2011-11-23 02:21:58


Screenshots:

A-Pink - My My (2011)

A-Pink - My My (2011)

A-Pink - My My (2011)

A-Pink - My My (2011)

A-Pink - My My (2011)

A-Pink - My My (2011)


More KPop music videos HERE

Please send me PM if any of my links is broken.

[ MY BLOG ] | [ RSS Channel ]