Subcategories

Arcade Fire - The Suburbs [City Slang 2742629A] {2010}

Posted By: luckburz
Arcade Fire - The Suburbs [City Slang 2742629A] {2010}

Arcade Fire - The Suburbs
EAC+LOG+CUE | WV: 356 MB | Full Artwork | 5% Recovery Info
Label/Cat#: City Slang # 2742629A | Country/Year: Europe 2010
Genre: Rock, Folk | Style: Folk Rock, Indie Rock

MD5 [X] CUE [X] LOG [X] INFO TEXT [X] ARTWORK [X]

selfrip [] not my rip [X]


Exact Audio Copy V1.0 beta 1 from 15. November 2010

EAC extraction logfile from 14. May 2011, 5:21

Arcade Fire / The Suburbs

Used drive : HL-DT-STDVDRAM GH22NS40 Adapter: 2 ID: 1

Read mode : Secure
Utilize accurate stream : Yes
Defeat audio cache : Yes
Make use of C2 pointers : No

Read offset correction : 667
Overread into Lead-In and Lead-Out : No
Fill up missing offset samples with silence : Yes
Delete leading and trailing silent blocks : No
Null samples used in CRC calculations : Yes
Used interface : Installed external ASPI interface

Used output format : User Defined Encoder
Selected bitrate : 1024 kBit/s
Quality : High
Add ID3 tag : No
Command line compressor : C:\Program Files\Exact Audio Copy\wavpack.exe
Additional command line options : -hlmx2 %s


TOC of the extracted CD

Track | Start | Length | Start sector | End sector
––––––––––––––––––––––––––––-
1 | 0:00.00 | 5:15.15 | 0 | 23639
2 | 5:15.15 | 4:15.67 | 23640 | 42831
3 | 9:31.07 | 4:39.57 | 42832 | 63813
4 | 14:10.64 | 3:56.58 | 63814 | 81571
5 | 18:07.47 | 2:51.40 | 81572 | 94436
6 | 20:59.12 | 3:11.45 | 94437 | 108806
7 | 24:10.57 | 4:13.50 | 108807 | 127831
8 | 28:24.32 | 4:27.10 | 127832 | 147866
9 | 32:51.42 | 4:45.10 | 147867 | 169251
10 | 37:36.52 | 3:50.54 | 169252 | 186555
11 | 41:27.31 | 3:20.54 | 186556 | 201609
12 | 44:48.10 | 4:28.10 | 201610 | 221719
13 | 49:16.20 | 5:01.30 | 221720 | 244324
14 | 54:17.50 | 2:54.17 | 244325 | 257391
15 | 57:11.67 | 5:25.41 | 257392 | 281807
16 | 62:37.33 | 1:27.47 | 281808 | 288379


Range status and errors

Selected range

Filename C:\lossless\Arcade Fire\Arcade Fire - The Suburbs.wav

Peak level 100.0 %
Extraction speed 0.0 X
Range quality 100.0 %
Test CRC AC1B73E5
Copy CRC AC1B73E5
Copy OK

No errors occurred


AccurateRip summary

Track 1 accurately ripped (confidence 68) [4AB84D68]
Track 2 accurately ripped (confidence 68) [17AD9FF3]
Track 3 accurately ripped (confidence 69) [66074D66]
Track 4 accurately ripped (confidence 69) [9C23C0EB]
Track 5 accurately ripped (confidence 69) [1DB2970D]
Track 6 accurately ripped (confidence 69) [81E09166]
Track 7 accurately ripped (confidence 69) [B718353F]
Track 8 accurately ripped (confidence 69) [584F2AF6]
Track 9 accurately ripped (confidence 68) [978AFCD3]
Track 10 accurately ripped (confidence 70) [5715789C]
Track 11 accurately ripped (confidence 69) [7EE30CA1]
Track 12 accurately ripped (confidence 70) [895A8649]
Track 13 accurately ripped (confidence 67) [7DE4481C]
Track 14 accurately ripped (confidence 70) [397E0C73]
Track 15 accurately ripped (confidence 70) [EBEF2F40]
Track 16 accurately ripped (confidence 70) [F5B9543A]

All tracks accurately ripped

End of status report

==== Log checksum B64A6C492BD435806BF055BD4EDDF5E8EB7C185EAAA63207655BFB2DB809EDDE ====

–––––––––––-

DON'T MODIFY THIS FILE

–––––––––––-

PERFORMER: auCDtect Task Manager, ver. 1.5.1RC3 build 1.5.1.4
Copyright © 2008-2010 y-soft. All rights reserved
http://y-soft.org

ANALYZER: auCDtect: CD records authenticity detector, version 0.8.2
Copyright © 2004 Oleg Berngardt. All rights reserved.
Copyright © 2004 Alexander Djourik. All rights reserved.


FILE: Arcade Fire - The Suburbs.wav
Size: 678269804 Hash: 6B61ED48C43ABBA4922F86F37551F40F Accuracy: -m0
Conclusion: CDDA 100%
Signature: FF6D1A43158B872C2F68705DC7A1A8DD0EACB52A


foobar2000 1.1.14a / Dynamic Range Meter 1.1.1
log date: 2012-10-17 20:22:33

––––––––––––––––––––––––––––––––––––––––
Analyzed: Arcade Fire / The Suburbs
––––––––––––––––––––––––––––––––––––––––

DR Peak RMS Duration Track
––––––––––––––––––––––––––––––––––––––––
DR6 -0.01 dB -8.01 dB 5:15 01-The Suburbs
DR7 -0.01 dB -7.82 dB 4:16 02-Ready To Start
DR7 -0.01 dB -9.14 dB 4:40 03-Modern Man
DR6 -0.01 dB -8.00 dB 3:57 04-Rococo
DR6 -0.01 dB -7.26 dB 2:52 05-Empty Room
DR8 -0.01 dB -8.67 dB 3:12 06-City With No Children
DR7 -0.01 dB -9.55 dB 4:14 07-Half Light I
DR7 -0.01 dB -8.14 dB 4:27 08-Half Light II (No Celebration)
DR7 -0.01 dB -9.03 dB 4:45 09-Suburban War
DR7 0.00 dB -8.09 dB 3:51 10-Month of May
DR8 0.00 dB -10.66 dB 3:21 11-Wasted Hours
DR6 -0.01 dB -7.97 dB 4:28 12-Deep Blue
DR7 -0.01 dB -8.60 dB 5:01 13-We Used To Wait
DR10 -0.01 dB -13.76 dB 2:54 14-Sprawl I (Flatland)
DR7 -0.01 dB -8.69 dB 5:26 15-Sprawl II (Mountains Beyond Mountains)
DR9 -2.51 dB -16.99 dB 1:28 16-The Suburbs (continued)
––––––––––––––––––––––––––––––––––––––––

Number of tracks: 16
Official DR value: DR7

Samplerate: 44100 Hz
Channels: 2
Bits per sample: 16
Bitrate: 863 kbps
Codec: WavPack
================================================================================



CD Info:

Arcade Fire - The Suburbs

Label: City Slang
Catalog#: 2742629A
Format: CD, Album
Country: Europe
Released: 2010
Genre: Rock, Folk

Tracklist:

1 - The Suburbs 5:15
2 - Ready To Start 4:16
3 - Modern Man 4:40
4 - Rococo 3:57
5 - Empty Room 2:52
6 - City With No Children 3:12
7 - Half Light I 4:14
8 - Half Light II (No Celebration) 4:27
9 - Suburban War 4:45
10 - Month of May 3:51
11 - Wasted Hours 3:21
12 - Deep Blue 4:28
13 - We Used To Wait 5:01
14 - Sprawl I (Flatland) 2:54
15 - Sprawl II (Mountains Beyond Mountains) 5:26
16 - The Suburbs (continued) 1:28

Arcade Fire - The Suburbs [City Slang 2742629A] {2010}


review by James Christopher Monger

Montreal’s Arcade Fire successfully avoided the sophomore slump with 2007’s apocalyptic Neon Bible. Heavier and more uncertain than their near perfect, darkly optimistic 2004 debut, the album aimed for the nosebleed section and left a red mess. Having already fled the cold comforts of suburbia on Funeral and suffered beneath the weight of the world on Neon Bible, it seems fitting that a band once so consumed with spiritual and social middle-class fury, should find peace “under the overpass in the parking lot.” If nostalgia is just pain recalled, repaired, and resold, then The Suburbs is its sales manual. Inspired by brothers Win and William Butler’s suburban Houston, TX upbringing, the 16-track record plays out like a long lost summer weekend, with the jaunty but melancholy Kinks/Bowie-esque title cut serving as its bookends. Meticulously paced and conservatively grand, fans looking for the instant gratification of past anthems like “Wake Up” or “Intervention” will find themselves reluctantly defending The Suburbs upon first listen, but anyone who remembers excitedly jumping into a friend’s car on a sleepy Friday night armed with heartache, hope, and no agenda knows that patience is key. Multiple spins reveal a work that’s as triumphant and soul-slamming as it is sentimental and mature. At its most spirited, like on “Empty Room,” “Rococo,” “City with No Children,” “Half Light II (No Celebration),” “We Used to Wait,” and the glorious Régine Chassagne-led “Sprawl II (Mountains Beyond Mountains),” the latter of which threatens to break into Blondie’s “Heart of Glass” at any moment, Arcade Fire makes the suburbs feel positively electric. Quieter moments reveal a changing of the guard, as Win trades in the Springsteen-isms of Neon Bible for Neil Young on “Wasted Hours,” and the ornate rage of Funeral for the simplicity of a line like “Let’s go for a drive and see the town tonight/There’s nothing do, but I don’t mind when I’m with you,” from album highlight “Suburban War.” The Suburbs feels like Richard Linklater’s Dazed & Confused for the Y generation. It’s serious without being preachy, cynical without dissolving into apathy, and whimsical enough to keep both sentiments in line, and of all of their records, it may be the one that ages so well. allmusicguide

Thanks to triGada!
Arcade Fire - The Suburbs [City Slang 2742629A] {2010}

// classical music \\
// all of my uploads \\
________________

Download:

FLAC
Artwork
________________