Subcategories

Archie Shepp Quartet feat. Annette Lowman - Lover Man (1988) {2015 Japan Timeless Jazz Master Collection Complete Series}

Posted By: ruskaval
Archie Shepp Quartet feat. Annette Lowman - Lover Man (1988) {2015 Japan Timeless Jazz Master Collection Complete Series}

Archie Shepp Quartet feat. Annette Lowman - Lover Man (1988) {2015 Japan Timeless Jazz Master Collection Complete Series}
EAC rip (secure mode) | FLAC (tracks)+CUE+LOG -> 387 Mb | MP3 @320 -> 142 Mb
Full Artwork @ 600 dpi (png) -> 260 Mb | 5% repair rar
© 1988, 2015 Timeless Records / Solid Records Japan / Ultra-Vibe | CDSOL-6356
Jazz / Bop / Modern Post Bebop / Saxophone / Vocal Jazz / Jazz Blues

Reissue with the latest remastering. Features original cover artwork. Comes with a descripton in Japanese. A real gem from the great Archie Shepp – an overlooked treasure from his years as a straight jazz musician – a time we come to appreciate more and more as the years go by! The Shepp heard here is one who's still got all the raw tone and bite of the old days, but also finds a way to swing things on a set of familiar standards – so that he's cutting these great raspy lines out of tunes you might already know – but which are taking on a whole new life in the process.

The small combo also features Dave Burrell on piano – another player who could go out, but instead here hangs inside, yet uses all the knowledge of his reach to keep things interesting. A few of the tracks feature vocals from Anne Lowman – with Shepp alongside on tenor – and the rest of the group features Herman Wright on bass and Steve McCraven on drums. Titles include "Brandnew World/Breaking A New Day", "My Funny Valentine", "Stars Are In Your Eyes", "Lush Life", and "Yesterdays".
Shepp has been criticized for his more commercial ventures such as this, but many will enjoy its accessibly light charm. Most of the numbers are standards, including "My Funny Valentine," "Lover Man," and "Lush Life," and are performed by the saxophonist backed by a solid rhythm section. Dave Burrell is wonderfully deft on piano, and he is given ample opportunity to interact with Shepp. Annette Lowman sings on several numbers, and she adds just the right touch and phrasing. Shepp is in somewhat less than perfect form, but he is clearly enjoying himself. There is a touch of a blues and R&B feel that adds to the ambiance. Unlike some of Shepp's other ventures, there are no attempted serious statements made – only relaxing, good, swinging jazz that lifts the spirits or touches the soul, if only just a bit.
Archie Shepp Quartet feat. Annette Lowman - Lover Man (1988) {2015 Japan Timeless Jazz Master Collection Complete Series}


Ultra-Vibe INFO

Personnel:
Archie Shepp - saxophone
Annette Lowman - vocals
Dave Burrell - piano
Herman Wright - bass
Steve McCraven - drums

tracklist:
01 - Starts Are In Your Eyes
02 - Lover Man
03 - Brandnew World - Breaking A New Day
04 - Margy Pargy
05 - My Funny Valentine
06 - Lush Life
07 - Squeeze Me
08 - Yesterday's
09 - Tribute To Bessy Smith

Exact Audio Copy V1.1 from 23. June 2015

EAC extraction logfile from 7. May 2016, 13:01

Archie Shepp Quartet feat. Annette Lowman / Lover Man

Used drive : TSSTcorpCDDVDW SE-208DB Adapter: 1 ID: 0

Read mode : Secure
Utilize accurate stream : Yes
Defeat audio cache : Yes
Make use of C2 pointers : No

Read offset correction : 6
Overread into Lead-In and Lead-Out : No
Fill up missing offset samples with silence : Yes
Delete leading and trailing silent blocks : No
Null samples used in CRC calculations : Yes
Used interface : Native Win32 interface for Win NT & 2000
Gap handling : Appended to previous track

Used output format : User Defined Encoder
Selected bitrate : 1024 kBit/s
Quality : High
Add ID3 tag : No
Command line compressor : C:\Program Files (x86)\FLAC Frontend\tools\flac.exe
Additional command line options : -8 -V -T "ARTIST=%artist%" -T "TITLE=%title%" -T "ALBUM=%albumtitle%" -T "DATE=%year%" -T "TRACKNUMBER=%tracknr%" -T "TOTALTRACKS=%numtracks%" -T "GENRE=%genre%" -T "ALBUMARTIST=%albumartist%" -T "ALBUM ARTIST=%albumartist%" -T "COMMENT=EAC Secure Mode, Test & Copy, AccurateRip, FLAC -8" %source%


TOC of the extracted CD

Track | Start | Length | Start sector | End sector
––––––––––––––––––––––––––––-
1 | 0:00.00 | 6:28.39 | 0 | 29138
2 | 6:28.39 | 6:11.09 | 29139 | 56972
3 | 12:39.48 | 9:23.04 | 56973 | 99201
4 | 22:02.52 | 5:38.41 | 99202 | 124592
5 | 27:41.18 | 5:21.40 | 124593 | 148707
6 | 33:02.58 | 6:49.03 | 148708 | 179385
7 | 39:51.61 | 6:17.16 | 179386 | 207676
8 | 46:09.02 | 5:18.55 | 207677 | 231581
9 | 51:27.57 | 8:39.40 | 231582 | 270546


Track 1

Filename D:\_EAC\Archie Shepp - Lover Man (1988) [FLAC] {CDSOL-6356}\01 - Starts Are In Your Eyes.wav

Pre-gap length 0:00:02.00

Peak level 97.3 %
Extraction speed 1.1 X
Track quality 100.0 %
Test CRC 2CFA29BB
Copy CRC 2CFA29BB
Track not present in AccurateRip database
Copy OK

Track 2

Filename D:\_EAC\Archie Shepp - Lover Man (1988) [FLAC] {CDSOL-6356}\02 - Lover Man.wav

Peak level 97.3 %
Extraction speed 1.2 X
Track quality 100.0 %
Test CRC 1D648EF2
Copy CRC 1D648EF2
Track not present in AccurateRip database
Copy OK

Track 3

Filename D:\_EAC\Archie Shepp - Lover Man (1988) [FLAC] {CDSOL-6356}\03 - Brandnew World - Breaking A New Day.wav

Peak level 97.3 %
Extraction speed 1.3 X
Track quality 99.9 %
Test CRC AED1F1BC
Copy CRC AED1F1BC
Track not present in AccurateRip database
Copy OK

Track 4

Filename D:\_EAC\Archie Shepp - Lover Man (1988) [FLAC] {CDSOL-6356}\04 - Margy Pargy.wav

Peak level 97.3 %
Extraction speed 1.5 X
Track quality 100.0 %
Test CRC 2CF5CD38
Copy CRC 2CF5CD38
Track not present in AccurateRip database
Copy OK

Track 5

Filename D:\_EAC\Archie Shepp - Lover Man (1988) [FLAC] {CDSOL-6356}\05 - My Funny Valentine.wav

Peak level 97.3 %
Extraction speed 1.6 X
Track quality 100.0 %
Test CRC FEDD941B
Copy CRC FEDD941B
Track not present in AccurateRip database
Copy OK

Track 6

Filename D:\_EAC\Archie Shepp - Lover Man (1988) [FLAC] {CDSOL-6356}\06 - Lush Life.wav

Peak level 97.3 %
Extraction speed 1.5 X
Track quality 99.9 %
Test CRC 73FF6C15
Copy CRC 73FF6C15
Track not present in AccurateRip database
Copy OK

Track 7

Filename D:\_EAC\Archie Shepp - Lover Man (1988) [FLAC] {CDSOL-6356}\07 - Squeeze Me.wav

Peak level 97.3 %
Extraction speed 1.7 X
Track quality 100.0 %
Test CRC 22E7D51B
Copy CRC 22E7D51B
Track not present in AccurateRip database
Copy OK

Track 8

Filename D:\_EAC\Archie Shepp - Lover Man (1988) [FLAC] {CDSOL-6356}\08 - Yesterday's.wav

Peak level 97.3 %
Extraction speed 1.6 X
Track quality 99.9 %
Test CRC 97C66ADA
Copy CRC 97C66ADA
Track not present in AccurateRip database
Copy OK

Track 9

Filename D:\_EAC\Archie Shepp - Lover Man (1988) [FLAC] {CDSOL-6356}\09 - Tribute To Bessy Smith.wav

Peak level 97.3 %
Extraction speed 1.9 X
Track quality 100.0 %
Test CRC 772BD887
Copy CRC 772BD887
Track not present in AccurateRip database
Copy OK


None of the tracks are present in the AccurateRip database

No errors occurred

End of status report

==== Log checksum C04A8CDA6E27CC24BA522915FD3FFD626C0716E24953F06B74FE9D0E5E329D6E ====


Archie Shepp Quartet feat. Annette Lowman - Lover Man (1988) {2015 Japan Timeless Jazz Master Collection Complete Series}

Archie Shepp Quartet feat. Annette Lowman - Lover Man (1988) {2015 Japan Timeless Jazz Master Collection Complete Series}



===