Subcategories

Atlanta Rhythm Section - Extended Versions (Live At The Savoy) [2011] RE-UPPED

Posted By: Shar'EmAll
Atlanta Rhythm Section - Extended Versions (Live At The Savoy) [2011] RE-UPPED

Atlanta Rhythm Section - Extended Versions (Live At The Savoy) [2011]
EAC | FLAC-IMG+CUE+LOG > 361 MB | Complete Artwork | MP3 CBR 320 Kbps > 121 MB
Southern Rock | Recorded Live in New York on October 27, 1981 | 48:17 minutes

This CD represents a great live recording of this classic Southern boogie band. ARS always showed a level of sophistication and musical taste above and beyond the typical good ole boy bands, and the material here shows that off well. The range of music goes from balladic cuts to bluesy/jazzy jams and classic Southern rock all the way to mainstream AOR performances. Of course, the highlights of the disc are the band's most well-known numbers, "Spooky" and "So Into You". Their cover of "Long Tall Sally" is a great album closer.

Tracklist:

01. Champange Jam
02. I'm Not Gonna Let It Bother Me Tonight
03. Homesick
04. Alien
05. Large Time
06. Spooky
07. Higher
08. Imaginary Lover
09. So Into You
10. Long Tall Sally

Thanks to the Original ripper!

Exact Audio Copy V1.0 beta 1 from 15. November 2010

EAC extraction logfile from 4. July 2012, 23:26

Atlanta Rythm Section / Live At The Savoy, New York 27.10.1981

Used drive : SAMSUNG DVD-ROM SD-616E Adapter: 3 ID: 0

Read mode : Secure
Utilize accurate stream : Yes
Defeat audio cache : Yes
Make use of C2 pointers : No

Read offset correction : 12
Overread into Lead-In and Lead-Out : No
Fill up missing offset samples with silence : Yes
Delete leading and trailing silent blocks : No
Null samples used in CRC calculations : Yes
Used interface : Native Win32 interface for Win NT & 2000

Used output format : Internal WAV Routines
Sample format : 44.100 Hz; 16 Bit; Stereo


TOC of the extracted CD

Track | Start | Length | Start sector | End sector
––––––––––––––––––––––––––––-
1 | 0:00.00 | 5:17.35 | 0 | 23809
2 | 5:17.35 | 5:55.22 | 23810 | 50456
3 | 11:12.57 | 4:54.72 | 50457 | 72578
4 | 16:07.54 | 5:51.45 | 72579 | 98948
5 | 21:59.24 | 3:05.55 | 98949 | 112878
6 | 25:05.04 | 5:13.15 | 112879 | 136368
7 | 30:18.19 | 5:09.68 | 136369 | 159611
8 | 35:28.12 | 3:39.73 | 159612 | 176109
9 | 39:08.10 | 6:03.24 | 176110 | 203358
10 | 45:11.34 | 3:05.37 | 203359 | 217270


Range status and errors

Selected range

Filename C:\Documents and Settings\Borya\Desktop\ARSEX\Atlanta Rythm Section - Live At The Savoy, New York 27.10.1981.wav

Peak level 97.7 %
Extraction speed 0.1 X
Range quality 99.9 %
Copy CRC F9E25DFC
Copy OK

No errors occurred


AccurateRip summary

Track 1 not present in database
Track 2 not present in database
Track 3 not present in database
Track 4 not present in database
Track 5 not present in database
Track 6 not present in database
Track 7 not present in database
Track 8 not present in database
Track 9 not present in database
Track 10 not present in database

None of the tracks are present in the AccurateRip database

End of status report


>
NF
FLAC
MP3 320
>
BF
FLAC
MP3 320

All covers & recovery info included.