Subcategories

Art Blakey & The Jazz Messengers - A Night In Tunisia (1960) {Blue Note Japan SHM-CD TYCJ-81010 rel 2013} (24-192 remaster)

Posted By: ruskaval
Art Blakey & The Jazz Messengers - A Night In Tunisia (1960) {Blue Note Japan SHM-CD TYCJ-81010 rel 2013} (24-192 remaster)

Art Blakey & The Jazz Messengers - A Night In Tunisia (1960) {Blue Note Japan SHM-CD TYCJ-81010 rel 2013} (24-192 remaster)
EAC rip (secure mode) | FLAC (tracks)+CUE+LOG -> 384 Mb | MP3 @320 -> 122 Mb
Full Artwork @ 600 dpi (png) -> 245 Mb | 5% repair rar | 24-bit 192 kHz remaster
© 1960, 2013 Universal Japan / Blue Note | BN 75th The Masterworks | TYCJ-81010
Jazz / Hard Bop

One of a number of Art Blakey albums titled after "Night In Tunisia" – and most likely the best! The tune is a perfect fit for the Blakey Jazz Messengers format – long, rhythmic, really stretching out, yet allowing plenty of space for the horn players to solo. Players include Bobby Timmons on piano, Lee Morgan on trumpet, and Wayne Shorter on tenor – a killer lineup that's in really classic form here – driven on nicely by Blakey's drums and bass work by Jymie Merritt. Titles include "Night In Tunisia", with Blakey thundering through impeccably – plus the tracks "Yama", "Kozo's Waltz", and a version of Timmons' great "So Tired".
Art Blakey & The Jazz Messengers - A Night In Tunisia (1960) {Blue Note Japan SHM-CD TYCJ-81010 rel 2013} (24-192 remaster)

Art Blakey & the Jazz Messengers hit their artistic peak with the powerful A Night in Tunisia. This incarnation of the group included Lee Morgan, Wayne Shorter, Bobby Timmons, and Jymie Merritt along with their leader, Blakey. As the Messengers entered their most fruitful period for Blue Note, Blakey drove his men relentlessly with powerful grooves, heavy swinging, and shouts of encouragement. This session documents the full power of his assertive leadership and the masterful playing of his sidemen, each rising to legendary status under his tutelage. Long known for their creative arrangements within the context of small-group jazz, the Messengers push the definition of hard bop and blues to the limit here. Dizzy Gillespie's title track is evidence enough of the creative power of this group: Blakey's steam shovel-like mambo, Morgan and Shorter's wailing solos, and a dramatic ending make for a stunning piece. Shorter's contribution includes the swinging "Sincerely Diana." The soulful Bobby Timmons presents his delightful "So Tired," a bluesy number in the spirit of his classic "Dat Dere." Also included are Lee Morgan's smoky "Yama," the bouncing "Kozo's Waltz," and the classic "When Your Lover Has Gone."
Art Blakey & The Jazz Messengers - A Night In Tunisia (1960) {Blue Note Japan SHM-CD TYCJ-81010 rel 2013} (24-192 remaster)


Personnel:
Lee Morgan – trumpet
Wayne Shorter – tenor saxophone
Bobby Timmons – piano
Jymie Merritt – bass
Art Blakey – drums

tracklist:
01 - A Night In Tunisia
02 - Sincerely Diana
03 - So Tired
04 - Yama
05 - Kozo's Waltz
06 - When Your Lover Has Gone (bonus track)
07 - Sincerely Diana (alt. take) (bonus track)

Exact Audio Copy V1.1 from 23. June 2015

EAC extraction logfile from 31. July 2015, 13:54

Art Blakey & The Jazz Messengers / A Night In Tunisia

Used drive : TSSTcorpCDDVDW SE-208DB Adapter: 7 ID: 0

Read mode : Secure
Utilize accurate stream : Yes
Defeat audio cache : Yes
Make use of C2 pointers : No

Read offset correction : 6
Overread into Lead-In and Lead-Out : No
Fill up missing offset samples with silence : Yes
Delete leading and trailing silent blocks : No
Null samples used in CRC calculations : Yes
Used interface : Installed external ASPI interface
Gap handling : Appended to previous track

Used output format : User Defined Encoder
Selected bitrate : 1024 kBit/s
Quality : High
Add ID3 tag : No
Command line compressor : C:\Program Files (x86)\FLAC Frontend\tools\flac.exe
Additional command line options : -8 -V -T "ARTIST=%artist%" -T "TITLE=%title%" -T "ALBUM=%albumtitle%" -T "DATE=%year%" -T "TRACKNUMBER=%tracknr%" -T "TOTALTRACKS=%numtracks%" -T "GENRE=%genre%" -T "ALBUMARTIST=%albumartist%" -T "ALBUM ARTIST=%albumartist%" -T "COMMENT=EAC Secure Mode, Test & Copy, AccurateRip, FLAC -8" %source%


TOC of the extracted CD

Track | Start | Length | Start sector | End sector
––––––––––––––––––––––––––––-
1 | 0:00.00 | 11:16.20 | 0 | 50719
2 | 11:16.20 | 6:50.55 | 50720 | 81524
3 | 18:07.00 | 6:39.25 | 81525 | 111474
4 | 24:46.25 | 6:23.66 | 111475 | 140265
5 | 31:10.16 | 6:49.63 | 140266 | 171003
6 | 38:00.04 | 6:46.69 | 171004 | 201522
7 | 44:46.73 | 6:56.55 | 201523 | 232777


Track 1

Filename M:\_EAC\Art Blakey & The Jazz Messengers - A Night In Tunisia (1960) [FLAC] {2013 Japan SHM-CD Blue Note 24-192 Remaster}\01 - A Night In Tunisia.wav

Pre-gap length 0:00:02.00

Peak level 100.0 %
Extraction speed 1.1 X
Track quality 99.9 %
Test CRC 94F3A12B
Copy CRC 94F3A12B
Accurately ripped (confidence 3) [98F639EA] (AR v2)
Copy OK

Track 2

Filename M:\_EAC\Art Blakey & The Jazz Messengers - A Night In Tunisia (1960) [FLAC] {2013 Japan SHM-CD Blue Note 24-192 Remaster}\02 - Sincerely Diana.wav

Pre-gap length 0:00:02.18

Peak level 100.0 %
Extraction speed 1.3 X
Track quality 100.0 %
Test CRC 012DB1A5
Copy CRC 012DB1A5
Accurately ripped (confidence 2) [FA566EA2] (AR v2)
Copy OK

Track 3

Filename M:\_EAC\Art Blakey & The Jazz Messengers - A Night In Tunisia (1960) [FLAC] {2013 Japan SHM-CD Blue Note 24-192 Remaster}\03 - So Tired.wav

Pre-gap length 0:00:02.43

Peak level 100.0 %
Extraction speed 1.5 X
Track quality 100.0 %
Test CRC 05EE5DBB
Copy CRC 05EE5DBB
Accurately ripped (confidence 2) [05AFDAA0] (AR v2)
Copy OK

Track 4

Filename M:\_EAC\Art Blakey & The Jazz Messengers - A Night In Tunisia (1960) [FLAC] {2013 Japan SHM-CD Blue Note 24-192 Remaster}\04 - Yama.wav

Pre-gap length 0:00:02.18

Peak level 99.1 %
Extraction speed 1.6 X
Track quality 100.0 %
Test CRC 3ACFF8C5
Copy CRC 3ACFF8C5
Accurately ripped (confidence 2) [194C5869] (AR v2)
Copy OK

Track 5

Filename M:\_EAC\Art Blakey & The Jazz Messengers - A Night In Tunisia (1960) [FLAC] {2013 Japan SHM-CD Blue Note 24-192 Remaster}\05 - Kozo's Waltz.wav

Pre-gap length 0:00:02.18

Peak level 100.0 %
Extraction speed 1.7 X
Track quality 100.0 %
Test CRC D24DDB9C
Copy CRC D24DDB9C
Accurately ripped (confidence 2) [153D35F5] (AR v2)
Copy OK

Track 6

Filename M:\_EAC\Art Blakey & The Jazz Messengers - A Night In Tunisia (1960) [FLAC] {2013 Japan SHM-CD Blue Note 24-192 Remaster}\06 - When Your Lover Has Gone (bonus track).wav

Pre-gap length 0:00:03.09

Peak level 100.0 %
Extraction speed 1.7 X
Track quality 100.0 %
Test CRC 300C24DB
Copy CRC 300C24DB
Accurately ripped (confidence 2) [C4E0C1CD] (AR v2)
Copy OK

Track 7

Filename M:\_EAC\Art Blakey & The Jazz Messengers - A Night In Tunisia (1960) [FLAC] {2013 Japan SHM-CD Blue Note 24-192 Remaster}\07 - Sincerely Diana (alt. take) (bonus track).wav

Pre-gap length 0:00:02.43

Peak level 100.0 %
Extraction speed 1.8 X
Track quality 100.0 %
Test CRC 05E0D785
Copy CRC 05E0D785
Accurately ripped (confidence 2) [95DA1394] (AR v2)
Copy OK


All tracks accurately ripped

No errors occurred

End of status report

==== Log checksum 53D41B5476EA880BE5F44CEAFA6FA7A3CFC5DD01B2EC4D8A3E350758AA9A8BEC ====


Art Blakey & The Jazz Messengers - A Night In Tunisia (1960) {Blue Note Japan SHM-CD TYCJ-81010 rel 2013} (24-192 remaster)

Art Blakey & The Jazz Messengers - A Night In Tunisia (1960) {Blue Note Japan SHM-CD TYCJ-81010 rel 2013} (24-192 remaster)


see more Blue Note Japan 75th Anniversary The Masterworks…


===