Subcategories

Art Blakey & Les Jazz-Messengers - Au Club Saint-Germain Vol.2 (1959) {2014 Japan Jazz Collection 1000 Columbia-RCA Series}

Posted By: ruskaval
Art Blakey & Les Jazz-Messengers - Au Club Saint-Germain Vol.2 (1959) {2014 Japan Jazz Collection 1000 Columbia-RCA Series}

Art Blakey & Les Jazz-Messengers - Au Club Saint-Germain Vol.2 (1959) {2014 Japan Jazz Collection 1000 Columbia-RCA Series SICP 3967}
EAC rip (secure mode) | FLAC (tracks)+CUE+LOG -> 270 Mb | MP3 @320 -> 101 Mb
Full Artwork @ 600 dpi (png) -> 187 Mb | 5% repair rar
© 1959, 2014 RCA / Sony Music Japan | SICP 3967
Jazz / Hard Bop

Reissue with the latest remastering. Comes with liner notes. Grand Prix Du Disque De L'académie Charles Cros 1959. Recorded at the celebrated Club Saint Germain, the formation presented here marks the third incarnation of Art Blakey’s Jazz Messengers, with trumpeter Lee Morgan (then only 20 years old), tenor saxophonist Benny Golson, pianist Bobby Timmons and bassist Jymie Merrit. For the last two tunes, bop drum pioneer Kenny Clarke (who was living in Paris) substitutes Blakey. Besides the individual gifts of each member, the group forms a compact unit with a cohesive sound. “We play modern jazz”, explained Blakey during a 1958 interview, “and to understand it you mus listen. We study, we rehearse. The Jazz Messengers are very serious about getting the music across to you. If you don’t want to listen, maybe the person sitting next to you does.”
Art Blakey & Les Jazz-Messengers - Au Club Saint-Germain Vol.2 (1959) {2014 Japan Jazz Collection 1000 Columbia-RCA Series}


Personnel:
Art Blakey - drums
Lee Morgan - trumpet
Benny Golson - tenor saxophone
Bobby Timmons - piano
Jymie Merritt - bass

tracklist:
01 - Moanin' With Hazel
02 - We Named It Justice (Evidence)
03 - Blues March For Europe No.1
04 - Like Someone In Love

Exact Audio Copy V1.0 beta 6 from 9. April 2015

EAC extraction logfile from 26. June 2015, 23:10

Art Blakey & Les Jazz-Messengers / Au Club Saint-Germain Vol.2

Used drive : ATAPI iHAS124 B Adapter: 2 ID: 0

Read mode : Secure
Utilize accurate stream : Yes
Defeat audio cache : Yes
Make use of C2 pointers : No

Read offset correction : 6
Overread into Lead-In and Lead-Out : No
Fill up missing offset samples with silence : Yes
Delete leading and trailing silent blocks : No
Null samples used in CRC calculations : Yes
Used interface : Installed external ASPI interface
Gap handling : Appended to previous track

Used output format : User Defined Encoder
Selected bitrate : 1024 kBit/s
Quality : High
Add ID3 tag : No
Command line compressor : C:\Program Files (x86)\FLAC Frontend\tools\flac.exe
Additional command line options : -8 -V -T "ARTIST=%artist%" -T "TITLE=%title%" -T "ALBUM=%albumtitle%" -T "DATE=%year%" -T "TRACKNUMBER=%tracknr%" -T "TOTALTRACKS=%numtracks%" -T "GENRE=%genre%" -T "ALBUMARTIST=%albumartist%" -T "ALBUM ARTIST=%albumartist%" -T "COMMENT=EAC Secure Mode, Test & Copy, AccurateRip, FLAC -8" %source%


TOC of the extracted CD

Track | Start | Length | Start sector | End sector
––––––––––––––––––––––––––––-
1 | 0:00.00 | 14:00.12 | 0 | 63011
2 | 14:00.12 | 6:39.73 | 63012 | 93009
3 | 20:40.10 | 11:19.25 | 93010 | 143959
4 | 31:59.35 | 10:51.57 | 143960 | 192841


Track 1

Filename D:\_EAC\Art Blakey & Les Jazz-Messengers - Au Club Saint-Germain Vol.2 (1959) [FLAC] {2014 Japan}\01 - Moanin' With Hazel.wav

Pre-gap length 0:00:02.00

Peak level 98.1 %
Extraction speed 4.3 X
Track quality 100.0 %
Test CRC 6B52F5B8
Copy CRC 6B52F5B8
Accurately ripped (confidence 1) [5186CEDB] (AR v2)
Copy OK

Track 2

Filename D:\_EAC\Art Blakey & Les Jazz-Messengers - Au Club Saint-Germain Vol.2 (1959) [FLAC] {2014 Japan}\02 - We Named It Justice (Evidence).wav

Pre-gap length 0:00:02.55

Peak level 98.1 %
Extraction speed 5.0 X
Track quality 100.0 %
Test CRC B2CC2574
Copy CRC B2CC2574
Accurately ripped (confidence 1) [3DB5BFEC] (AR v2)
Copy OK

Track 3

Filename D:\_EAC\Art Blakey & Les Jazz-Messengers - Au Club Saint-Germain Vol.2 (1959) [FLAC] {2014 Japan}\03 - Blues March For Europe No.1.wav

Pre-gap length 0:00:03.20

Peak level 98.0 %
Extraction speed 5.8 X
Track quality 100.0 %
Test CRC 4829DB77
Copy CRC 4829DB77
Accurately ripped (confidence 1) [B4ABD984] (AR v2)
Copy OK

Track 4

Filename D:\_EAC\Art Blakey & Les Jazz-Messengers - Au Club Saint-Germain Vol.2 (1959) [FLAC] {2014 Japan}\04 - Like Someone In Love.wav

Pre-gap length 0:00:03.38

Peak level 98.0 %
Extraction speed 6.5 X
Track quality 100.0 %
Test CRC 93B7E740
Copy CRC 93B7E740
Accurately ripped (confidence 1) [9E2146CA] (AR v2)
Copy OK


All tracks accurately ripped

No errors occurred

End of status report

==== Log checksum 1FE8B3D2DE8926AE15AFFB09BFA65EF0B1AAAEE7CEF860F0EC677E5BE993C0E1 ====


Art Blakey & Les Jazz-Messengers - Au Club Saint-Germain Vol.2 (1959) {2014 Japan Jazz Collection 1000 Columbia-RCA Series}

Art Blakey & Les Jazz-Messengers - Au Club Saint-Germain Vol.2 (1959) {2014 Japan Jazz Collection 1000 Columbia-RCA Series}


see more Japan Jazz Collection 1000 Columbia-RCA Series…


===