Subcategories

Art Blakey & The Jazz Messengers - Backgammon (1976) {2016 Japan SHM-CD Jazz Masters Collection 1200 Series WPCR-29102}

Posted By: ruskaval
Art Blakey & The Jazz Messengers - Backgammon (1976) {2016 Japan SHM-CD Jazz Masters Collection 1200 Series WPCR-29102}

Art Blakey & The Jazz Messengers - Backgammon (1976) {2016 Japan SHM-CD Jazz Masters Collection 1200 Series WPCR-29102}
EAC rip (secure mode) | FLAC (tracks)+CUE+LOG -> 362 Mb | MP3 @320 -> 114 Mb
Full Artwork @ 600 dpi (png) -> 183 Mb | 5% repair rar | 24bit remaster
© 1976, 2016 Roulette / Parlophone / Warner Music Japan | WPCR-29102
Jazz / Hard Bop

Reissue with SHM-CD format and new 24bit remastering. Comes with a mini-description. Killer work from this overlooked Art Blakey stretch of the mid 70s – a time when the drummer was getting back to basics, and re-igniting his music with help from some key younger players! This set sparkles with sharp tenor from the great David Schnitter – already a powerhouse out of the box, and driven onto new heights by Blakey! Also present is pianist Albert Dailey, whose conception helps bring in some fresh sounds to the Jazz Messengers universe – alongside flute player Ladji Camara, who also vocalizes on one cut. Yoshio Suzuki handles bass, and old line trumpeter Bill Hardman comes in to round out the group – on titles that include "Uranus", "Third World Blues", "Namfulay", and "Backgammon".
Art Blakey & The Jazz Messengers - Backgammon (1976) {2016 Japan SHM-CD Jazz Masters Collection 1200 Series WPCR-29102}


Personnel:
Art Blakey - drums
Bill Hardman - trumpet
Ladji Camara - flute, vocals (track 7)
David Schnitter - tenor saxophone
Albert Dailey - piano
Chin Yoshio Suzuki - bass

tracklist:
01 - Uranus
02 - Whisper Not
03 - Backgammon
04 - Blues March
05 - Georgia On My Mind
06 - Third World Blues
07 - Namfulay
08 - I Can't Get Started

Exact Audio Copy V1.1 from 23. June 2015

EAC extraction logfile from 29. January 2017, 20:17

Art Blakey & The Jazz Messengers / Backgammon

Used drive : TSSTcorpCDDVDW SE-208DB Adapter: 1 ID: 1

Read mode : Secure
Utilize accurate stream : Yes
Defeat audio cache : Yes
Make use of C2 pointers : No

Read offset correction : 6
Overread into Lead-In and Lead-Out : No
Fill up missing offset samples with silence : Yes
Delete leading and trailing silent blocks : No
Null samples used in CRC calculations : Yes
Used interface : Native Win32 interface for Win NT & 2000
Gap handling : Appended to previous track

Used output format : User Defined Encoder
Selected bitrate : 1024 kBit/s
Quality : High
Add ID3 tag : No
Command line compressor : C:\Program Files (x86)\FLAC Frontend\tools\flac.exe
Additional command line options : -8 -V -T "ARTIST=%artist%" -T "TITLE=%title%" -T "ALBUM=%albumtitle%" -T "DATE=%year%" -T "TRACKNUMBER=%tracknr%" -T "TOTALTRACKS=%numtracks%" -T "GENRE=%genre%" -T "ALBUMARTIST=%albumartist%" -T "ALBUM ARTIST=%albumartist%" -T "COMMENT=EAC Secure Mode, Test & Copy, AccurateRip, FLAC -8" %source%


TOC of the extracted CD

Track | Start | Length | Start sector | End sector
––––––––––––––––––––––––––––-
1 | 0:00.00 | 6:59.39 | 0 | 31463
2 | 6:59.39 | 6:34.54 | 31464 | 61067
3 | 13:34.18 | 5:29.43 | 61068 | 85785
4 | 19:03.61 | 5:32.25 | 85786 | 110710
5 | 24:36.11 | 5:20.07 | 110711 | 134717
6 | 29:56.18 | 7:51.39 | 134718 | 170081
7 | 37:47.57 | 4:07.46 | 170082 | 188652
8 | 41:55.28 | 6:47.44 | 188653 | 219221


Track 1

Filename D:\_EAC\Art Blakey & The Jazz Messengers - Backgammon (1976) [FLAC] {WPCR-29102}\01 - Uranus.wav

Pre-gap length 0:00:02.00

Peak level 100.0 %
Extraction speed 1.1 X
Track quality 100.0 %
Test CRC 616E2E9F
Copy CRC 616E2E9F
Track not present in AccurateRip database
Copy OK

Track 2

Filename D:\_EAC\Art Blakey & The Jazz Messengers - Backgammon (1976) [FLAC] {WPCR-29102}\02 - Whisper Not.wav

Pre-gap length 0:00:01.60

Peak level 100.0 %
Extraction speed 1.1 X
Track quality 99.9 %
Test CRC 980A35F3
Copy CRC 980A35F3
Track not present in AccurateRip database
Copy OK

Track 3

Filename D:\_EAC\Art Blakey & The Jazz Messengers - Backgammon (1976) [FLAC] {WPCR-29102}\03 - Backgammon.wav

Pre-gap length 0:00:02.37

Peak level 100.0 %
Extraction speed 1.3 X
Track quality 100.0 %
Test CRC D7454265
Copy CRC D7454265
Track not present in AccurateRip database
Copy OK

Track 4

Filename D:\_EAC\Art Blakey & The Jazz Messengers - Backgammon (1976) [FLAC] {WPCR-29102}\04 - Blues March.wav

Pre-gap length 0:00:02.09

Peak level 100.0 %
Extraction speed 1.3 X
Track quality 99.9 %
Test CRC B254286E
Copy CRC B254286E
Track not present in AccurateRip database
Copy OK

Track 5

Filename D:\_EAC\Art Blakey & The Jazz Messengers - Backgammon (1976) [FLAC] {WPCR-29102}\05 - Georgia On My Mind.wav

Pre-gap length 0:00:02.45

Peak level 100.0 %
Extraction speed 1.5 X
Track quality 100.0 %
Test CRC 4E24A2E5
Copy CRC 4E24A2E5
Track not present in AccurateRip database
Copy OK

Track 6

Filename D:\_EAC\Art Blakey & The Jazz Messengers - Backgammon (1976) [FLAC] {WPCR-29102}\06 - Third World Blues.wav

Pre-gap length 0:00:02.22

Peak level 100.0 %
Extraction speed 1.7 X
Track quality 100.0 %
Test CRC B26BB2F8
Copy CRC B26BB2F8
Track not present in AccurateRip database
Copy OK

Track 7

Filename D:\_EAC\Art Blakey & The Jazz Messengers - Backgammon (1976) [FLAC] {WPCR-29102}\07 - Namfulay.wav

Pre-gap length 0:00:02.26

Peak level 99.9 %
Extraction speed 1.6 X
Track quality 100.0 %
Test CRC 4D955011
Copy CRC 4D955011
Track not present in AccurateRip database
Copy OK

Track 8

Filename D:\_EAC\Art Blakey & The Jazz Messengers - Backgammon (1976) [FLAC] {WPCR-29102}\08 - I Can't Get Started.wav

Pre-gap length 0:00:02.28

Peak level 100.0 %
Extraction speed 1.8 X
Track quality 100.0 %
Test CRC BAB6EC32
Copy CRC BAB6EC32
Track not present in AccurateRip database
Copy OK


None of the tracks are present in the AccurateRip database

No errors occurred

End of status report

==== Log checksum F19E9F5D8EB680C91392891B24181F541D07D86AE9B530B7728B1CFBC96E61DA ====


Art Blakey & The Jazz Messengers - Backgammon (1976) {2016 Japan SHM-CD Jazz Masters Collection 1200 Series WPCR-29102}

Art Blakey & The Jazz Messengers - Backgammon (1976) {2016 Japan SHM-CD Jazz Masters Collection 1200 Series WPCR-29102}




NEXT -> more 2016 Japan SHM-CD Jazz Masters Collection 1200 Series on the way…

===