Subcategories

Art Pepper - Art Pepper Meets The Rhythm Section (1957) {OJC Remasters Complete Series rel 2010 - item 03of33}

Posted By: ruskaval
Art Pepper - Art Pepper Meets The Rhythm Section (1957) {OJC Remasters Complete Series rel 2010 - item 03of33}

Art Pepper - Art Pepper Meets The Rhythm Section (1957) {OJC Remasters Complete Series rel 2010 - item 03of33}
EAC rip (secure mode) | FLAC (tracks)+CUE+LOG -> 326 Mb | MP3 @320 -> 119 Mb
Full Artwork @ 600 dpi (png) -> 517 Mb | 5% repair rar | 24bit remastering
© 1957, 2010 Contemporary / Concord | 0888072319929
Jazz / Cool / West Coast Jazz / Saxophone

An extension of the popular Original Jazz Classics series (est. 1982), the new OJC Remasters releases reveal the sonic benefits of 24-bit remastering-a technology that didn't exist when these titles were originally issued on compact disc. The addition of newly-written liner notes further enhances the illuminating quality of the OJC Remasters reissues. "Each of the recordings in this series is an all-time jazz classic," says Nick Phillips, Vice President of Jazz and Catalog A&R at Concord Music Group and producer of the series.

"With these reissues, we get a fresh look and a new perspective on these artists and some of their most important work-not only from the meticulous 24-bit remastering by Joe Tarantino, but also from the insights we glean from the new liner notes that have been written for each title in the series."
Art Pepper - Art Pepper Meets The Rhythm Section (1957) {OJC Remasters Complete Series rel 2010 - item 03of33}

Art Pepper - Art Pepper Meets The Rhythm Section (1957) {OJC Remasters Complete Series rel 2010 - item 03of33}

Art Pepper Meets the Rhythm Section united the saxophonist with Miles Davis' crew at the time: pianist Red Garland, bassist Paul Chambers, and drummer Philly Joe Jones. By all accounts, the early 1957 session should have been a disaster. Recently released from federal prison, Pepper was still struggling with a heroin addiction and severely out of practice. The gig had been set up by Pepper's girlfriend (unbeknownst to him until just hours before the sessions were to begin), and he discovered at the last minute that - after several months of not playing - the cork in the mouthpiece of his horn had come loose. "But in the end, the session proved to be a triumph rather than a disaster," says Phillips. "The camaraderie between Pepper and the Rhythm Section resulted in one of Art's greatest recordings."

Jazz writer/broadcaster Neil Tesser, who penned the new liner notes to the reissue, suggests that music in this set "reveals an obvious camaraderie, true artistic achievement, and a distinct lack of self-doubt or intimidation - perhaps because musically, Pepper actually had a great deal in common with the Rhythm Section." He adds: "The ‘meeting' between Pepper and this rhythm section was less a matter of confrontation, or even creative friction, than a matter of shaking hands in the middle of a bridge spanning east- and west-coast idioms."

"The Man I Love," a performance that was recorded at this session but was not included in the original album release, is included as a bonus track.
Art Pepper - Art Pepper Meets The Rhythm Section (1957) {OJC Remasters Complete Series rel 2010 - item 03of33}


Personnel:
Art Pepper - Alto Saxophone
Red Garland - Piano
Paul Chambers - Bass
Philly Joe Jones - Drums

tracklist:
01. You'd Be So Nice to Come Home To
02. Red Pepper Blues
03. Imagination
04. Waltz Me Blues
05. Straight Life
06. Jazz Me Blues
07. Tin Tin Deo
08. Star Eyes
09. Birks' Works
10. The Man I Love (bonus track)

Exact Audio Copy V1.1 from 23. June 2015

EAC extraction logfile from 10. February 2017, 12:12

Art Pepper / Art Pepper Meets The Rhythm Section

Used drive : TSSTcorpCDDVDW SE-208DB Adapter: 1 ID: 1

Read mode : Secure
Utilize accurate stream : Yes
Defeat audio cache : Yes
Make use of C2 pointers : No

Read offset correction : 6
Overread into Lead-In and Lead-Out : No
Fill up missing offset samples with silence : Yes
Delete leading and trailing silent blocks : No
Null samples used in CRC calculations : Yes
Used interface : Native Win32 interface for Win NT & 2000
Gap handling : Appended to previous track

Used output format : User Defined Encoder
Selected bitrate : 1024 kBit/s
Quality : High
Add ID3 tag : No
Command line compressor : C:\Program Files (x86)\FLAC Frontend\tools\flac.exe
Additional command line options : -8 -V -T "ARTIST=%artist%" -T "TITLE=%title%" -T "ALBUM=%albumtitle%" -T "DATE=%year%" -T "TRACKNUMBER=%tracknr%" -T "TOTALTRACKS=%numtracks%" -T "GENRE=%genre%" -T "ALBUMARTIST=%albumartist%" -T "ALBUM ARTIST=%albumartist%" -T "COMMENT=EAC Secure Mode, Test & Copy, AccurateRip, FLAC -8" %source%


TOC of the extracted CD

Track | Start | Length | Start sector | End sector
––––––––––––––––––––––––––––-
1 | 0:00.00 | 5:27.58 | 0 | 24582
2 | 5:27.58 | 3:40.39 | 24583 | 41121
3 | 9:08.22 | 5:55.41 | 41122 | 67787
4 | 15:03.63 | 2:58.69 | 67788 | 81206
5 | 18:02.57 | 4:04.26 | 81207 | 99532
6 | 22:07.08 | 4:50.12 | 99533 | 121294
7 | 26:57.20 | 7:46.43 | 121295 | 156287
8 | 34:43.63 | 5:15.10 | 156288 | 179922
9 | 39:58.73 | 4:19.44 | 179923 | 199391
10 | 44:18.42 | 6:31.61 | 199392 | 228777


Track 1

Filename D:\_EAC\Art Pepper - Art Pepper Meets The Rhythm Section (1957) [FLAC] {OJC Remasters Series rel 2010}\01 - You'd Be So Nice To Come Home To.wav

Pre-gap length 0:00:02.00

Peak level 98.7 %
Extraction speed 1.1 X
Track quality 100.0 %
Test CRC B36DC02A
Copy CRC B36DC02A
Accurately ripped (confidence 51) [0819FBB2] (AR v2)
Copy OK

Track 2

Filename D:\_EAC\Art Pepper - Art Pepper Meets The Rhythm Section (1957) [FLAC] {OJC Remasters Series rel 2010}\02 - Red Pepper Blues.wav

Peak level 98.7 %
Extraction speed 1.1 X
Track quality 100.0 %
Test CRC 0466624E
Copy CRC 0466624E
Accurately ripped (confidence 50) [B92E8B0B] (AR v2)
Copy OK

Track 3

Filename D:\_EAC\Art Pepper - Art Pepper Meets The Rhythm Section (1957) [FLAC] {OJC Remasters Series rel 2010}\03 - Imagination.wav

Peak level 98.7 %
Extraction speed 1.2 X
Track quality 99.9 %
Test CRC C6D439C3
Copy CRC C6D439C3
Accurately ripped (confidence 49) [2DD44E57] (AR v2)
Copy OK

Track 4

Filename D:\_EAC\Art Pepper - Art Pepper Meets The Rhythm Section (1957) [FLAC] {OJC Remasters Series rel 2010}\04 - Waltz Me Blues.wav

Peak level 98.7 %
Extraction speed 1.0 X
Track quality 99.9 %
Test CRC AA6EA6BB
Copy CRC AA6EA6BB
Accurately ripped (confidence 50) [655BFE6E] (AR v2)
Copy OK

Track 5

Filename D:\_EAC\Art Pepper - Art Pepper Meets The Rhythm Section (1957) [FLAC] {OJC Remasters Series rel 2010}\05 - Straight Life.wav

Peak level 98.7 %
Extraction speed 1.2 X
Track quality 99.9 %
Test CRC 47413310
Copy CRC 47413310
Accurately ripped (confidence 49) [9F44D5A9] (AR v2)
Copy OK

Track 6

Filename D:\_EAC\Art Pepper - Art Pepper Meets The Rhythm Section (1957) [FLAC] {OJC Remasters Series rel 2010}\06 - Jazz Me Blues.wav

Peak level 98.7 %
Extraction speed 1.3 X
Track quality 99.9 %
Test CRC F61157A2
Copy CRC F61157A2
Accurately ripped (confidence 49) [BF31E502] (AR v2)
Copy OK

Track 7

Filename D:\_EAC\Art Pepper - Art Pepper Meets The Rhythm Section (1957) [FLAC] {OJC Remasters Series rel 2010}\07 - Tin Tin Deo.wav

Peak level 98.7 %
Extraction speed 1.6 X
Track quality 100.0 %
Test CRC 05E0B7AD
Copy CRC 05E0B7AD
Accurately ripped (confidence 49) [425B1DF5] (AR v2)
Copy OK

Track 8

Filename D:\_EAC\Art Pepper - Art Pepper Meets The Rhythm Section (1957) [FLAC] {OJC Remasters Series rel 2010}\08 - Star Eyes.wav

Peak level 98.7 %
Extraction speed 1.6 X
Track quality 100.0 %
Test CRC 8F806394
Copy CRC 8F806394
Accurately ripped (confidence 48) [7B095285] (AR v2)
Copy OK

Track 9

Filename D:\_EAC\Art Pepper - Art Pepper Meets The Rhythm Section (1957) [FLAC] {OJC Remasters Series rel 2010}\09 - Birks' Works.wav

Peak level 98.7 %
Extraction speed 1.4 X
Track quality 99.9 %
Test CRC 8E812A94
Copy CRC 8E812A94
Accurately ripped (confidence 48) [A72546B4] (AR v2)
Copy OK

Track 10

Filename D:\_EAC\Art Pepper - Art Pepper Meets The Rhythm Section (1957) [FLAC] {OJC Remasters Series rel 2010}\10 - The Man I Love (bonus track).wav

Peak level 88.0 %
Extraction speed 1.8 X
Track quality 100.0 %
Test CRC 726F037C
Copy CRC 726F037C
Accurately ripped (confidence 49) [37ECD09A] (AR v2)
Copy OK


All tracks accurately ripped

No errors occurred

End of status report

–– CUETools DB Plugin V2.1.6

[CTDB TOCID: 6wxXm7reBzVApCq2EylYeSIgiRA-] found
Submit result: 6wxXm7reBzVApCq2EylYeSIgiRA- has been confirmed
Track | CTDB Status
1 | (57/57) Accurately ripped
2 | (57/57) Accurately ripped
3 | (57/57) Accurately ripped
4 | (57/57) Accurately ripped
5 | (56/57) Accurately ripped
6 | (57/57) Accurately ripped
7 | (57/57) Accurately ripped
8 | (57/57) Accurately ripped
9 | (57/57) Accurately ripped
10 | (56/57) Accurately ripped


==== Log checksum 231040E42A947C30FF6F3F0E4DC8A43F70B59743D7022E07487BFDEBEC08711E ====


Art Pepper - Art Pepper Meets The Rhythm Section (1957) {OJC Remasters Complete Series rel 2010 - item 03of33}

Art Pepper - Art Pepper Meets The Rhythm Section (1957) {OJC Remasters Complete Series rel 2010 - item 03of33}


Original Jazz Classics Remasters Complete Series:
Thelonious Monk - Thelonious Monk With John Coltrane (1957) {OJC Remasters Complete Series rel 2010 - item 01of33}
Sonny Rollins - Way Out West (1957) {OJC Remasters Complete Series rel 2010 - item 02of33}


===