Subcategories

Art Tatum - The Complete Pablo Group Masterpieces (1990) {6CD Set Pablo Records 6PACD-4401-2 rec 1954-1956}

Posted By: ruskaval
Art Tatum - The Complete Pablo Group Masterpieces (1990) {6CD Set Pablo Records 6PACD-4401-2 rec 1954-1956}

Art Tatum - The Complete Pablo Group Masterpieces (1990) {6CD Set Pablo Records 6PACD-4401-2 rec 1954-1956}
XLD rip (secure mode) | FLAC (tracks)+CUE+LOG -> 1.91 Gb | MP3 @320 -> 1.03 Gb
Full Artwork @ 600 dpi (jpg) -> 229 Mb | 5% repair rar
© 1954-56, 1990 Pablo Records | 6PACD-4401-2
Jazz / Mainstream Jazz / Swing / Stride / Boogie-Woogie / Piano

Tatum spent most of his career as a solo pianist; in fact, it was often said that he was such an unpredictable virtuoso that it would be difficult for other musicians to play with him. Producer Norman Granz sought to prove that the theory was false, so between 1954 and 1956 he extensively recorded Tatum with a variety of other classic jazzmen, resulting originally in nine LPs of material that is now available separately as eight CDs and on this very full six-CD box set.

In contrast to the massive solo Tatum sessions that Granz also recorded during this period, the group sides have plenty of variety and exciting moments, which is not too surprising when one considers that Tatum was teamed in a trio with altoist Benny Carter and drummer Louie Bellson; with trumpeter Roy Eldridge, clarinetist Buddy DeFranco, and tenor saxophonist Ben Webster in separate quartets; in an explosive trio with vibraphonist Lionel Hampton and drummer Buddy Rich; with a sextet including Hampton, Rich, and trumpeter Harry "Sweets" Edison; and on a standard trio session.
Art Tatum - The Complete Pablo Group Masterpieces (1990) {6CD Set Pablo Records 6PACD-4401-2 rec 1954-1956}

Art Tatum - The Complete Pablo Group Masterpieces (1990) {6CD Set Pablo Records 6PACD-4401-2 rec 1954-1956}


TRACKLISTING & PERSONNEL:

CD 1

01 Blues in C
02 Undecided
03 Under a Blanket of Blue
04 Blues in B Flat
05 A Foggy Day
06 Street of Dreams
07 S'Wonderful
08 Makin' Whoopee
09 Old Fashioned Love
10 (I'm Left with the) Blues in My Heart
11 My Blue Heaven
12 Hands Across the Table
13 You're Mine You
14 Idaho

Piano: Art Tatum
Alto Sax: Benny Carter
Drums: Louis Bellson

Recorded 25 June 1954 at Radio Recorders, Los Angeles


CD 2

01 Night and Day
02 I Won't Dance
03 In a Sentimental Mood
04 The Moon is Low
05 Moon Song
06 You Took Advantage of Me
07 This Can't Be Love
08 I Surrender Dear
09 I Won't Dance [alternate take]
10 In a Sentimental Mood [alternate take]

Piano: Art Tatum
Trumpet, Flugelhorn (04): Roy Eldridge
Bass: John Simmons
Drums: Alvin Stoller

Recorded 23 & 29 March 1955 at Radio Recorders, Los Angeles

11 What is This Thing Called Love
12 I'll Never Be the Same
13 Makin' Whoopee
14 Hallelujah

Art Tatum - The Complete Pablo Group Masterpieces (1990) {6CD Set Pablo Records 6PACD-4401-2 rec 1954-1956}


CD 3

01 Perdido
02 More Than You Know
03 How High the Moon
04 This Can't Be Love
05 Stars Fell on Alabama
06 Lover Man
07 Prisoner of Love
08 Love for Sale (Concept I)
09 Love for Sale (Concept II)
10 Body and Soul
11 Please Be Kind
12 This Can't Be Love [alternate take]
13 Hallelujah [alternate take]

Piano: Art Tatum
Vibes: Lionel Hampton
Drums: Buddy Rich

Recorded 1 August 1955 at Radio Recorders, Los Angeles


CD 4

01 Verve Blues
02 Plaid
03 Somebody Loves Me
04 September Song
05 Deep Purple
06 September Song [78 RPM single version]
07 What is This Thing Called Love
08 What is This Thing Called Love [alternative take]

Piano: Art Tatum
Vibes: Lionel Hampton
Trumpet: Harry "Sweets" Edison
Guitar: Barney Kessel (01-03, 05, 07-08)
Bass: Red Callender (01-02, 04, 06-08), John Simmons (03, 05)
Drums: Buddy Rich

Recorded 7 September 1955 at Radio Recorders, Los Angeles

09 Just One of Those Things
10 More Than You Know
11 Some Other Spring


CD 5

01 If
02 Blue Lou
03 Love for Sale
04 Isn't It Romantic?
05 I'll Never Be the Same
06 I Guess I'll Have to Change My Plans
07 Trio Blues

Piano: Art Tatum
Bass: Red Callender
Drums: Jo Jones

Recorded 27 January 1956 at Capitol Studios, Los Angeles

08 Deep Night
09 This Can't Be Love
10 Memories of You
11 Once in a While
12 A Foggy Day
13 Lover Man
14 You're Mine, You
15 Makin' Whoopee

Art Tatum - The Complete Pablo Group Masterpieces (1990) {6CD Set Pablo Records 6PACD-4401-2 rec 1954-1956}


CD 6

01 Deep Night [alternate take]
02 Once in a While [alternate take]
03 This Can't Be Love [alternate take]

Piano: Art Tatum
Clarinet: Buddy DeFranco
Bass: Red Callender
Drums: Bill Douglass

Recorded 6 February 1956 at Capitol Studios, Los Angeles

04 Gone With the Wind
05 All the Things You Are
06 Have You Met Miss Jones?
07 My One and Only Love
08 Night and Day
09 My Ideal
10 Where or When
11 Gone With the Wind [alternative take 1]
12 Gone With the Wind [alternative take 2]
13 Have You Met Miss Jones? [alternate take]

Piano: Art Tatum
Tenor Sax: Ben Webster
Bass: Red Callender
Drums: Bill Douglass

Recorded 11 September 1956 at Capitol Studios, Los Angeles

X Lossless Decoder version 20160920 (149.2)

XLD extraction logfile from 2017-04-08 17:34:13 +0200

Art Tatum / Art Tatum - The Complete Pablo Group Masterpieces

Used drive : TSSTcorp CDDVDW SE-S084D (revision TS01)
Media type : Pressed CD

Ripper mode : XLD Secure Ripper
Disable audio cache : OK for the drive with a cache less than 1375KiB
Make use of C2 pointers : NO
Read offset correction : 6
Max retry count : 100
Gap status : Analyzed, Appended (except HTOA)

TOC of the extracted CD
Track | Start | Length | Start sector | End sector
––––––––––––––––––––––––––––-
1 | 00:00:00 | 08:05:17 | 0 | 36391
2 | 08:05:17 | 04:53:43 | 36392 | 58409
3 | 12:58:60 | 06:17:35 | 58410 | 86719
4 | 19:16:20 | 05:45:57 | 86720 | 112651
5 | 25:02:02 | 05:30:15 | 112652 | 137416
6 | 30:32:17 | 03:52:48 | 137417 | 154864
7 | 34:24:65 | 03:20:30 | 154865 | 169894
8 | 37:45:20 | 06:15:62 | 169895 | 198081
9 | 44:01:07 | 05:01:65 | 198082 | 220721
10 | 49:02:72 | 05:59:05 | 220722 | 247651
11 | 55:02:02 | 04:04:55 | 247652 | 266006
12 | 59:06:57 | 03:44:33 | 266007 | 282839
13 | 62:51:15 | 05:12:27 | 282840 | 306266
14 | 68:03:42 | 04:13:43 | 306267 | 325284

List of alternate offset correction values
# | Absolute | Relative | Confidence
–––––––––––––––––––––
1 | 122 | 116 | 19
2 | 51 | 45 | 4
3 | 33 | 27 | 2

AccurateRip Summary (DiscID: 0027b8c6-019eac53-d110f10e)
Track 01 : OK (v1+v2, confidence 17/42)
Track 02 : OK (v1+v2, confidence 17/42)
Track 03 : OK (v1+v2, confidence 17/42)
Track 04 : OK (v1+v2, confidence 14/41)
Track 05 : OK (v1+v2, confidence 17/42)
Track 06 : OK (v1+v2, confidence 17/41)
Track 07 : OK (v1+v2, confidence 17/42)
Track 08 : OK (v1+v2, confidence 17/42)
Track 09 : OK (v1+v2, confidence 16/41)
Track 10 : OK (v1+v2, confidence 17/42)
Track 11 : OK (v1+v2, confidence 17/42)
Track 12 : OK (v1+v2, confidence 17/42)
Track 13 : OK (v1+v2, confidence 17/42)
Track 14 : OK (v1+v2, confidence 16/41)
->All tracks accurately ripped.

All Tracks
Album gain : 0.11 dB
Peak : 0.850067
Statistics
Read error : 0
Jitter error (maybe fixed) : 0
Retry sector count : 0
Damaged sector count : 0

Track 01
Filename : /Art Tatum - The Complete Pablo Group Masterpieces/CD 01/01 Blues in C.flac
Pre-gap length : 00:02:00

Track gain : 0.00 dB
Peak : 0.552582
CRC32 hash (test run) : E44AB7DF
CRC32 hash : E44AB7DF
CRC32 hash (skip zero) : BA7CB8BC
AccurateRip v1 signature : 95263F56
AccurateRip v2 signature : 7A10A7E4
->Accurately ripped (v1+v2, confidence 6+11/42)
Statistics
Read error : 0
Jitter error (maybe fixed) : 0
Retry sector count : 0
Damaged sector count : 0

Track 02
Filename : /Art Tatum - The Complete Pablo Group Masterpieces/CD 01/02 Undecided.flac
Pre-gap length : 00:02:22

Track gain : 0.00 dB
Peak : 0.659790
CRC32 hash (test run) : 81FEB193
CRC32 hash : 81FEB193
CRC32 hash (skip zero) : B9A6F3CB
AccurateRip v1 signature : EE46A7D4
AccurateRip v2 signature : 23D8D817
->Accurately ripped (v1+v2, confidence 6+11/42)
Statistics
Read error : 0
Jitter error (maybe fixed) : 0
Retry sector count : 0
Damaged sector count : 0

Track 03
Filename : /Art Tatum - The Complete Pablo Group Masterpieces/CD 01/03 Under a Blanket of Blue.flac
Pre-gap length : 00:02:43

Track gain : 1.13 dB
Peak : 0.493500
CRC32 hash (test run) : DC142163
CRC32 hash : DC142163
CRC32 hash (skip zero) : 06F90E93
AccurateRip v1 signature : BB87B132
AccurateRip v2 signature : 0635A09E
->Accurately ripped (v1+v2, confidence 6+11/42)
Statistics
Read error : 0
Jitter error (maybe fixed) : 0
Retry sector count : 0
Damaged sector count : 0

Track 04
Filename : /Art Tatum - The Complete Pablo Group Masterpieces/CD 01/04 Blues in B Flat.flac
Pre-gap length : 00:03:28

Track gain : 0.13 dB
Peak : 0.582550
CRC32 hash (test run) : E621E1FA
CRC32 hash : E621E1FA
CRC32 hash (skip zero) : 7506FB4A
AccurateRip v1 signature : B0D38233
AccurateRip v2 signature : DD7A63C0
->Accurately ripped (v1+v2, confidence 5+9/41)
Statistics
Read error : 0
Jitter error (maybe fixed) : 0
Retry sector count : 0
Damaged sector count : 0

Track 05
Filename : /Art Tatum - The Complete Pablo Group Masterpieces/CD 01/05 A Foggy Day.flac
Pre-gap length : 00:02:17

Track gain : 0.15 dB
Peak : 0.521027
CRC32 hash (test run) : C7A127DE
CRC32 hash : C7A127DE
CRC32 hash (skip zero) : 8C998DAD
AccurateRip v1 signature : 7EFD3BE6
AccurateRip v2 signature : 253891AC
->Accurately ripped (v1+v2, confidence 6+11/42)
Statistics
Read error : 0
Jitter error (maybe fixed) : 0
Retry sector count : 0
Damaged sector count : 0

Track 06
Filename : /Art Tatum - The Complete Pablo Group Masterpieces/CD 01/06 Street of Dreams.flac
Pre-gap length : 00:03:02

Track gain : 0.12 dB
Peak : 0.575500
CRC32 hash (test run) : 7C21629B
CRC32 hash : 7C21629B
CRC32 hash (skip zero) : F8554A58
AccurateRip v1 signature : 381816F2
AccurateRip v2 signature : C727D422
->Accurately ripped (v1+v2, confidence 6+11/41)
Statistics
Read error : 0
Jitter error (maybe fixed) : 0
Retry sector count : 0
Damaged sector count : 0

Track 07
Filename : /Art Tatum - The Complete Pablo Group Masterpieces/CD 01/07 S'Wonderful.flac
Pre-gap length : 00:02:10

Track gain : -0.68 dB
Peak : 0.714020
CRC32 hash (test run) : D539640F
CRC32 hash : D539640F
CRC32 hash (skip zero) : 05283CC1
AccurateRip v1 signature : 3CC9EFEE
AccurateRip v2 signature : 51631952
->Accurately ripped (v1+v2, confidence 6+11/42)
Statistics
Read error : 0
Jitter error (maybe fixed) : 0
Retry sector count : 0
Damaged sector count : 0

Track 08
Filename : /Art Tatum - The Complete Pablo Group Masterpieces/CD 01/08 Makin' Whoopee.flac
Pre-gap length : 00:02:43

Track gain : 0.42 dB
Peak : 0.565186
CRC32 hash (test run) : 3E985A2C
CRC32 hash : 3E985A2C
CRC32 hash (skip zero) : 94BCB163
AccurateRip v1 signature : 0116697C
AccurateRip v2 signature : 3164F8D7
->Accurately ripped (v1+v2, confidence 6+11/42)
Statistics
Read error : 0
Jitter error (maybe fixed) : 0
Retry sector count : 0
Damaged sector count : 0

Track 09
Filename : /Art Tatum - The Complete Pablo Group Masterpieces/CD 01/09 Old Fashioned Love.flac
Pre-gap length : 00:03:40

Track gain : -0.35 dB
Peak : 0.850067
CRC32 hash (test run) : 78E52850
CRC32 hash : 78E52850
CRC32 hash (skip zero) : 0B6A4FF2
AccurateRip v1 signature : 50CFABF4
AccurateRip v2 signature : 3E150136
->Accurately ripped (v1+v2, confidence 6+10/41)
Statistics
Read error : 0
Jitter error (maybe fixed) : 0
Retry sector count : 0
Damaged sector count : 0

Track 10
Filename : /Art Tatum - The Complete Pablo Group Masterpieces/CD 01/10 (I'm Left with the) Blues in My Heart.flac
Pre-gap length : 00:02:52

Track gain : -0.07 dB
Peak : 0.535431
CRC32 hash (test run) : 990298C6
CRC32 hash : 990298C6
CRC32 hash (skip zero) : 3E2A002C
AccurateRip v1 signature : DB53459C
AccurateRip v2 signature : F7E84142
->Accurately ripped (v1+v2, confidence 6+11/42)
Statistics
Read error : 0
Jitter error (maybe fixed) : 0
Retry sector count : 0
Damaged sector count : 0

Track 11
Filename : /Art Tatum - The Complete Pablo Group Masterpieces/CD 01/11 My Blue Heaven.flac
Pre-gap length : 00:02:35

Track gain : 0.69 dB
Peak : 0.566925
CRC32 hash (test run) : 86E23203
CRC32 hash : 86E23203
CRC32 hash (skip zero) : 3B276A52
AccurateRip v1 signature : 39AC984F
AccurateRip v2 signature : 6956FF5C
->Accurately ripped (v1+v2, confidence 6+11/42)
Statistics
Read error : 0
Jitter error (maybe fixed) : 0
Retry sector count : 0
Damaged sector count : 0

Track 12
Filename : /Art Tatum - The Complete Pablo Group Masterpieces/CD 01/12 Hands Across the Table.flac
Pre-gap length : 00:03:62

Track gain : 0.40 dB
Peak : 0.610931
CRC32 hash (test run) : C468C346
CRC32 hash : C468C346
CRC32 hash (skip zero) : C9463BDB
AccurateRip v1 signature : 35013E85
AccurateRip v2 signature : 84B104F8
->Accurately ripped (v1+v2, confidence 6+11/42)
Statistics
Read error : 0
Jitter error (maybe fixed) : 0
Retry sector count : 0
Damaged sector count : 0

Track 13
Filename : /Art Tatum - The Complete Pablo Group Masterpieces/CD 01/13 You're Mine You.flac
Pre-gap length : 00:02:60

Track gain : -0.33 dB
Peak : 0.542511
CRC32 hash (test run) : 031BD7DE
CRC32 hash : 031BD7DE
CRC32 hash (skip zero) : 7A5BF61F
AccurateRip v1 signature : 53E75D0B
AccurateRip v2 signature : 88E8A871
->Accurately ripped (v1+v2, confidence 6+11/42)
Statistics
Read error : 0
Jitter error (maybe fixed) : 0
Retry sector count : 0
Damaged sector count : 0

Track 14
Filename : /Art Tatum - The Complete Pablo Group Masterpieces/CD 01/14 Idaho.flac
Pre-gap length : 00:02:55

Track gain : 0.49 dB
Peak : 0.691803
CRC32 hash (test run) : 76C3F260
CRC32 hash : 76C3F260
CRC32 hash (skip zero) : 9C1E0084
AccurateRip v1 signature : A9388A38
AccurateRip v2 signature : 5181511E
->Accurately ripped (v1+v2, confidence 6+10/41)
Statistics
Read error : 0
Jitter error (maybe fixed) : 0
Retry sector count : 0
Damaged sector count : 0

No errors occurred

End of status report

––-BEGIN XLD SIGNATURE––-
uh71oQR5F7UzcDGpgJ6eaor3u_FJ9NcP8Oqs1xXoO4VB3lyzRZk86wrfFSJSYR8hLFTl7RRtRLVh5GY9Zik5xU9_t5fA6huCMB8YM_W
––-END XLD SIGNATURE––-
X Lossless Decoder version 20160920 (149.2)

XLD extraction logfile from 2017-04-08 20:19:04 +0200

Art Tatum / Art Tatum - The Complete Pablo Group Masterpieces

Used drive : TSSTcorp CDDVDW SE-S084D (revision TS01)
Media type : Pressed CD

Ripper mode : XLD Secure Ripper
Disable audio cache : OK for the drive with a cache less than 1375KiB
Make use of C2 pointers : NO
Read offset correction : 6
Max retry count : 100
Gap status : Analyzed, Appended (except HTOA)

TOC of the extracted CD
Track | Start | Length | Start sector | End sector
––––––––––––––––––––––––––––-
1 | 00:00:00 | 05:50:47 | 0 | 26296
2 | 05:50:47 | 05:05:40 | 26297 | 49211
3 | 10:56:12 | 04:29:48 | 49212 | 69434
4 | 15:25:60 | 04:48:67 | 69435 | 91101
5 | 20:14:52 | 07:16:10 | 91102 | 123811
6 | 27:30:62 | 04:49:20 | 123812 | 145506
7 | 32:20:07 | 06:15:48 | 145507 | 173679
8 | 38:35:55 | 05:30:62 | 173680 | 198491
9 | 44:06:42 | 07:17:05 | 198492 | 231271
10 | 51:23:47 | 06:27:38 | 231272 | 260334
11 | 57:51:10 | 04:52:07 | 260335 | 282241
12 | 62:43:17 | 04:50:08 | 282242 | 303999
13 | 67:33:25 | 05:01:60 | 304000 | 326634

List of alternate offset correction values
# | Absolute | Relative | Confidence
–––––––––––––––––––––
1 | 107 | 101 | 20
2 | 110 | 104 | 2
3 | 128 | 122 | 2

AccurateRip Summary (DiscID: 0022d225-015e5379-be11030d)
Track 01 : OK (v1+v2, confidence 17/40)
Track 02 : OK (v1+v2, confidence 17/40)
Track 03 : OK (v1+v2, confidence 17/41)
Track 04 : OK (v1+v2, confidence 17/41)
Track 05 : OK (v1+v2, confidence 17/41)
Track 06 : OK (v1+v2, confidence 17/40)
Track 07 : OK (v1+v2, confidence 17/41)
Track 08 : OK (v1+v2, confidence 16/39)
Track 09 : OK (v1+v2, confidence 17/40)
Track 10 : OK (v1+v2, confidence 17/40)
Track 11 : OK (v1+v2, confidence 17/40)
Track 12 : OK (v1+v2, confidence 17/40)
Track 13 : OK (v1+v2, confidence 16/39)
->All tracks accurately ripped.

All Tracks
Album gain : 1.19 dB
Peak : 0.752899
Statistics
Read error : 0
Jitter error (maybe fixed) : 0
Retry sector count : 0
Damaged sector count : 0

Track 01
Filename : /Art Tatum - The Complete Pablo Group Masterpieces/CD 06/01 Deep Night [alternate take].flac
Pre-gap length : 00:02:00

Track gain : 1.09 dB
Peak : 0.586975
CRC32 hash (test run) : BC0AA4D4
CRC32 hash : BC0AA4D4
CRC32 hash (skip zero) : 135E2171
AccurateRip v1 signature : CA478290
AccurateRip v2 signature : 720665E9
->Accurately ripped (v1+v2, confidence 7+10/40)
Statistics
Read error : 0
Jitter error (maybe fixed) : 0
Retry sector count : 0
Damaged sector count : 0

Track 02
Filename : /Art Tatum - The Complete Pablo Group Masterpieces/CD 06/02 Once in a While [alternate take].flac
Pre-gap length : 00:03:00

Track gain : 1.74 dB
Peak : 0.503693
CRC32 hash (test run) : EA61DBA6
CRC32 hash : EA61DBA6
CRC32 hash (skip zero) : 95CBC37E
AccurateRip v1 signature : DF3F11C1
AccurateRip v2 signature : BFD6EC21
->Accurately ripped (v1+v2, confidence 7+10/40)
Statistics
Read error : 0
Jitter error (maybe fixed) : 0
Retry sector count : 0
Damaged sector count : 0

Track 03
Filename : /Art Tatum - The Complete Pablo Group Masterpieces/CD 06/03 This Can't Be Love [alternate take].flac
Pre-gap length : 00:02:50

Track gain : 0.13 dB
Peak : 0.657562
CRC32 hash (test run) : 5F5DF936
CRC32 hash : 5F5DF936
CRC32 hash (skip zero) : D89FE833
AccurateRip v1 signature : 17538F3A
AccurateRip v2 signature : 346689F7
->Accurately ripped (v1+v2, confidence 7+10/41)
Statistics
Read error : 0
Jitter error (maybe fixed) : 0
Retry sector count : 0
Damaged sector count : 0

Track 04
Filename : /Art Tatum - The Complete Pablo Group Masterpieces/CD 06/04 Gone With the Wind.flac
Pre-gap length : 00:02:45

Track gain : 1.83 dB
Peak : 0.721069
CRC32 hash (test run) : FE039B93
CRC32 hash : FE039B93
CRC32 hash (skip zero) : 8268F21D
AccurateRip v1 signature : 977E15F8
AccurateRip v2 signature : 6F047A81
->Accurately ripped (v1+v2, confidence 7+10/41)
Statistics
Read error : 0
Jitter error (maybe fixed) : 0
Retry sector count : 0
Damaged sector count : 0

Track 05
Filename : /Art Tatum - The Complete Pablo Group Masterpieces/CD 06/05 All the Things You Are.flac
Pre-gap length : 00:03:07

Track gain : 1.74 dB
Peak : 0.693024
CRC32 hash (test run) : 35F5051D
CRC32 hash : 35F5051D
CRC32 hash (skip zero) : CD817F19
AccurateRip v1 signature : 0226DB6F
AccurateRip v2 signature : CA33E5E4
->Accurately ripped (v1+v2, confidence 7+10/41)
Statistics
Read error : 0
Jitter error (maybe fixed) : 0
Retry sector count : 0
Damaged sector count : 0

Track 06
Filename : /Art Tatum - The Complete Pablo Group Masterpieces/CD 06/06 Have You Met Miss Jones.flac
Pre-gap length : 00:03:60

Track gain : 2.52 dB
Peak : 0.613007
CRC32 hash (test run) : 1FF0BFD1
CRC32 hash : 1FF0BFD1
CRC32 hash (skip zero) : 849F12C1
AccurateRip v1 signature : 190FF147
AccurateRip v2 signature : 1DBC0FC6
->Accurately ripped (v1+v2, confidence 7+10/40)
Statistics
Read error : 0
Jitter error (maybe fixed) : 0
Retry sector count : 0
Damaged sector count : 0

Track 07
Filename : /Art Tatum - The Complete Pablo Group Masterpieces/CD 06/07 My One and Only Love.flac
Pre-gap length : 00:03:02

Track gain : 0.98 dB
Peak : 0.593323
CRC32 hash (test run) : 70A743DE
CRC32 hash : 70A743DE
CRC32 hash (skip zero) : CFCA97B7
AccurateRip v1 signature : 10A3A62A
AccurateRip v2 signature : 893CA358
->Accurately ripped (v1+v2, confidence 7+10/41)
Statistics
Read error : 0
Jitter error (maybe fixed) : 0
Retry sector count : 0
Damaged sector count : 0

Track 08
Filename : /Art Tatum - The Complete Pablo Group Masterpieces/CD 06/08 Night and Day.flac
Pre-gap length : 00:03:43

Track gain : -0.17 dB
Peak : 0.702759
CRC32 hash (test run) : F2B2D4A8
CRC32 hash : F2B2D4A8
CRC32 hash (skip zero) : 6CC8E353
AccurateRip v1 signature : DF5B421A
AccurateRip v2 signature : 0A97D585
->Accurately ripped (v1+v2, confidence 7+9/39)
Statistics
Read error : 0
Jitter error (maybe fixed) : 0
Retry sector count : 0
Damaged sector count : 0

Track 09
Filename : /Art Tatum - The Complete Pablo Group Masterpieces/CD 06/09 My Ideal.flac
Pre-gap length : 00:03:22

Track gain : 1.57 dB
Peak : 0.653198
CRC32 hash (test run) : 960D9E5B
CRC32 hash : 960D9E5B
CRC32 hash (skip zero) : 39C157A2
AccurateRip v1 signature : 0752B1C5
AccurateRip v2 signature : 0A9210B6
->Accurately ripped (v1+v2, confidence 7+10/40)
Statistics
Read error : 0
Jitter error (maybe fixed) : 0
Retry sector count : 0
Damaged sector count : 0

Track 10
Filename : /Art Tatum - The Complete Pablo Group Masterpieces/CD 06/10 Where or When.flac
Pre-gap length : 00:03:02

Track gain : 0.32 dB
Peak : 0.741760
CRC32 hash (test run) : E6E96D70
CRC32 hash : E6E96D70
CRC32 hash (skip zero) : A8F72C35
AccurateRip v1 signature : E18AA4F1
AccurateRip v2 signature : E250745C
->Accurately ripped (v1+v2, confidence 7+10/40)
Statistics
Read error : 0
Jitter error (maybe fixed) : 0
Retry sector count : 0
Damaged sector count : 0

Track 11
Filename : /Art Tatum - The Complete Pablo Group Masterpieces/CD 06/11 Gone With the Wind [alternative take 1].flac
Pre-gap length : 00:02:65

Track gain : 2.25 dB
Peak : 0.665649
CRC32 hash (test run) : 3B01AC8F
CRC32 hash : 3B01AC8F
CRC32 hash (skip zero) : E63074E7
AccurateRip v1 signature : 7C9C0905
AccurateRip v2 signature : F7FA877B
->Accurately ripped (v1+v2, confidence 7+10/40)
Statistics
Read error : 0
Jitter error (maybe fixed) : 0
Retry sector count : 0
Damaged sector count : 0

Track 12
Filename : /Art Tatum - The Complete Pablo Group Masterpieces/CD 06/12 Gone With the Wind [alternative take 2].flac
Pre-gap length : 00:03:07

Track gain : 1.36 dB
Peak : 0.752899
CRC32 hash (test run) : E7CC8E0C
CRC32 hash : E7CC8E0C
CRC32 hash (skip zero) : 58936D80
AccurateRip v1 signature : 0F23FE6A
AccurateRip v2 signature : 1DAE8037
->Accurately ripped (v1+v2, confidence 7+10/40)
Statistics
Read error : 0
Jitter error (maybe fixed) : 0
Retry sector count : 0
Damaged sector count : 0

Track 13
Filename : /Art Tatum - The Complete Pablo Group Masterpieces/CD 06/13 Have You Met Miss Jones [alternate take].flac
Pre-gap length : 00:02:08

Track gain : 1.92 dB
Peak : 0.582397
CRC32 hash (test run) : A332F832
CRC32 hash : A332F832
CRC32 hash (skip zero) : 95712F0B
AccurateRip v1 signature : 858FEDFB
AccurateRip v2 signature : 3F2230C8
->Accurately ripped (v1+v2, confidence 7+9/39)
Statistics
Read error : 0
Jitter error (maybe fixed) : 0
Retry sector count : 0
Damaged sector count : 0

No errors occurred

End of status report

––-BEGIN XLD SIGNATURE––-
6psrjlOk4Zkz1Xduja_FQjtLktYIkkE3F_QJGkoodgArlzlFu_0rGhDq7nO1ECs6.7H1pacyEN4szmZ5f7DSw3q2U1xLmHiQA2xfAGW
––-END XLD SIGNATURE––-


Art Tatum - The Complete Pablo Group Masterpieces (1990) {6CD Set Pablo Records 6PACD-4401-2 rec 1954-1956}


see more Art Tatum…


===