Subcategories

Arthur 'Big Boy' Crudup - A Music Man Like Nobody Ever Saw (2016) {5CD Box Set Bear Family BCD 17352 rec 1941-1962}

Posted By: ruskaval
Arthur 'Big Boy' Crudup - A Music Man Like Nobody Ever Saw (2016) {5CD Box Set Bear Family BCD 17352 rec 1941-1962}

Arthur 'Big Boy' Crudup - A Music Man Like Nobody Ever Saw (2016) {5CD Box Set Bear Family BCD 17352 rec 1941-1962}
EAC rip (secure mode) | FLAC (tracks)+CUE+LOG -> 1.03 Gb | MP3 @320 -> 746 Mb
Full Artwork @ 600 dpi (png) -> 1.57 Gb | 5% repair rar
© 1941-62, 2016 Bear Family Records | BCD 17352
Blues / Delta Blues / Chicago Blues / Electric Blues

5-CD boxed set (LP-size) with 68-page hardcover book, 124 tracks. Total playing time approx. 6 hrs.


• The first box set devoted to this blues giant!
• His complete recordings 1941-1962!
• Songs include the original versions of Rock Me Mamma, That’s All Right, My Baby Left Me, Mean Ol’ Frisco, So Glad You’re Mine, and many more!
• Newly researched biography by award-winning blues journalist Bill Dahl.
• Rare and exclusive photos!

Arthur 'Big Boy' Crudup - A Music Man Like Nobody Ever Saw (2016) {5CD Box Set Bear Family BCD 17352 rec 1941-1962}


In the world of music, there was never anyone quite like ARTHUR 'BIG BOY' CRUDUP. Rooted in the Mississippi Delta, his style was propulsive, melodic, original, and profoundly soulful. If he wasn’t 'The Father of Rock ‘n’ Roll', as one LP proclaimed, there’s no doubt that rock ‘n’ roll owes a debt to his songs, including That’s All Right Mama, My Baby Left Me, Rock Me Mamma, So Glad You’re Mine, and Mean Ol’ Frisco Blues, as much as to his tight, swinging brand of rural blues.

Arthur Crudup was in his thirties when he made his first recordings in 1941 and recorded prolifically until his death in 1974. This set includes his complete recordings from 1941 until 1962, including every extant song from RCA and its associated labels, as well as his sides for Trumpet, Checker, Ace, and Fire. Over one hundred recordings in all. An expressive singer and a true poet of the blues, Arthur Crudup certainly deserves to be known as the guy who wrote three songs that Elvis Presley recorded during the Fifties, but he was a towering musician in his own right. His influence didn’t end at Elvis Presley. In addition to all those that Elvis influenced, countless other blues and rock musicians adapted his songs and his sweet, lyrical style.
Arthur 'Big Boy' Crudup - A Music Man Like Nobody Ever Saw (2016) {5CD Box Set Bear Family BCD 17352 rec 1941-1962}


Bear Family, the highly regarded reissue label based in Germany, has issued many box sets devoted to R&B and blues musicians. The latest hefty package includes 5 CDs featuring the entire recorded output of Arthur ‘Big Boy’ Crudup, spanning the years 1941-1962. Of course the prominent Delta blues musician is best known for his 1946 song, “That’s All Right”—famously covered by Elvis Presley, who said in a 1971 interview: “Down in Tupelo, Mississippi, I used to hear old Arthur Crudup bang his box the way I do now, and I said if I ever got to the place I could feel all old Arthur felt, I’d be a music man like nobody ever saw.” Crudup inadvertently contributed to Elvis’ huge success when, on the evening of July 5, 1954, Elvis recorded a cover version of “That’s All Right” and the rest, as they say, is history. He went on to cover two more Crudup songs (“My Baby Left Me” and “So Glad You’re Mine”), garnering the moniker “King of Rock and Roll,” while Crudup was at least accorded the title of “The Father of Rock ‘n’ Roll.” I’m sure this title, conferred on him by a record company publicist, likely did not make up for his exploitation and lack of royalties—but that’s another, all too frequent story.

Arthur 'Big Boy' Crudup - A Music Man Like Nobody Ever Saw (2016) {5CD Box Set Bear Family BCD 17352 rec 1941-1962}


A Music Man Like Nobody Ever Saw includes the entire story of Arthur Crudup, as told by Chicago music writer Bill Dahl, in a sumptuously illustrated 68-page hardcover LP size book that also includes a complete discography. With 124 tracks and over 6 hours of playing time, listeners can gain a thorough understanding of Arthur Crudup beyond his most popular songs. As with many Bear Family sets, it’s not necessarily something you would want to digest in one sitting, but serves its purpose as a reference volume that preserves a complete slice of music history in wonderfully remastered sound.
Arthur 'Big Boy' Crudup - A Music Man Like Nobody Ever Saw (2016) {5CD Box Set Bear Family BCD 17352 rec 1941-1962}


TRACK LISTING:

CD 1


01. Black Pony Blues - 03:24
02. Death Valley Blues - 03:16
03. Kind Lover Blues - 03:09
04. If I Get Lucky - 03:09
05. Standing At My Window - 02:52
06. Gonna Follow My Baby - 02:56
07. Give Me A 32-20 - 02:58
08. My Mama Don't Allow Me - 03:13
09. Mean Old 'Frisco Blues - 02:43
10. Raised To My Hand - 03:14
11. Cool Disposition - 03:12
12. Who's Been Foolin' You - 03:21
13. Rock Me Mamma - 03:02
14. Keep Your Arms Around Me - 02:36
15. Dirt Road Blues - 03:07
16. I'm In The Mood - 03:10
17. That's Your Red Wagon - 03:23
18. She's Gone - 03:12
19. Ethel Mae - 03:14
20. So Glad You're Mine - 02:47
21. Boy Friend Blues - 03:03
22. No More Lovers - 02:48

Playing time…1:07:50


CD 2

01. You Got To Reap - 03:03
02. Chicago Blues - 03:19
03. Crudup's After Hours - 03:03
04. I Want My Lovin' - 03:04
05. That's All Right - 03:01
06. I Don't Know It - 02:56
07. Cry Your Blues Away - 03:13
08. Crudup's Vicksburg Blues - 03:22
09. Gonna Be Some Changes Made - 02:47
10. Train Fare Blues - 02:51
11. Katie May - 03:11
12. Hey Mama - Everything's All Right - 02:58
13. Hoodoo Lady Blues - 03:05
14. Lonesome World To Me - 03:21
15. Roberta Blues - 02:53
16. Just Like A Spider - 03:22
17. Someday - 03:03
18. That's Why I'm Lonesome - 03:13
19. Tired Of Worry - 02:54
20. Dust My Broom - 02:40
21. Hand Me Down My Walking Cane - 02:51
22. Shout, Sister, Shout - 02:42
23. Come Back Baby - 02:37
24. You Know That I Love You - 02:48
25. Mercy Blues - 02:46
26. She's Just Like Caledonia - 02:52

Playing time…1:17:54


CD 3

01. Mean Old Santa Fe [Take C] - 02:34
02. Behind Closed Doors [Take A] - 02:46
03. She Ain't Nothing But Trouble [Take A] - 03:14
04. Oo Wee Darling (Love Me With A Thrill) [Take B] - 03:07
05. Anytime Is The Right Time [Take C] - 03:04
06. My Baby Left Me [Take B] - 02:31
07. Nobody Wants Me [Take B] - 03:01
08. Star Bootlegger [Take B] - 02:43
09. Too Much Competition [Take B] - 03:02
10. Second Man Blue [Take A] - 02:59
11. Pearly Lee [Take A] - 03:00
12. Love Me Mama [Take A] - 03:17
13. Never No More [Take A] - 03:04
14. Why Did You Leave Me [Take A] - 03:10
15. Where Did You Stay Last Night [Take A] - 02:54
16. I'm Gonna Dig Myself A Hole [Take B] - 03:07
17. Goin' Back To Georgia [Take B] - 02:47
18. Mr. So And So [Take B] - 02:46
19. Do It If You Want To [Take B] - 02:53
20. Keep On Drinkin' [Take B] - 02:48
21. Worried 'Bout You Baby [Take A] - 03:16
22. Late In The Evening [Take A] - 03:07
23. Lookin' For My Baby [Take C] - 02:39
24. Nelvina [Take B] - 03:03

Playing time…1:10:53


CD 4

01. Open Your Book (Daddy Wants To Read With You) - 02:43
02. Tears In My Eyes - 02:45
03. My Baby Boogies All The Time - 03:04
04. I Wonder - 02:16
05. Baby I've Been Mistreated - 03:05
06. You Didn't Mean A Word (Mean Old World) - 03:00
07. She's My Baby - 02:14
08. The Moon Is Rising - 02:16
09. Gonna Find My Baby - 02:59
10. Make A Little Love With Me - 03:08
11. I Love My Baby - 02:51
12. My Wife And Woman - 02:34
13. The War Is Over - 03:01
14. Fall On Your Knees - 03:06
15. If You've Ever Been To Georgia - 02:36
16. Help Me To Bear This Heavy Load - 02:45
17. I Love You - 02:49
18. She's Got No Hair - 02:19
19. She Ain't Nothing But Trouble [Take B] - 02:58
20. Oo Weee Darling (Love Me With A Thrill) [Take A] - 03:00
21. My Baby Left Me [Take A] - 02:37
22. Nobody Wants Me [Take A] - 03:24
23. Star Bootlegger [Take A] - 02:57
24. I'm Gonna Dig Myself A Hole [Take A] - 03:21
25. Goin' Back To Georgia [Take A] - 02:55
26. Mr. So And So [Take A] - 03:17
27. Do It If You Want To [Take A] - 02:56
28. Nelvina [Take A] - 02:41

Playing time…1:19:36


CD 5

01. Katie Mae - 02:52
02. Dig Myself A Hole - 02:25
03. Rock Me Mama - 02:27
04. Mean Ole Frisco - 02:35
05. That's All Right Mama - 02:22
06. Too Much Competition - 02:40
07. Coal Black Mare - 02:52
08. Look On Yonder Wall - 02:23
09. Ethel Mae - 02:25
10. Standing At My Window - 02:17
11. Greyhound Bus - 02:37
12. So Glad You're Mine - 02:50
13. The Moon Is Rising - 02:13
14. Death Valley Blues - 02:43
15. If I Get Lucky - 02:33
16. Angel Child - 05:32
17. My Mama Don't Allow Me - 02:25
18. I'm In The Mood For You - 02:23
19. Looka There, She Got No Hair - 01:56
20. I Love Her Just The Same - 02:15
21. Angel Child [Alternative take] - 02:53
22. Tears In My Eyes [Alternative take] - 03:00
23. Gonna Find My Baby [Alternative take 1] - 03:15
24. Gonna Find My Baby [Alternative take 2] - 02:44

Playing time…1:04:38

Exact Audio Copy V1.3 from 2. September 2016

EAC extraction logfile from 27. August 2017, 16:00

Arthur 'Big Boy' Crudup / A Music Man Like Nobody Ever Saw [CD 1 of 5]

Used drive : ASUS BW-16D1HT Adapter: 1 ID: 0

Read mode : Secure
Utilize accurate stream : Yes
Defeat audio cache : Yes
Make use of C2 pointers : No

Read offset correction : 6
Overread into Lead-In and Lead-Out : No
Fill up missing offset samples with silence : Yes
Delete leading and trailing silent blocks : No
Null samples used in CRC calculations : Yes
Used interface : Native Win32 interface for Win NT & 2000
Gap handling : Appended to previous track

Used output format : User Defined Encoder
Selected bitrate : 896 kBit/s
Quality : High
Add ID3 tag : No
Command line compressor : C:\Exact Audio Copy\FLAC\FLAC.EXE
Additional command line options : -8 -V -T "ARTIST=%artist%" -T "TITLE=%title%" -T "ALBUM=%albumtitle%" -T "DATE=%year%" -T "TRACKNUMBER=%tracknr%" -T "TOTALTRACKS=%numtracks%" -T "GENRE=%genre%" -T "ALBUMARTIST=%albumartist%" -T "ALBUM ARTIST=%albumartist%" -T "COMMENT=EAC Secure Mode, Test & Copy, AccurateRip, FLAC -8" %source%


TOC of the extracted CD

Track | Start | Length | Start sector | End sector
––––––––––––––––––––––––––––-
1 | 0:00.00 | 3:23.53 | 0 | 15277
2 | 3:23.53 | 3:16.33 | 15278 | 30010
3 | 6:40.11 | 3:08.40 | 30011 | 44150
4 | 9:48.51 | 3:09.21 | 44151 | 58346
5 | 12:57.72 | 2:52.07 | 58347 | 71253
6 | 15:50.04 | 2:56.31 | 71254 | 84484
7 | 18:46.35 | 2:57.55 | 84485 | 97814
8 | 21:44.15 | 3:13.19 | 97815 | 112308
9 | 24:57.34 | 2:43.13 | 112309 | 124546
10 | 27:40.47 | 3:13.67 | 124547 | 139088
11 | 30:54.39 | 3:12.33 | 139089 | 153521
12 | 34:06.72 | 3:20.41 | 153522 | 168562
13 | 37:27.38 | 3:02.30 | 168563 | 182242
14 | 40:29.68 | 2:36.33 | 182243 | 193975
15 | 43:06.26 | 3:07.02 | 193976 | 208002
16 | 46:13.28 | 3:10.28 | 208003 | 222280
17 | 49:23.56 | 3:23.12 | 222281 | 237517
18 | 52:46.68 | 3:12.04 | 237518 | 251921
19 | 55:58.72 | 3:13.65 | 251922 | 266461
20 | 59:12.62 | 2:46.48 | 266462 | 278959
21 | 61:59.35 | 3:03.20 | 278960 | 292704
22 | 65:02.55 | 2:48.02 | 292705 | 305306


Track 1

Filename E:\01 - Black Pony Blues.wav

Pre-gap length 0:00:02.00

Peak level 81.2 %
Extraction speed 1.0 X
Track quality 100.0 %
Test CRC E7F0126F
Copy CRC E7F0126F
Track not present in AccurateRip database
Copy OK

Track 2

Filename E:\02 - Death Valley Blues.wav

Pre-gap length 0:00:02.00

Peak level 74.9 %
Extraction speed 1.1 X
Track quality 100.0 %
Test CRC 6045C070
Copy CRC 6045C070
Track not present in AccurateRip database
Copy OK

Track 3

Filename E:\03 - Kind Lover Blues.wav

Pre-gap length 0:00:02.00

Peak level 82.1 %
Extraction speed 1.0 X
Track quality 99.9 %
Test CRC 29E1E08D
Copy CRC 29E1E08D
Track not present in AccurateRip database
Copy OK

Track 4

Filename E:\04 - If I Get Lucky.wav

Pre-gap length 0:00:02.00

Peak level 72.4 %
Extraction speed 1.2 X
Track quality 100.0 %
Test CRC 76535825
Copy CRC 76535825
Track not present in AccurateRip database
Copy OK

Track 5

Filename E:\05 - Standing At My Window.wav

Pre-gap length 0:00:02.00

Peak level 90.1 %
Extraction speed 1.3 X
Track quality 100.0 %
Test CRC 1E2AB6A1
Copy CRC 1E2AB6A1
Track not present in AccurateRip database
Copy OK

Track 6

Filename E:\06 - Gonna Follow My Baby.wav

Pre-gap length 0:00:01.74

Peak level 100.0 %
Extraction speed 1.3 X
Track quality 100.0 %
Test CRC 1F27545B
Copy CRC 1F27545B
Track not present in AccurateRip database
Copy OK

Track 7

Filename E:\07 - Give Me A 32-20.wav

Pre-gap length 0:00:02.00

Peak level 92.2 %
Extraction speed 1.4 X
Track quality 100.0 %
Test CRC EE9349DE
Copy CRC EE9349DE
Track not present in AccurateRip database
Copy OK

Track 8

Filename E:\08 - My Mama Don't Allow Me.wav

Pre-gap length 0:00:02.00

Peak level 84.1 %
Extraction speed 1.5 X
Track quality 100.0 %
Test CRC A033085F
Copy CRC A033085F
Track not present in AccurateRip database
Copy OK

Track 9

Filename E:\09 - Mean Old 'Frisco Blues.wav

Pre-gap length 0:00:02.00

Peak level 91.2 %
Extraction speed 1.5 X
Track quality 100.0 %
Test CRC 5FE90884
Copy CRC 5FE90884
Track not present in AccurateRip database
Copy OK

Track 10

Filename E:\10 - Raised To My Hand.wav

Pre-gap length 0:00:02.00

Peak level 81.2 %
Extraction speed 1.3 X
Track quality 99.9 %
Test CRC 5AC3EDDB
Copy CRC 5AC3EDDB
Track not present in AccurateRip database
Copy OK

Track 11

Filename E:\11 - Cool Disposition.wav

Pre-gap length 0:00:02.00

Peak level 88.1 %
Extraction speed 1.6 X
Track quality 100.0 %
Test CRC 6CC2BCC2
Copy CRC 6CC2BCC2
Track not present in AccurateRip database
Copy OK

Track 12

Filename E:\12 - Who's Been Foolin' You.wav

Pre-gap length 0:00:02.00

Peak level 90.0 %
Extraction speed 1.7 X
Track quality 100.0 %
Test CRC 64093FEB
Copy CRC 64093FEB
Track not present in AccurateRip database
Copy OK

Track 13

Filename E:\13 - Rock Me Mamma.wav

Pre-gap length 0:00:02.00

Peak level 72.2 %
Extraction speed 1.7 X
Track quality 100.0 %
Test CRC 9C2C5A4D
Copy CRC 9C2C5A4D
Track not present in AccurateRip database
Copy OK

Track 14

Filename E:\14 - Keep Your Arms Around Me.wav

Pre-gap length 0:00:02.00

Peak level 90.1 %
Extraction speed 1.7 X
Track quality 100.0 %
Test CRC 0FCB25AD
Copy CRC 0FCB25AD
Track not present in AccurateRip database
Copy OK

Track 15

Filename E:\15 - Dirt Road Blues.wav

Pre-gap length 0:00:02.00

Peak level 72.2 %
Extraction speed 1.8 X
Track quality 100.0 %
Test CRC 3BB8E5A8
Copy CRC 3BB8E5A8
Track not present in AccurateRip database
Copy OK

Track 16

Filename E:\16 - I'm In The Mood.wav

Pre-gap length 0:00:02.00

Peak level 78.5 %
Extraction speed 1.9 X
Track quality 100.0 %
Test CRC E686DB83
Copy CRC E686DB83
Track not present in AccurateRip database
Copy OK

Track 17

Filename E:\17 - That's Your Red Wagon.wav

Pre-gap length 0:00:02.00

Peak level 75.8 %
Extraction speed 1.6 X
Track quality 99.9 %
Test CRC 29B22D92
Copy CRC 29B22D92
Track not present in AccurateRip database
Copy OK

Track 18

Filename E:\18 - She's Gone.wav

Pre-gap length 0:00:02.00

Peak level 74.1 %
Extraction speed 2.0 X
Track quality 100.0 %
Test CRC EB0BA286
Copy CRC EB0BA286
Track not present in AccurateRip database
Copy OK

Track 19

Filename E:\19 - Ethel Mae.wav

Pre-gap length 0:00:02.00

Peak level 85.0 %
Extraction speed 1.7 X
Track quality 99.9 %
Test CRC 8D292614
Copy CRC 8D292614
Track not present in AccurateRip database
Copy OK

Track 20

Filename E:\20 - So Glad You're Mine.wav

Pre-gap length 0:00:02.00

Peak level 82.2 %
Extraction speed 1.6 X
Track quality 99.9 %
Test CRC 3D22C385
Copy CRC 3D22C385
Track not present in AccurateRip database
Copy OK

Track 21

Filename E:\21 - Boy Friend Blues.wav

Pre-gap length 0:00:02.00

Peak level 91.1 %
Extraction speed 1.7 X
Track quality 99.9 %
Test CRC BEF8608C
Copy CRC BEF8608C
Track not present in AccurateRip database
Copy OK

Track 22

Filename E:\22 - No More Lovers.wav

Pre-gap length 0:00:02.00

Peak level 83.9 %
Extraction speed 2.0 X
Track quality 100.0 %
Test CRC 9268CF90
Copy CRC 9268CF90
Track not present in AccurateRip database
Copy OK


None of the tracks are present in the AccurateRip database

No errors occurred

End of status report

==== Log checksum 067644B4DDCB4E8DD17B8E8A601A4691FBC124914D5164AC1DE9E7AC5134CE66 ====

Exact Audio Copy V1.3 from 2. September 2016

EAC extraction logfile from 27. August 2017, 17:48

Arthur 'Big Boy' Crudup / A Music Man Like Nobody Ever Saw [CD 2 of 5]

Used drive : ASUS BW-16D1HT Adapter: 1 ID: 0

Read mode : Secure
Utilize accurate stream : Yes
Defeat audio cache : Yes
Make use of C2 pointers : No

Read offset correction : 6
Overread into Lead-In and Lead-Out : No
Fill up missing offset samples with silence : Yes
Delete leading and trailing silent blocks : No
Null samples used in CRC calculations : Yes
Used interface : Native Win32 interface for Win NT & 2000
Gap handling : Appended to previous track

Used output format : User Defined Encoder
Selected bitrate : 896 kBit/s
Quality : High
Add ID3 tag : No
Command line compressor : C:\Exact Audio Copy\FLAC\FLAC.EXE
Additional command line options : -8 -V -T "ARTIST=%artist%" -T "TITLE=%title%" -T "ALBUM=%albumtitle%" -T "DATE=%year%" -T "TRACKNUMBER=%tracknr%" -T "TOTALTRACKS=%numtracks%" -T "GENRE=%genre%" -T "ALBUMARTIST=%albumartist%" -T "ALBUM ARTIST=%albumartist%" -T "COMMENT=EAC Secure Mode, Test & Copy, AccurateRip, FLAC -8" %source%


TOC of the extracted CD

Track | Start | Length | Start sector | End sector
––––––––––––––––––––––––––––-
1 | 0:00.00 | 3:03.10 | 0 | 13734
2 | 3:03.10 | 3:18.40 | 13735 | 28624
3 | 6:21.50 | 3:02.39 | 28625 | 42313
4 | 9:24.14 | 3:04.18 | 42314 | 56131
5 | 12:28.32 | 3:01.01 | 56132 | 69707
6 | 15:29.33 | 2:56.00 | 69708 | 82907
7 | 18:25.33 | 3:13.13 | 82908 | 97395
8 | 21:38.46 | 3:21.40 | 97396 | 112510
9 | 25:00.11 | 2:46.73 | 112511 | 125033
10 | 27:47.09 | 2:50.38 | 125034 | 137821
11 | 30:37.47 | 3:10.71 | 137822 | 152142
12 | 33:48.43 | 2:58.18 | 152143 | 165510
13 | 36:46.61 | 3:05.24 | 165511 | 179409
14 | 39:52.10 | 3:20.51 | 179410 | 194460
15 | 43:12.61 | 2:53.26 | 194461 | 207461
16 | 46:06.12 | 3:22.15 | 207462 | 222626
17 | 49:28.27 | 3:03.29 | 222627 | 236380
18 | 52:31.56 | 3:13.00 | 236381 | 250855
19 | 55:44.56 | 2:53.42 | 250856 | 263872
20 | 58:38.23 | 2:39.65 | 263873 | 275862
21 | 61:18.13 | 2:50.58 | 275863 | 288670
22 | 64:08.71 | 2:42.28 | 288671 | 300848
23 | 66:51.24 | 2:37.22 | 300849 | 312645
24 | 69:28.46 | 2:47.61 | 312646 | 325231
25 | 72:16.32 | 2:46.06 | 325232 | 337687
26 | 75:02.38 | 2:52.18 | 337688 | 350605


Track 1

Filename E:\01 - You Got To Reap.wav

Pre-gap length 0:00:02.00

Peak level 71.5 %
Extraction speed 1.1 X
Track quality 100.0 %
Test CRC B75639F8
Copy CRC B75639F8
Track not present in AccurateRip database
Copy OK

Track 2

Filename E:\02 - Chicago Blues.wav

Pre-gap length 0:00:02.00

Peak level 84.1 %
Extraction speed 1.0 X
Track quality 99.9 %
Test CRC 2912DAC4
Copy CRC 2912DAC4
Track not present in AccurateRip database
Copy OK

Track 3

Filename E:\03 - Crudup's After Hours.wav

Pre-gap length 0:00:02.00

Peak level 79.3 %
Extraction speed 1.3 X
Track quality 100.0 %
Test CRC D1736BFE
Copy CRC D1736BFE
Track not present in AccurateRip database
Copy OK

Track 4

Filename E:\04 - I Want My Lovin'.wav

Pre-gap length 0:00:02.00

Peak level 79.4 %
Extraction speed 1.1 X
Track quality 99.9 %
Test CRC 405D51B9
Copy CRC 405D51B9
Track not present in AccurateRip database
Copy OK

Track 5

Filename E:\05 - That's All Right.wav

Pre-gap length 0:00:02.00

Peak level 93.3 %
Extraction speed 1.4 X
Track quality 100.0 %
Test CRC 6B7C4FC8
Copy CRC 6B7C4FC8
Track not present in AccurateRip database
Copy OK

Track 6

Filename E:\06 - I Don't Know It.wav

Pre-gap length 0:00:02.00

Peak level 95.5 %
Extraction speed 1.5 X
Track quality 100.0 %
Test CRC 20C6AD72
Copy CRC 20C6AD72
Track not present in AccurateRip database
Copy OK

Track 7

Filename E:\07 - Cry Your Blues Away.wav

Pre-gap length 0:00:02.00

Peak level 89.1 %
Extraction speed 1.3 X
Track quality 99.9 %
Test CRC 04EF6D1E
Copy CRC 04EF6D1E
Track not present in AccurateRip database
Copy OK

Track 8

Filename E:\08 - Crudup's Vicksburg Blues.wav

Pre-gap length 0:00:02.00

Peak level 85.9 %
Extraction speed 1.4 X
Track quality 99.9 %
Test CRC F908242A
Copy CRC F908242A
Track not present in AccurateRip database
Copy OK

Track 9

Filename E:\09 - Gonna Be Some Changes Made.wav

Pre-gap length 0:00:02.00

Peak level 97.5 %
Extraction speed 1.3 X
Track quality 99.9 %
Test CRC 6132A8A6
Copy CRC 6132A8A6
Track not present in AccurateRip database
Copy OK

Track 10

Filename E:\10 - Train Fare Blues.wav

Pre-gap length 0:00:02.00

Peak level 90.1 %
Extraction speed 1.7 X
Track quality 100.0 %
Test CRC 16D5191B
Copy CRC 16D5191B
Track not present in AccurateRip database
Copy OK

Track 11

Filename E:\11 - Katie May.wav

Pre-gap length 0:00:02.00

Peak level 97.6 %
Extraction speed 1.8 X
Track quality 100.0 %
Test CRC 5B7312E9
Copy CRC 5B7312E9
Track not present in AccurateRip database
Copy OK

Track 12

Filename E:\12 - Hey Mama - Everything's All Right.wav

Pre-gap length 0:00:02.00

Peak level 96.5 %
Extraction speed 1.8 X
Track quality 100.0 %
Test CRC 9DA32634
Copy CRC 9DA32634
Track not present in AccurateRip database
Copy OK

Track 13

Filename E:\13 - Hoodoo Lady Blues.wav

Pre-gap length 0:00:02.00

Peak level 95.3 %
Extraction speed 1.9 X
Track quality 100.0 %
Test CRC 9816A0B0
Copy CRC 9816A0B0
Track not present in AccurateRip database
Copy OK

Track 14

Filename E:\14 - Lonesome World To Me.wav

Pre-gap length 0:00:02.00

Peak level 95.4 %
Extraction speed 1.9 X
Track quality 100.0 %
Test CRC 199236E3
Copy CRC 199236E3
Track not present in AccurateRip database
Copy OK

Track 15

Filename E:\15 - Roberta Blues.wav

Pre-gap length 0:00:02.00

Peak level 86.6 %
Extraction speed 1.9 X
Track quality 100.0 %
Test CRC 971F1738
Copy CRC 971F1738
Track not present in AccurateRip database
Copy OK

Track 16

Filename E:\16 - Just Like A Spider.wav

Pre-gap length 0:00:02.00

Peak level 99.9 %
Extraction speed 1.7 X
Track quality 99.9 %
Test CRC C55B071A
Copy CRC C55B071A
Track not present in AccurateRip database
Copy OK

Track 17

Filename E:\17 - Someday.wav

Pre-gap length 0:00:02.00

Peak level 87.0 %
Extraction speed 2.1 X
Track quality 100.0 %
Test CRC 85D01AAB
Copy CRC 85D01AAB
Track not present in AccurateRip database
Copy OK

Track 18

Filename E:\18 - That's Why I'm Lonesome.wav

Pre-gap length 0:00:02.00

Peak level 95.4 %
Extraction speed 2.1 X
Track quality 100.0 %
Test CRC 7854863E
Copy CRC 7854863E
Track not present in AccurateRip database
Copy OK

Track 19

Filename E:\19 - Tired Of Worry.wav

Pre-gap length 0:00:02.00

Peak level 89.5 %
Extraction speed 2.1 X
Track quality 100.0 %
Test CRC 15FD80C0
Copy CRC 15FD80C0
Track not present in AccurateRip database
Copy OK

Track 20

Filename E:\20 - Dust My Broom.wav

Pre-gap length 0:00:02.00

Peak level 96.4 %
Extraction speed 2.1 X
Track quality 100.0 %
Test CRC 9172D1AE
Copy CRC 9172D1AE
Track not present in AccurateRip database
Copy OK

Track 21

Filename E:\21 - Hand Me Down My Walking Cane.wav

Pre-gap length 0:00:02.00

Peak level 95.4 %
Extraction speed 2.2 X
Track quality 100.0 %
Test CRC 435F88E9
Copy CRC 435F88E9
Track not present in AccurateRip database
Copy OK

Track 22

Filename E:\22 - Shout, Sister, Shout.wav

Pre-gap length 0:00:02.00

Peak level 85.1 %
Extraction speed 2.2 X
Track quality 100.0 %
Test CRC 4C7CE5F4
Copy CRC 4C7CE5F4
Track not present in AccurateRip database
Copy OK

Track 23

Filename E:\23 - Come Back Baby.wav

Pre-gap length 0:00:02.00

Peak level 91.2 %
Extraction speed 2.2 X
Track quality 100.0 %
Test CRC 97C288AA
Copy CRC 97C288AA
Track not present in AccurateRip database
Copy OK

Track 24

Filename E:\24 - You Know That I Love You.wav

Pre-gap length 0:00:02.00

Peak level 89.0 %
Extraction speed 2.3 X
Track quality 100.0 %
Test CRC DC5634A9
Copy CRC DC5634A9
Track not present in AccurateRip database
Copy OK

Track 25

Filename E:\25 - Mercy Blues.wav

Pre-gap length 0:00:02.00

Peak level 94.4 %
Extraction speed 2.4 X
Track quality 100.0 %
Test CRC D31C58E9
Copy CRC D31C58E9
Track not present in AccurateRip database
Copy OK

Track 26

Filename E:\26 - She's Just Like Caledonia.wav

Pre-gap length 0:00:02.00

Peak level 87.8 %
Extraction speed 2.4 X
Track quality 100.0 %
Test CRC 983471B4
Copy CRC 983471B4
Track not present in AccurateRip database
Copy OK


None of the tracks are present in the AccurateRip database

No errors occurred

End of status report

==== Log checksum C54334FAD09111F85F8A3CCE0EF390DBBDC93036253A7127E5EC895DBDD03DD5 ====

Exact Audio Copy V1.3 from 2. September 2016

EAC extraction logfile from 27. August 2017, 19:59

Arthur 'Big Boy' Crudup / A Music Man Like Nobody Ever Saw [CD 3 of 5]

Used drive : ASUS BW-16D1HT Adapter: 1 ID: 0

Read mode : Secure
Utilize accurate stream : Yes
Defeat audio cache : Yes
Make use of C2 pointers : No

Read offset correction : 6
Overread into Lead-In and Lead-Out : No
Fill up missing offset samples with silence : Yes
Delete leading and trailing silent blocks : No
Null samples used in CRC calculations : Yes
Used interface : Native Win32 interface for Win NT & 2000
Gap handling : Appended to previous track

Used output format : User Defined Encoder
Selected bitrate : 896 kBit/s
Quality : High
Add ID3 tag : No
Command line compressor : C:\Exact Audio Copy\FLAC\FLAC.EXE
Additional command line options : -8 -V -T "ARTIST=%artist%" -T "TITLE=%title%" -T "ALBUM=%albumtitle%" -T "DATE=%year%" -T "TRACKNUMBER=%tracknr%" -T "TOTALTRACKS=%numtracks%" -T "GENRE=%genre%" -T "ALBUMARTIST=%albumartist%" -T "ALBUM ARTIST=%albumartist%" -T "COMMENT=EAC Secure Mode, Test & Copy, AccurateRip, FLAC -8" %source%


TOC of the extracted CD

Track | Start | Length | Start sector | End sector
––––––––––––––––––––––––––––-
1 | 0:00.00 | 2:33.48 | 0 | 11522
2 | 2:33.48 | 2:46.15 | 11523 | 23987
3 | 5:19.63 | 3:13.48 | 23988 | 38510
4 | 8:33.36 | 3:06.63 | 38511 | 52523
5 | 11:40.24 | 3:04.21 | 52524 | 66344
6 | 14:44.45 | 2:30.72 | 66345 | 77666
7 | 17:15.42 | 3:01.06 | 77667 | 91247
8 | 20:16.48 | 2:43.25 | 91248 | 103497
9 | 22:59.73 | 3:02.15 | 103498 | 117162
10 | 26:02.13 | 2:59.36 | 117163 | 130623
11 | 29:01.49 | 2:59.70 | 130624 | 144118
12 | 32:01.44 | 3:16.61 | 144119 | 158879
13 | 35:18.30 | 3:04.25 | 158880 | 172704
14 | 38:22.55 | 3:10.16 | 172705 | 186970
15 | 41:32.71 | 2:54.12 | 186971 | 200032
16 | 44:27.08 | 3:06.69 | 200033 | 214051
17 | 47:34.02 | 2:47.03 | 214052 | 226579
18 | 50:21.05 | 2:46.04 | 226580 | 239033
19 | 53:07.09 | 2:53.13 | 239034 | 252021
20 | 56:00.22 | 2:47.45 | 252022 | 264591
21 | 58:47.67 | 3:16.32 | 264592 | 279323
22 | 62:04.24 | 3:07.18 | 279324 | 293366
23 | 65:11.42 | 2:38.44 | 293367 | 305260
24 | 67:50.11 | 3:03.06 | 305261 | 318991


Track 1

Filename E:\01 - Mean Old Santa Fe [Take C].wav

Pre-gap length 0:00:02.00

Peak level 92.2 %
Extraction speed 1.0 X
Track quality 100.0 %
Test CRC 796F48B0
Copy CRC 796F48B0
Track not present in AccurateRip database
Copy OK

Track 2

Filename E:\02 - Behind Closed Doors [Take A].wav

Pre-gap length 0:00:02.00

Peak level 93.3 %
Extraction speed 1.1 X
Track quality 100.0 %
Test CRC 68B7CD62
Copy CRC 68B7CD62
Track not present in AccurateRip database
Copy OK

Track 3

Filename E:\03 - She Ain't Nothing But Trouble [Take A].wav

Pre-gap length 0:00:02.00

Peak level 91.0 %
Extraction speed 1.2 X
Track quality 100.0 %
Test CRC BD3FCE97
Copy CRC BD3FCE97
Track not present in AccurateRip database
Copy OK

Track 4

Filename E:\04 - Oo Wee Darling (Love Me With A Thrill) [Take B].wav

Pre-gap length 0:00:02.00

Peak level 97.7 %
Extraction speed 1.3 X
Track quality 100.0 %
Test CRC 864DE179
Copy CRC 864DE179
Track not present in AccurateRip database
Copy OK

Track 5

Filename E:\05 - Anytime Is The Right Time [Take C].wav

Pre-gap length 0:00:02.00

Peak level 85.1 %
Extraction speed 1.1 X
Track quality 99.9 %
Test CRC 51E79B4E
Copy CRC 51E79B4E
Track not present in AccurateRip database
Copy OK

Track 6

Filename E:\06 - My Baby Left Me [Take B].wav

Pre-gap length 0:00:02.00

Peak level 78.5 %
Extraction speed 1.4 X
Track quality 100.0 %
Test CRC A88A774F
Copy CRC A88A774F
Track not present in AccurateRip database
Copy OK

Track 7

Filename E:\07 - Nobody Wants Me [Take B].wav

Pre-gap length 0:00:02.00

Peak level 89.0 %
Extraction speed 1.5 X
Track quality 100.0 %
Test CRC C5F64D7A
Copy CRC C5F64D7A
Track not present in AccurateRip database
Copy OK

Track 8

Filename E:\08 - Star Bootlegger [Take B].wav

Pre-gap length 0:00:02.00

Peak level 84.1 %
Extraction speed 1.2 X
Track quality 99.9 %
Test CRC 1FC1B0E2
Copy CRC 1FC1B0E2
Track not present in AccurateRip database
Copy OK

Track 9

Filename E:\09 - Too Much Competition [Take B].wav

Pre-gap length 0:00:02.00

Peak level 92.2 %
Extraction speed 1.6 X
Track quality 100.0 %
Test CRC 95DF4FB6
Copy CRC 95DF4FB6
Track not present in AccurateRip database
Copy OK

Track 10

Filename E:\10 - Second Man Blue [Take A].wav

Pre-gap length 0:00:02.00

Peak level 90.1 %
Extraction speed 1.6 X
Track quality 100.0 %
Test CRC 96443371
Copy CRC 96443371
Track not present in AccurateRip database
Copy OK

Track 11

Filename E:\11 - Pearly Lee [Take A].wav

Pre-gap length 0:00:02.00

Peak level 92.2 %
Extraction speed 1.4 X
Track quality 99.9 %
Test CRC B24A661B
Copy CRC B24A661B
Track not present in AccurateRip database
Copy OK

Track 12

Filename E:\12 - Love Me Mama [Take A].wav

Pre-gap length 0:00:02.00

Peak level 92.2 %
Extraction speed 1.8 X
Track quality 100.0 %
Test CRC 7FCD34A5
Copy CRC 7FCD34A5
Track not present in AccurateRip database
Copy OK

Track 13

Filename E:\13 - Never No More [Take A].wav

Pre-gap length 0:00:02.00

Peak level 87.0 %
Extraction speed 1.8 X
Track quality 100.0 %
Test CRC 42420277
Copy CRC 42420277
Track not present in AccurateRip database
Copy OK

Track 14

Filename E:\14 - Why Did You Leave Me [Take A].wav

Pre-gap length 0:00:02.00

Peak level 93.3 %
Extraction speed 1.6 X
Track quality 99.9 %
Test CRC FF503A22
Copy CRC FF503A22
Track not present in AccurateRip database
Copy OK

Track 15

Filename E:\15 - Where Did You Stay Last Night [Take A].wav

Pre-gap length 0:00:02.00

Peak level 90.0 %
Extraction speed 1.9 X
Track quality 100.0 %
Test CRC A5078EAF
Copy CRC A5078EAF
Track not present in AccurateRip database
Copy OK

Track 16

Filename E:\16 - I'm Gonna Dig Myself A Hole [Take B].wav

Pre-gap length 0:00:02.00

Peak level 89.1 %
Extraction speed 1.6 X
Track quality 99.9 %
Test CRC 5F0193E0
Copy CRC 5F0193E0
Track not present in AccurateRip database
Copy OK

Track 17

Filename E:\17 - Goin' Back To Georgia [Take B].wav

Pre-gap length 0:00:02.00

Peak level 91.1 %
Extraction speed 2.0 X
Track quality 100.0 %
Test CRC 7BA470CF
Copy CRC 7BA470CF
Track not present in AccurateRip database
Copy OK

Track 18

Filename E:\18 - Mr. So And So [Take B].wav

Pre-gap length 0:00:02.00

Peak level 91.2 %
Extraction speed 2.0 X
Track quality 100.0 %
Test CRC 6D6B060F
Copy CRC 6D6B060F
Track not present in AccurateRip database
Copy OK

Track 19

Filename E:\19 - Do It If You Want To [Take B].wav

Pre-gap length 0:00:02.00

Peak level 97.7 %
Extraction speed 2.1 X
Track quality 100.0 %
Test CRC A511EF00
Copy CRC A511EF00
Track not present in AccurateRip database
Copy OK

Track 20

Filename E:\20 - Keep On Drinkin' [Take B].wav

Pre-gap length 0:00:02.00

Peak level 80.4 %
Extraction speed 2.1 X
Track quality 100.0 %
Test CRC 1BDF0499
Copy CRC 1BDF0499
Track not present in AccurateRip database
Copy OK

Track 21

Filename E:\21 - Worried 'Bout You Baby [Take A].wav

Pre-gap length 0:00:02.00

Peak level 99.9 %
Extraction speed 2.2 X
Track quality 100.0 %
Test CRC B296AF6D
Copy CRC B296AF6D
Track not present in AccurateRip database
Copy OK

Track 22

Filename E:\22 - Late In The Evening [Take A].wav

Pre-gap length 0:00:02.00

Peak level 95.4 %
Extraction speed 1.8 X
Track quality 99.9 %
Test CRC 656016E9
Copy CRC 656016E9
Track not present in AccurateRip database
Copy OK

Track 23

Filename E:\23 - Lookin' For My Baby [Take C].wav

Pre-gap length 0:00:02.00

Peak level 98.8 %
Extraction speed 2.2 X
Track quality 100.0 %
Test CRC C8759913
Copy CRC C8759913
Track not present in AccurateRip database
Copy OK

Track 24

Filename E:\24 - Nelvina [Take B].wav

Pre-gap length 0:00:02.00

Peak level 87.0 %
Extraction speed 2.2 X
Track quality 100.0 %
Test CRC B249D5A0
Copy CRC B249D5A0
Track not present in AccurateRip database
Copy OK


None of the tracks are present in the AccurateRip database

No errors occurred

End of status report

==== Log checksum 5028268794482327A024186BCCAF664900809C1B7E5833EE20C53AFBCCCEE2C1 ====

Exact Audio Copy V1.3 from 2. September 2016

EAC extraction logfile from 28. August 2017, 8:53

Arthur 'Big Boy' Crudup / A Music Man Like Nobody Ever Saw [CD 4 of 5]

Used drive : ASUS BW-16D1HT Adapter: 1 ID: 0

Read mode : Secure
Utilize accurate stream : Yes
Defeat audio cache : Yes
Make use of C2 pointers : No

Read offset correction : 6
Overread into Lead-In and Lead-Out : No
Fill up missing offset samples with silence : Yes
Delete leading and trailing silent blocks : No
Null samples used in CRC calculations : Yes
Used interface : Native Win32 interface for Win NT & 2000
Gap handling : Appended to previous track

Used output format : User Defined Encoder
Selected bitrate : 896 kBit/s
Quality : High
Add ID3 tag : No
Command line compressor : C:\Exact Audio Copy\FLAC\FLAC.EXE
Additional command line options : -8 -V -T "ARTIST=%artist%" -T "TITLE=%title%" -T "ALBUM=%albumtitle%" -T "DATE=%year%" -T "TRACKNUMBER=%tracknr%" -T "TOTALTRACKS=%numtracks%" -T "GENRE=%genre%" -T "ALBUMARTIST=%albumartist%" -T "ALBUM ARTIST=%albumartist%" -T "COMMENT=EAC Secure Mode, Test & Copy, AccurateRip, FLAC -8" %source%


TOC of the extracted CD

Track | Start | Length | Start sector | End sector
––––––––––––––––––––––––––––-
1 | 0:00.00 | 2:43.22 | 0 | 12246
2 | 2:43.22 | 2:45.19 | 12247 | 24640
3 | 5:28.41 | 3:03.48 | 24641 | 38413
4 | 8:32.14 | 2:15.57 | 38414 | 48595
5 | 10:47.71 | 3:04.44 | 48596 | 62439
6 | 13:52.40 | 2:59.48 | 62440 | 75912
7 | 16:52.13 | 2:13.55 | 75913 | 85942
8 | 19:05.68 | 2:15.47 | 85943 | 96114
9 | 21:21.40 | 2:59.08 | 96115 | 109547
10 | 24:20.48 | 3:08.34 | 109548 | 123681
11 | 27:29.07 | 2:50.66 | 123682 | 136497
12 | 30:19.73 | 2:33.65 | 136498 | 148037
13 | 32:53.63 | 3:01.28 | 148038 | 161640
14 | 35:55.16 | 3:06.11 | 161641 | 175601
15 | 39:01.27 | 2:35.65 | 175602 | 187291
16 | 41:37.17 | 2:45.21 | 187292 | 199687
17 | 44:22.38 | 2:49.08 | 199688 | 212370
18 | 47:11.46 | 2:18.44 | 212371 | 222764
19 | 49:30.15 | 2:57.58 | 222765 | 236097
20 | 52:27.73 | 2:59.73 | 236098 | 249595
21 | 55:27.71 | 2:36.47 | 249596 | 261342
22 | 58:04.43 | 3:24.30 | 261343 | 276672
23 | 61:28.73 | 2:56.60 | 276673 | 289932
24 | 64:25.58 | 3:21.34 | 289933 | 305041
25 | 67:47.17 | 2:55.18 | 305042 | 318184
26 | 70:42.35 | 3:17.31 | 318185 | 332990
27 | 73:59.66 | 2:55.46 | 332991 | 346161
28 | 76:55.37 | 2:41.30 | 346162 | 358266


Track 1

Filename E:\01 - Open Your Book (Daddy Wants To Read With You).wav

Pre-gap length 0:00:02.00

Peak level 74.1 %
Extraction speed 1.1 X
Track quality 100.0 %
Test CRC BDA9B4C5
Copy CRC BDA9B4C5
Track not present in AccurateRip database
Copy OK

Track 2

Filename E:\02 - Tears In My Eyes.wav

Pre-gap length 0:00:02.00

Peak level 71.0 %
Extraction speed 1.2 X
Track quality 100.0 %
Test CRC 9EF185C2
Copy CRC 9EF185C2
Track not present in AccurateRip database
Copy OK

Track 3

Filename E:\03 - My Baby Boogies All The Time.wav

Pre-gap length 0:00:02.00

Peak level 84.0 %
Extraction speed 1.3 X
Track quality 100.0 %
Test CRC B7FD986D
Copy CRC B7FD986D
Track not present in AccurateRip database
Copy OK

Track 4

Filename E:\04 - I Wonder.wav

Pre-gap length 0:00:02.00

Peak level 75.7 %
Extraction speed 1.0 X
Track quality 99.9 %
Test CRC 1C1600DD
Copy CRC 1C1600DD
Track not present in AccurateRip database
Copy OK

Track 5

Filename E:\05 - Baby I've Been Mistreated.wav

Pre-gap length 0:00:02.00

Peak level 81.2 %
Extraction speed 1.2 X
Track quality 99.9 %
Test CRC 187B54A8
Copy CRC 187B54A8
Track not present in AccurateRip database
Copy OK

Track 6

Filename E:\06 - You Didn't Mean A Word (Mean Old World).wav

Pre-gap length 0:00:02.00

Peak level 81.2 %
Extraction speed 1.3 X
Track quality 99.9 %
Test CRC 2EE70F41
Copy CRC 2EE70F41
Track not present in AccurateRip database
Copy OK

Track 7

Filename E:\07 - She's My Baby.wav

Pre-gap length 0:00:02.00

Peak level 70.7 %
Extraction speed 1.4 X
Track quality 100.0 %
Test CRC D29FE883
Copy CRC D29FE883
Track not present in AccurateRip database
Copy OK

Track 8

Filename E:\08 - The Moon Is Rising.wav

Pre-gap length 0:00:02.00

Peak level 74.9 %
Extraction speed 1.5 X
Track quality 100.0 %
Test CRC 8CB08C91
Copy CRC 8CB08C91
Track not present in AccurateRip database
Copy OK

Track 9

Filename E:\09 - Gonna Find My Baby.wav

Pre-gap length 0:00:02.00

Peak level 82.2 %
Extraction speed 1.6 X
Track quality 100.0 %
Test CRC 40F471FA
Copy CRC 40F471FA
Track not present in AccurateRip database
Copy OK

Track 10

Filename E:\10 - Make A Little Love With Me.wav

Pre-gap length 0:00:02.00

Peak level 81.2 %
Extraction speed 1.7 X
Track quality 100.0 %
Test CRC A15704FE
Copy CRC A15704FE
Track not present in AccurateRip database
Copy OK

Track 11

Filename E:\11 - I Love My Baby.wav

Pre-gap length 0:00:02.00

Peak level 90.1 %
Extraction speed 1.7 X
Track quality 100.0 %
Test CRC 3F7157E2
Copy CRC 3F7157E2
Track not present in AccurateRip database
Copy OK

Track 12

Filename E:\12 - My Wife And Woman.wav

Pre-gap length 0:00:02.00

Peak level 90.1 %
Extraction speed 1.7 X
Track quality 100.0 %
Test CRC 19324E9B
Copy CRC 19324E9B
Track not present in AccurateRip database
Copy OK

Track 13

Filename E:\13 - The War Is Over.wav

Pre-gap length 0:00:02.00

Peak level 86.0 %
Extraction speed 1.8 X
Track quality 100.0 %
Test CRC 12D7FCB2
Copy CRC 12D7FCB2
Track not present in AccurateRip database
Copy OK

Track 14

Filename E:\14 - Fall On Your Knees.wav

Pre-gap length 0:00:02.00

Peak level 89.1 %
Extraction speed 1.9 X
Track quality 100.0 %
Test CRC 084F65A4
Copy CRC 084F65A4
Track not present in AccurateRip database
Copy OK

Track 15

Filename E:\15 - If You've Ever Been To Georgia.wav

Pre-gap length 0:00:02.00

Peak level 92.2 %
Extraction speed 1.8 X
Track quality 100.0 %
Test CRC 107F5118
Copy CRC 107F5118
Track not present in AccurateRip database
Copy OK

Track 16

Filename E:\16 - Help Me To Bear This Heavy Load.wav

Pre-gap length 0:00:02.00

Peak level 94.4 %
Extraction speed 1.9 X
Track quality 100.0 %
Test CRC 370880AE
Copy CRC 370880AE
Track not present in AccurateRip database
Copy OK

Track 17

Filename E:\17 - I Love You.wav

Pre-gap length 0:00:02.00

Peak level 95.4 %
Extraction speed 2.0 X
Track quality 100.0 %
Test CRC 9B3B5697
Copy CRC 9B3B5697
Track not present in AccurateRip database
Copy OK

Track 18

Filename E:\18 - She's Got No Hair.wav

Pre-gap length 0:00:02.00

Peak level 86.1 %
Extraction speed 1.9 X
Track quality 100.0 %
Test CRC 7B23408C
Copy CRC 7B23408C
Track not present in AccurateRip database
Copy OK

Track 19

Filename E:\19 - She Ain't Nothing But Trouble [Take B].wav

Pre-gap length 0:00:05.00

Peak level 92.2 %
Extraction speed 2.1 X
Track quality 100.0 %
Test CRC 3C341674
Copy CRC 3C341674
Track not present in AccurateRip database
Copy OK

Track 20

Filename E:\20 - Oo Weee Darling (Love Me With A Thrill) [Take A].wav

Pre-gap length 0:00:02.00

Peak level 99.9 %
Extraction speed 2.1 X
Track quality 100.0 %
Test CRC BB50E273
Copy CRC BB50E273
Track not present in AccurateRip database
Copy OK

Track 21

Filename E:\21 - My Baby Left Me [Take A].wav

Pre-gap length 0:00:01.74

Peak level 83.9 %
Extraction speed 2.1 X
Track quality 100.0 %
Test CRC C498FC1C
Copy CRC C498FC1C
Track not present in AccurateRip database
Copy OK

Track 22

Filename E:\22 - Nobody Wants Me [Take A].wav

Pre-gap length 0:00:02.00

Peak level 84.0 %
Extraction speed 2.2 X
Track quality 100.0 %
Test CRC 9DADCF78
Copy CRC 9DADCF78
Track not present in AccurateRip database
Copy OK

Track 23

Filename E:\23 - Star Bootlegger [Take A].wav

Pre-gap length 0:00:02.00

Peak level 86.8 %
Extraction speed 2.2 X
Track quality 100.0 %
Test CRC 7F003231
Copy CRC 7F003231
Track not present in AccurateRip database
Copy OK

Track 24

Filename E:\24 - I'm Gonna Dig Myself A Hole [Take A].wav

Pre-gap length 0:00:02.00

Peak level 91.0 %
Extraction speed 2.3 X
Track quality 100.0 %
Test CRC 6D01D168
Copy CRC 6D01D168
Track not present in AccurateRip database
Copy OK

Track 25

Filename E:\25 - Goin' Back To Georgia [Take A].wav

Pre-gap length 0:00:02.00

Peak level 96.6 %
Extraction speed 2.3 X
Track quality 100.0 %
Test CRC 57C1D7B7
Copy CRC 57C1D7B7
Track not present in AccurateRip database
Copy OK

Track 26

Filename E:\26 - Mr. So And So [Take A].wav

Pre-gap length 0:00:02.00

Peak level 92.2 %
Extraction speed 2.4 X
Track quality 100.0 %
Test CRC DB618F25
Copy CRC DB618F25
Track not present in AccurateRip database
Copy OK

Track 27

Filename E:\27 - Do It If You Want To [Take A].wav

Pre-gap length 0:00:02.00

Peak level 95.5 %
Extraction speed 2.0 X
Track quality 99.9 %
Test CRC DA27145E
Copy CRC DA27145E
Track not present in AccurateRip database
Copy OK

Track 28

Filename E:\28 - Nelvina [Take A].wav

Pre-gap length 0:00:02.00

Peak level 98.8 %
Extraction speed 2.4 X
Track quality 100.0 %
Test CRC 77CC805C
Copy CRC 77CC805C
Track not present in AccurateRip database
Copy OK


None of the tracks are present in the AccurateRip database

No errors occurred

End of status report

==== Log checksum E782C1AC26887D57AA16B3BD57907C2F12578F0413DD0CC8C7E4C1EE180F8D28 ====

Exact Audio Copy V1.3 from 2. September 2016

EAC extraction logfile from 28. August 2017, 14:46

Arthur 'Big Boy' Crudup / A Music Man Like Nobody Ever Saw [CD 5 of 5]

Used drive : ASUS BW-16D1HT Adapter: 1 ID: 0

Read mode : Secure
Utilize accurate stream : Yes
Defeat audio cache : Yes
Make use of C2 pointers : No

Read offset correction : 6
Overread into Lead-In and Lead-Out : No
Fill up missing offset samples with silence : Yes
Delete leading and trailing silent blocks : No
Null samples used in CRC calculations : Yes
Used interface : Native Win32 interface for Win NT & 2000
Gap handling : Appended to previous track

Used output format : User Defined Encoder
Selected bitrate : 896 kBit/s
Quality : High
Add ID3 tag : No
Command line compressor : C:\Exact Audio Copy\FLAC\FLAC.EXE
Additional command line options : -8 -V -T "ARTIST=%artist%" -T "TITLE=%title%" -T "ALBUM=%albumtitle%" -T "DATE=%year%" -T "TRACKNUMBER=%tracknr%" -T "TOTALTRACKS=%numtracks%" -T "GENRE=%genre%" -T "ALBUMARTIST=%albumartist%" -T "ALBUM ARTIST=%albumartist%" -T "COMMENT=EAC Secure Mode, Test & Copy, AccurateRip, FLAC -8" %source%


TOC of the extracted CD

Track | Start | Length | Start sector | End sector
––––––––––––––––––––––––––––-
1 | 0:00.00 | 2:51.43 | 0 | 12867
2 | 2:51.43 | 2:25.15 | 12868 | 23757
3 | 5:16.58 | 2:26.51 | 23758 | 34758
4 | 7:43.34 | 2:35.37 | 34759 | 46420
5 | 10:18.71 | 2:22.13 | 46421 | 57083
6 | 12:41.09 | 2:40.13 | 57084 | 69096
7 | 15:21.22 | 2:52.19 | 69097 | 82015
8 | 18:13.41 | 2:23.05 | 82016 | 92745
9 | 20:36.46 | 2:24.55 | 92746 | 103600
10 | 23:01.26 | 2:16.52 | 103601 | 113852
11 | 25:18.03 | 2:37.23 | 113853 | 125650
12 | 27:55.26 | 2:50.21 | 125651 | 138421
13 | 30:45.47 | 2:13.22 | 138422 | 148418
14 | 32:58.69 | 2:43.00 | 148419 | 160643
15 | 35:41.69 | 2:32.49 | 160644 | 172092
16 | 38:14.43 | 5:32.16 | 172093 | 197008
17 | 43:46.59 | 2:25.33 | 197009 | 207916
18 | 46:12.17 | 2:22.40 | 207917 | 218606
19 | 48:34.57 | 1:56.30 | 218607 | 227336
20 | 50:31.12 | 2:15.03 | 227337 | 237464
21 | 52:46.15 | 2:53.34 | 237465 | 250473
22 | 55:39.49 | 2:59.47 | 250474 | 263945
23 | 58:39.21 | 3:15.33 | 263946 | 278603
24 | 61:54.54 | 2:44.12 | 278604 | 290915


Track 1

Filename E:\01 - Katie Mae.wav

Pre-gap length 0:00:02.00

Peak level 91.2 %
Extraction speed 1.0 X
Track quality 100.0 %
Test CRC 1E5AE67A
Copy CRC 1E5AE67A
Track not present in AccurateRip database
Copy OK

Track 2

Filename E:\02 - Dig Myself A Hole.wav

Pre-gap length 0:00:02.00

Peak level 94.3 %
Extraction speed 1.0 X
Track quality 100.0 %
Test CRC 276D8B32
Copy CRC 276D8B32
Track not present in AccurateRip database
Copy OK

Track 3

Filename E:\03 - Rock Me Mama.wav

Pre-gap length 0:00:02.00

Peak level 92.2 %
Extraction speed 1.1 X
Track quality 100.0 %
Test CRC B8B9106B
Copy CRC B8B9106B
Track not present in AccurateRip database
Copy OK

Track 4

Filename E:\04 - Mean Ole Frisco.wav

Pre-gap length 0:00:02.00

Peak level 90.0 %
Extraction speed 1.1 X
Track quality 100.0 %
Test CRC C9815B6B
Copy CRC C9815B6B
Track not present in AccurateRip database
Copy OK

Track 5

Filename E:\05 - That's All Right Mama.wav

Pre-gap length 0:00:01.74

Peak level 92.2 %
Extraction speed 1.2 X
Track quality 100.0 %
Test CRC AF0F11CE
Copy CRC AF0F11CE
Track not present in AccurateRip database
Copy OK

Track 6

Filename E:\06 - Too Much Competition.wav

Pre-gap length 0:00:02.00

Peak level 91.2 %
Extraction speed 1.3 X
Track quality 100.0 %
Test CRC CDC15044
Copy CRC CDC15044
Track not present in AccurateRip database
Copy OK

Track 7

Filename E:\07 - Coal Black Mare.wav

Pre-gap length 0:00:02.00

Peak level 90.1 %
Extraction speed 1.3 X
Track quality 100.0 %
Test CRC E085F225
Copy CRC E085F225
Track not present in AccurateRip database
Copy OK

Track 8

Filename E:\08 - Look On Yonder Wall.wav

Pre-gap length 0:00:02.00

Peak level 92.2 %
Extraction speed 1.1 X
Track quality 99.9 %
Test CRC 0F830F11
Copy CRC 0F830F11
Track not present in AccurateRip database
Copy OK

Track 9

Filename E:\09 - Ethel Mae.wav

Pre-gap length 0:00:02.00

Peak level 92.2 %
Extraction speed 1.1 X
Track quality 99.9 %
Test CRC 05E0C884
Copy CRC 05E0C884
Track not present in AccurateRip database
Copy OK

Track 10

Filename E:\10 - Standing At My Window.wav

Pre-gap length 0:00:02.00

Peak level 88.1 %
Extraction speed 1.4 X
Track quality 100.0 %
Test CRC B777BF0F
Copy CRC B777BF0F
Track not present in AccurateRip database
Copy OK

Track 11

Filename E:\11 - Greyhound Bus.wav

Pre-gap length 0:00:02.00

Peak level 88.1 %
Extraction speed 1.5 X
Track quality 100.0 %
Test CRC D3CC5E21
Copy CRC D3CC5E21
Track not present in AccurateRip database
Copy OK

Track 12

Filename E:\12 - So Glad You're Mine.wav

Pre-gap length 0:00:02.00

Peak level 96.6 %
Extraction speed 1.3 X
Track quality 99.9 %
Test CRC 36F1F13E
Copy CRC 36F1F13E
Track not present in AccurateRip database
Copy OK

Track 13

Filename E:\13 - The Moon Is Rising.wav

Pre-gap length 0:00:02.00

Peak level 97.7 %
Extraction speed 1.5 X
Track quality 100.0 %
Test CRC 3F5A6F0F
Copy CRC 3F5A6F0F
Track not present in AccurateRip database
Copy OK

Track 14

Filename E:\14 - Death Valley Blues.wav

Pre-gap length 0:00:01.74

Peak level 89.1 %
Extraction speed 1.3 X
Track quality 99.9 %
Test CRC A87FF04A
Copy CRC A87FF04A
Track not present in AccurateRip database
Copy OK

Track 15

Filename E:\15 - If I Get Lucky.wav

Pre-gap length 0:00:02.00

Peak level 83.1 %
Extraction speed 1.7 X
Track quality 100.0 %
Test CRC 63C1D3DE
Copy CRC 63C1D3DE
Track not present in AccurateRip database
Copy OK

Track 16

Filename E:\16 - Angel Child.wav

Pre-gap length 0:00:02.00

Peak level 86.0 %
Extraction speed 1.9 X
Track quality 100.0 %
Test CRC 416D8297
Copy CRC 416D8297
Track not present in AccurateRip database
Copy OK

Track 17

Filename E:\17 - My Mama Don't Allow Me.wav

Pre-gap length 0:00:02.00

Peak level 91.2 %
Extraction speed 1.4 X
Track quality 99.9 %
Test CRC 07477141
Copy CRC 07477141
Track not present in AccurateRip database
Copy OK

Track 18

Filename E:\18 - I'm In The Mood For You.wav

Pre-gap length 0:00:02.00

Peak level 93.3 %
Extraction speed 1.8 X
Track quality 100.0 %
Test CRC 00D6F22F
Copy CRC 00D6F22F
Track not present in AccurateRip database
Copy OK

Track 19

Filename E:\19 - Looka There, She Got No Hair.wav

Pre-gap length 0:00:02.00

Peak level 82.2 %
Extraction speed 1.7 X
Track quality 100.0 %
Test CRC EF8C2F90
Copy CRC EF8C2F90
Track not present in AccurateRip database
Copy OK

Track 20

Filename E:\20 - I Love Her Just The Same.wav

Pre-gap length 0:00:02.00

Peak level 92.2 %
Extraction speed 1.8 X
Track quality 100.0 %
Test CRC 9758C5E2
Copy CRC 9758C5E2
Track not present in AccurateRip database
Copy OK

Track 21

Filename E:\21 - Angel Child [Alternative take].wav

Pre-gap length 0:00:02.00

Peak level 100.0 %
Extraction speed 2.0 X
Track quality 100.0 %
Test CRC 1521E1FF
Copy CRC 1521E1FF
Track not present in AccurateRip database
Copy OK

Track 22

Filename E:\22 - Tears In My Eyes [Alternative take].wav

Pre-gap length 0:00:05.00

Peak level 76.7 %
Extraction speed 1.7 X
Track quality 99.9 %
Test CRC 56503F80
Copy CRC 56503F80
Track not present in AccurateRip database
Copy OK

Track 23

Filename E:\23 - Gonna Find My Baby [Alternative take 1].wav

Pre-gap length 0:00:02.00

Peak level 76.7 %
Extraction speed 2.1 X
Track quality 100.0 %
Test CRC 72504E10
Copy CRC 72504E10
Track not present in AccurateRip database
Copy OK

Track 24

Filename E:\24 - Gonna Find My Baby [Alternative take 2].wav

Pre-gap length 0:00:02.00

Peak level 75.8 %
Extraction speed 2.1 X
Track quality 100.0 %
Test CRC AE317EC0
Copy CRC AE317EC0
Track not present in AccurateRip database
Copy OK


None of the tracks are present in the AccurateRip database

No errors occurred

End of status report

==== Log checksum 942F08D9CA7C9153728EB4FD253C328E160335ACFEC37A2481D3F14713816F94 ====


Arthur 'Big Boy' Crudup - A Music Man Like Nobody Ever Saw (2016) {5CD Box Set Bear Family BCD 17352 rec 1941-1962}



===