Subcategories

Artie Shaw And His Orchestra - 22 Original Big-Band Hits (1987)

Posted By: Domestos
Artie Shaw And His Orchestra - 22 Original Big-Band Hits (1987)

Artie Shaw And His Orchestra - 22 Original Big-Band Hits (1987)
XLD Rip | FLAC (tracks+.cue, log) ~ 232.59 Mb | 69:32 | Covers
Big Band, Swing | Label: Hindsight Records (HCD 401)

While oscillating between retirement and comebacks throughout the '30s and '40s, clarinetist Artie Shaw cut several incredible sides from 1938-1939. After ditching a string orchestra setup, Shaw formed his first big band in 1937 and eventually gained fame with his signature performance of "Begin the Beguine." The bandleader would go on to commit a slew of numbers to wax up until another retirement in 1939.

Besides Bluebird covering the core recordings on several reissues, a few smaller labels have picked up the slack with sizable helpings of fringe material like these radio broadcasts. While this 22-track Hindsight collection covers the day's usual standards in instrumentals like "Stardust" and "Rose Room," it also features two fine vocal turns by regular band singer Helen Forrest ("What's New," "This Can't Be Love"). Satchmo imitator Tony Pastor also gets a few rounds in with entertaining renditions of "I Can't Give You Anything but Love" and "Sweet Adeline." For his part, Shaw is impressive throughout on several lithe and liquid clarinet solos. Other standout instrumental performances are notched up by tenor saxophonist George Auld, trumpeter John Best, guitarist Al Alvola, and drummer Buddy Rich. Certainly not essential, but a very enjoyable listen all the same. ~ AllMusic Review by Stephen Cook

Track List:
01. What Is This Thing Called Love (3:14)
02. My Heart Stood Still (2:29)
03. This Can't Be Love (2:25)
04. Lover Come Back to Me (3:24)
05. I Can't Give You Anything But Love (3:27)
06. The Lambeth Walk (2:26)
07. Together (3:04)
08. I'm Yours (2:38)
09. Small Fry (4:03)
10. Softly as in a Morning Sunrise (2:38)
11. Shine on Harvest Moon (5:02)
12. Stardust (3:45)
13. Out of Nowhere (3:21)
14. What's New (2:58)
15. If I Had You (4:11)
16. I Cover the Waterfront (3:11)
17. Just You, Just Me (2:34)
18. Carioca (4:00)
19. You're Mine, You (2:55)
20. Sweet Adeline (2:40)
21. I Can't Believe That You're in Love with Me (2:43)
22. I'm Coming Virginia (2:24)

Artie Shaw And His Orchestra - 22 Original Big-Band Hits (1987)

X Lossless Decoder version 20141129 (148.1)

XLD extraction logfile from 2015-08-04 17:40:36 +0100

Artie Shaw & His Orchestra / 22 Original Big Band Hits

Used drive : MATSHITA DVD-R UJ-8A8 (revision HB14)
Media type : Pressed CD

Ripper mode : XLD Secure Ripper
Disable audio cache : OK for the drive with a cache less than 1375KiB
Make use of C2 pointers : NO
Read offset correction : 102
Max retry count : 100
Gap status : Analyzed, Appended

TOC of the extracted CD
Track | Start | Length | Start sector | End sector
––––––––––––––––––––––––––––-
1 | 00:00:00 | 03:14:02 | 0 | 14551
2 | 03:14:02 | 02:29:03 | 14552 | 25729
3 | 05:43:05 | 02:25:15 | 25730 | 36619
4 | 08:08:20 | 03:23:52 | 36620 | 51896
5 | 11:31:72 | 03:26:55 | 51897 | 67401
6 | 14:58:52 | 02:25:63 | 67402 | 78339
7 | 17:24:40 | 03:03:62 | 78340 | 92126
8 | 20:28:27 | 02:38:10 | 92127 | 103986
9 | 23:06:37 | 04:02:43 | 103987 | 122179
10 | 27:09:05 | 02:38:07 | 122180 | 134036
11 | 29:47:12 | 05:01:60 | 134037 | 156671
12 | 34:48:72 | 03:44:65 | 156672 | 173536
13 | 38:33:62 | 03:20:48 | 173537 | 188584
14 | 41:54:35 | 02:57:40 | 188585 | 201899
15 | 44:52:00 | 04:11:35 | 201900 | 220759
16 | 49:03:35 | 03:11:30 | 220760 | 235114
17 | 52:14:65 | 02:33:50 | 235115 | 246639
18 | 54:48:40 | 04:00:37 | 246640 | 264676
19 | 58:49:02 | 02:55:00 | 264677 | 277801
20 | 61:44:02 | 02:40:35 | 277802 | 289836
21 | 64:24:37 | 02:43:10 | 289837 | 302071
22 | 67:07:47 | 02:23:63 | 302072 | 312859

List of alternate offset correction values
# | Absolute | Relative | Confidence
–––––––––––––––––––––
1 | 7 | -95 | 2

AccurateRip Summary (DiscID: 0036e411-0376d8b4-3a104b16)
Track 01 : OK (v1, confidence 2/2, with different offset)
Track 02 : OK (v1, confidence 2/2, with different offset)
Track 03 : OK (v1, confidence 2/2, with different offset)
Track 04 : OK (v1, confidence 2/2, with different offset)
Track 05 : OK (v1, confidence 2/2, with different offset)
Track 06 : OK (v1, confidence 2/2, with different offset)
Track 07 : OK (v1, confidence 2/2, with different offset)
Track 08 : OK (v1, confidence 2/2, with different offset)
Track 09 : OK (v1, confidence 2/2, with different offset)
Track 10 : OK (v1, confidence 2/2, with different offset)
Track 11 : OK (v1, confidence 2/2, with different offset)
Track 12 : OK (v1, confidence 2/2, with different offset)
Track 13 : OK (v1, confidence 2/2, with different offset)
Track 14 : OK (v1, confidence 2/2, with different offset)
Track 15 : OK (v1, confidence 2/2, with different offset)
Track 16 : OK (v1, confidence 2/2, with different offset)
Track 17 : OK (v1, confidence 2/2, with different offset)
Track 18 : OK (v1, confidence 2/2, with different offset)
Track 19 : OK (v1, confidence 2/2, with different offset)
Track 20 : OK (v1, confidence 2/2, with different offset)
Track 21 : OK (v1, confidence 2/2, with different offset)
Track 22 : OK (v1, confidence 2/2, with different offset)
->All tracks accurately ripped.

All Tracks
Album gain : -1.66 dB
Peak : 0.850311
Statistics
Read error : 0
Jitter error (maybe fixed) : 0
Retry sector count : 0
Damaged sector count : 0

Track 01
Filename : /XLD/Artie Shaw & His Orchestra - 1993 - 22 Original Big Band Hits [FLAC]/01 What Is This Thing Called Love.flac
/XLD/Artie Shaw & His Orchestra - 1993 - 22 Original Big Band Hits [LAME MP3 (V0)]/01 What Is This Thing Called Love.mp3
Pre-gap length : 00:02:00

Track gain : -1.53 dB
Peak : 0.740540
CRC32 hash (test run) : AAD31355
CRC32 hash : AAD31355
CRC32 hash (skip zero) : D325FBF9
AccurateRip v1 signature : D52976B4 (07E2A2A8 w/correction)
AccurateRip v2 signature : 5701C7E6
->Accurately ripped with different offset (v1, confidence 2/2, offset -95)
Statistics
Read error : 0
Jitter error (maybe fixed) : 0
Retry sector count : 0
Damaged sector count : 0

Track 02
Filename : /XLD/Artie Shaw & His Orchestra - 1993 - 22 Original Big Band Hits [FLAC]/02 My Heart Stood Still.flac
/XLD/Artie Shaw & His Orchestra - 1993 - 22 Original Big Band Hits [LAME MP3 (V0)]/02 My Heart Stood Still.mp3
Pre-gap length : 00:03:27

Track gain : -2.25 dB
Peak : 0.792328
CRC32 hash (test run) : B9D38F7D
CRC32 hash : B9D38F7D
CRC32 hash (skip zero) : 9D707404
AccurateRip v1 signature : 2B886413 (29EFE02B w/correction)
AccurateRip v2 signature : 1B8E173E
->Accurately ripped with different offset (v1, confidence 2/2, offset -95)
Statistics
Read error : 0
Jitter error (maybe fixed) : 0
Retry sector count : 0
Damaged sector count : 0

Track 03
Filename : /XLD/Artie Shaw & His Orchestra - 1993 - 22 Original Big Band Hits [FLAC]/03 This Can't Be Love.flac
/XLD/Artie Shaw & His Orchestra - 1993 - 22 Original Big Band Hits [LAME MP3 (V0)]/03 This Can't Be Love.mp3
Pre-gap length : 00:03:08

Track gain : -1.84 dB
Peak : 0.638977
CRC32 hash (test run) : 80547BF0
CRC32 hash : 80547BF0
CRC32 hash (skip zero) : 7AE1B61A
AccurateRip v1 signature : BA1A4374 (CF54141F w/correction)
AccurateRip v2 signature : 463D8AF5
->Accurately ripped with different offset (v1, confidence 2/2, offset -95)
Statistics
Read error : 0
Jitter error (maybe fixed) : 0
Retry sector count : 0
Damaged sector count : 0

Track 04
Filename : /XLD/Artie Shaw & His Orchestra - 1993 - 22 Original Big Band Hits [FLAC]/04 Lover Come Back To Me.flac
/XLD/Artie Shaw & His Orchestra - 1993 - 22 Original Big Band Hits [LAME MP3 (V0)]/04 Lover Come Back To Me.mp3
Pre-gap length : 00:03:15

Track gain : -1.01 dB
Peak : 0.770233
CRC32 hash (test run) : 9A7582E3
CRC32 hash : 9A7582E3
CRC32 hash (skip zero) : FC5DE172
AccurateRip v1 signature : C101CEF0 (4C6DE9E4 w/correction)
AccurateRip v2 signature : 5A17AA60
->Accurately ripped with different offset (v1, confidence 2/2, offset -95)
Statistics
Read error : 0
Jitter error (maybe fixed) : 0
Retry sector count : 0
Damaged sector count : 0

Track 05
Filename : /XLD/Artie Shaw & His Orchestra - 1993 - 22 Original Big Band Hits [FLAC]/05 I Can't Give You Anything But Love.flac
/XLD/Artie Shaw & His Orchestra - 1993 - 22 Original Big Band Hits [LAME MP3 (V0)]/05 I Can't Give You Anything But Love.mp3
Pre-gap length : 00:03:10

Track gain : -2.09 dB
Peak : 0.709991
CRC32 hash (test run) : EF4A882E
CRC32 hash : EF4A882E
CRC32 hash (skip zero) : 667E4A15
AccurateRip v1 signature : B4A7FDB8 (9FE4FF91 w/correction)
AccurateRip v2 signature : FF37B71C
->Accurately ripped with different offset (v1, confidence 2/2, offset -95)
Statistics
Read error : 0
Jitter error (maybe fixed) : 0
Retry sector count : 0
Damaged sector count : 0

Track 06
Filename : /XLD/Artie Shaw & His Orchestra - 1993 - 22 Original Big Band Hits [FLAC]/06 The Lambeth Walk.flac
/XLD/Artie Shaw & His Orchestra - 1993 - 22 Original Big Band Hits [LAME MP3 (V0)]/06 The Lambeth Walk.mp3
Pre-gap length : 00:03:17

Track gain : -2.28 dB
Peak : 0.717865
CRC32 hash (test run) : 6C6F5C00
CRC32 hash : 6C6F5C00
CRC32 hash (skip zero) : 637B5AD6
AccurateRip v1 signature : 71A384F2 (AF5EB466 w/correction)
AccurateRip v2 signature : ED18DF9A
->Accurately ripped with different offset (v1, confidence 2/2, offset -95)
Statistics
Read error : 0
Jitter error (maybe fixed) : 0
Retry sector count : 0
Damaged sector count : 0

Track 07
Filename : /XLD/Artie Shaw & His Orchestra - 1993 - 22 Original Big Band Hits [FLAC]/07 Together.flac
/XLD/Artie Shaw & His Orchestra - 1993 - 22 Original Big Band Hits [LAME MP3 (V0)]/07 Together.mp3
Pre-gap length : 00:03:40

Track gain : -0.47 dB
Peak : 0.657227
CRC32 hash (test run) : F45977C9
CRC32 hash : F45977C9
CRC32 hash (skip zero) : 4CF4AB4C
AccurateRip v1 signature : 4F30455B (757E9EB0 w/correction)
AccurateRip v2 signature : D058A221
->Accurately ripped with different offset (v1, confidence 2/2, offset -95)
Statistics
Read error : 0
Jitter error (maybe fixed) : 0
Retry sector count : 0
Damaged sector count : 0

Track 08
Filename : /XLD/Artie Shaw & His Orchestra - 1993 - 22 Original Big Band Hits [FLAC]/08 I'm Yours.flac
/XLD/Artie Shaw & His Orchestra - 1993 - 22 Original Big Band Hits [LAME MP3 (V0)]/08 I'm Yours.mp3
Pre-gap length : 00:02:45

Track gain : -2.26 dB
Peak : 0.598938
CRC32 hash (test run) : 02946A3E
CRC32 hash : 02946A3E
CRC32 hash (skip zero) : 246637FE
AccurateRip v1 signature : 2DAB934F (1156CA9F w/correction)
AccurateRip v2 signature : 06490391
->Accurately ripped with different offset (v1, confidence 2/2, offset -95)
Statistics
Read error : 0
Jitter error (maybe fixed) : 0
Retry sector count : 0
Damaged sector count : 0

Track 09
Filename : /XLD/Artie Shaw & His Orchestra - 1993 - 22 Original Big Band Hits [FLAC]/09 Small Fry.flac
/XLD/Artie Shaw & His Orchestra - 1993 - 22 Original Big Band Hits [LAME MP3 (V0)]/09 Small Fry.mp3
Pre-gap length : 00:03:07

Track gain : -1.70 dB
Peak : 0.696350
CRC32 hash (test run) : 48AD1D9A
CRC32 hash : 48AD1D9A
CRC32 hash (skip zero) : 22853B36
AccurateRip v1 signature : 32FC8C55 (B31B4BEC w/correction)
AccurateRip v2 signature : 6E06EEAA
->Accurately ripped with different offset (v1, confidence 2/2, offset -95)
Statistics
Read error : 0
Jitter error (maybe fixed) : 0
Retry sector count : 0
Damaged sector count : 0

Track 10
Filename : /XLD/Artie Shaw & His Orchestra - 1993 - 22 Original Big Band Hits [FLAC]/10 Softly As In A Morning Sunrise.flac
/XLD/Artie Shaw & His Orchestra - 1993 - 22 Original Big Band Hits [LAME MP3 (V0)]/10 Softly As In A Morning Sunrise.mp3
Pre-gap length : 00:03:35

Track gain : -1.81 dB
Peak : 0.850311
CRC32 hash (test run) : E50AFDC0
CRC32 hash : E50AFDC0
CRC32 hash (skip zero) : D45EB7AA
AccurateRip v1 signature : C9C7E03F (CA93C505 w/correction)
AccurateRip v2 signature : 9401D0CA
->Accurately ripped with different offset (v1, confidence 2/2, offset -95)
Statistics
Read error : 0
Jitter error (maybe fixed) : 0
Retry sector count : 0
Damaged sector count : 0

Track 11
Filename : /XLD/Artie Shaw & His Orchestra - 1993 - 22 Original Big Band Hits [FLAC]/11 Shine On Harvest Moon.flac
/XLD/Artie Shaw & His Orchestra - 1993 - 22 Original Big Band Hits [LAME MP3 (V0)]/11 Shine On Harvest Moon.mp3
Pre-gap length : 00:02:37

Track gain : -1.71 dB
Peak : 0.802734
CRC32 hash (test run) : 93E0933E
CRC32 hash : 93E0933E
CRC32 hash (skip zero) : 134C551F
AccurateRip v1 signature : E917B44D (D5A40EF1 w/correction)
AccurateRip v2 signature : EB38C29F
->Accurately ripped with different offset (v1, confidence 2/2, offset -95)
Statistics
Read error : 0
Jitter error (maybe fixed) : 0
Retry sector count : 0
Damaged sector count : 0

Track 12
Filename : /XLD/Artie Shaw & His Orchestra - 1993 - 22 Original Big Band Hits [FLAC]/12 Stardust.flac
/XLD/Artie Shaw & His Orchestra - 1993 - 22 Original Big Band Hits [LAME MP3 (V0)]/12 Stardust.mp3
Pre-gap length : 00:03:00

Track gain : -1.27 dB
Peak : 0.560577
CRC32 hash (test run) : 45817546
CRC32 hash : 45817546
CRC32 hash (skip zero) : 7ED75465
AccurateRip v1 signature : BF0E2E32 (58EDC037 w/correction)
AccurateRip v2 signature : 699AA198
->Accurately ripped with different offset (v1, confidence 2/2, offset -95)
Statistics
Read error : 0
Jitter error (maybe fixed) : 0
Retry sector count : 0
Damaged sector count : 0

Track 13
Filename : /XLD/Artie Shaw & His Orchestra - 1993 - 22 Original Big Band Hits [FLAC]/13 Out Of Nowhere.flac
/XLD/Artie Shaw & His Orchestra - 1993 - 22 Original Big Band Hits [LAME MP3 (V0)]/13 Out Of Nowhere.mp3
Pre-gap length : 00:03:15

Track gain : -0.70 dB
Peak : 0.688538
CRC32 hash (test run) : 44EC8E0B
CRC32 hash : 44EC8E0B
CRC32 hash (skip zero) : 2DB1F654
AccurateRip v1 signature : BE96E464 (DCCCAE33 w/correction)
AccurateRip v2 signature : 22A815C2
->Accurately ripped with different offset (v1, confidence 2/2, offset -95)
Statistics
Read error : 0
Jitter error (maybe fixed) : 0
Retry sector count : 0
Damaged sector count : 0

Track 14
Filename : /XLD/Artie Shaw & His Orchestra - 1993 - 22 Original Big Band Hits [FLAC]/14 What's New.flac
/XLD/Artie Shaw & His Orchestra - 1993 - 22 Original Big Band Hits [LAME MP3 (V0)]/14 What's New.mp3
Pre-gap length : 00:02:65

Track gain : -1.32 dB
Peak : 0.496552
CRC32 hash (test run) : CB457E3B
CRC32 hash : CB457E3B
CRC32 hash (skip zero) : 8AE192A1
AccurateRip v1 signature : A5E2F3ED (036E4B94 w/correction)
AccurateRip v2 signature : C3CCCD72
->Accurately ripped with different offset (v1, confidence 2/2, offset -95)
Statistics
Read error : 0
Jitter error (maybe fixed) : 0
Retry sector count : 0
Damaged sector count : 0

Track 15
Filename : /XLD/Artie Shaw & His Orchestra - 1993 - 22 Original Big Band Hits [FLAC]/15 If I Had You.flac
/XLD/Artie Shaw & His Orchestra - 1993 - 22 Original Big Band Hits [LAME MP3 (V0)]/15 If I Had You.mp3
Pre-gap length : 00:03:15

Track gain : -0.27 dB
Peak : 0.634949
CRC32 hash (test run) : 2EB5CAD6
CRC32 hash : 2EB5CAD6
CRC32 hash (skip zero) : 333C4C9F
AccurateRip v1 signature : E1E34DAD (57AB869D w/correction)
AccurateRip v2 signature : 24F8B6AB
->Accurately ripped with different offset (v1, confidence 2/2, offset -95)
Statistics
Read error : 0
Jitter error (maybe fixed) : 0
Retry sector count : 0
Damaged sector count : 0

Track 16
Filename : /XLD/Artie Shaw & His Orchestra - 1993 - 22 Original Big Band Hits [FLAC]/16 I Cover The Waterfront.flac
/XLD/Artie Shaw & His Orchestra - 1993 - 22 Original Big Band Hits [LAME MP3 (V0)]/16 I Cover The Waterfront.mp3
Pre-gap length : 00:02:35

Track gain : -1.84 dB
Peak : 0.544373
CRC32 hash (test run) : D05D7DD6
CRC32 hash : D05D7DD6
CRC32 hash (skip zero) : 25403D8E
AccurateRip v1 signature : 9365D3AD (93B51130 w/correction)
AccurateRip v2 signature : 420E85EE
->Accurately ripped with different offset (v1, confidence 2/2, offset -95)
Statistics
Read error : 0
Jitter error (maybe fixed) : 0
Retry sector count : 0
Damaged sector count : 0

Track 17
Filename : /XLD/Artie Shaw & His Orchestra - 1993 - 22 Original Big Band Hits [FLAC]/17 Just You, Just Me.flac
/XLD/Artie Shaw & His Orchestra - 1993 - 22 Original Big Band Hits [LAME MP3 (V0)]/17 Just You, Just Me.mp3
Pre-gap length : 00:02:68

Track gain : -0.55 dB
Peak : 0.613556
CRC32 hash (test run) : ECA8452D
CRC32 hash : ECA8452D
CRC32 hash (skip zero) : 0E5FFC7A
AccurateRip v1 signature : 5BAACBDB (914A4D28 w/correction)
AccurateRip v2 signature : 206CDFDD
->Accurately ripped with different offset (v1, confidence 2/2, offset -95)
Statistics
Read error : 0
Jitter error (maybe fixed) : 0
Retry sector count : 0
Damaged sector count : 0

Track 18
Filename : /XLD/Artie Shaw & His Orchestra - 1993 - 22 Original Big Band Hits [FLAC]/18 Carioca.flac
/XLD/Artie Shaw & His Orchestra - 1993 - 22 Original Big Band Hits [LAME MP3 (V0)]/18 Carioca.mp3
Pre-gap length : 00:02:30

Track gain : -0.32 dB
Peak : 0.703735
CRC32 hash (test run) : 4AFEFDA2
CRC32 hash : 4AFEFDA2
CRC32 hash (skip zero) : EF2F6147
AccurateRip v1 signature : 9E378ACF (2E147552 w/correction)
AccurateRip v2 signature : 0AC213DB
->Accurately ripped with different offset (v1, confidence 2/2, offset -95)
Statistics
Read error : 0
Jitter error (maybe fixed) : 0
Retry sector count : 0
Damaged sector count : 0

Track 19
Filename : /XLD/Artie Shaw & His Orchestra - 1993 - 22 Original Big Band Hits [FLAC]/19 You're Mine, You.flac
/XLD/Artie Shaw & His Orchestra - 1993 - 22 Original Big Band Hits [LAME MP3 (V0)]/19 You're Mine, You.mp3
Pre-gap length : 00:02:72

Track gain : -2.93 dB
Peak : 0.589600
CRC32 hash (test run) : 6EB94CEE
CRC32 hash : 6EB94CEE
CRC32 hash (skip zero) : 87E7A976
AccurateRip v1 signature : 21CC4A10 (649C8C9F w/correction)
AccurateRip v2 signature : 1F909B52
->Accurately ripped with different offset (v1, confidence 2/2, offset -95)
Statistics
Read error : 0
Jitter error (maybe fixed) : 0
Retry sector count : 0
Damaged sector count : 0

Track 20
Filename : /XLD/Artie Shaw & His Orchestra - 1993 - 22 Original Big Band Hits [FLAC]/20 Sweet Adeline.flac
/XLD/Artie Shaw & His Orchestra - 1993 - 22 Original Big Band Hits [LAME MP3 (V0)]/20 Sweet Adeline.mp3
Pre-gap length : 00:03:17

Track gain : -1.75 dB
Peak : 0.575592
CRC32 hash (test run) : 1EEC67BE
CRC32 hash : 1EEC67BE
CRC32 hash (skip zero) : 284D9EC2
AccurateRip v1 signature : DB36C3AF (D84B64D6 w/correction)
AccurateRip v2 signature : A9878ECA
->Accurately ripped with different offset (v1, confidence 2/2, offset -95)
Statistics
Read error : 0
Jitter error (maybe fixed) : 0
Retry sector count : 0
Damaged sector count : 0

Track 21
Filename : /XLD/Artie Shaw & His Orchestra - 1993 - 22 Original Big Band Hits [FLAC]/21 I Can't Believe That You're In Love With Me.flac
/XLD/Artie Shaw & His Orchestra - 1993 - 22 Original Big Band Hits [LAME MP3 (V0)]/21 I Can't Believe That You're In Love With Me.mp3
Pre-gap length : 00:02:62

Track gain : -1.26 dB
Peak : 0.570526
CRC32 hash (test run) : 0D5D5261
CRC32 hash : 0D5D5261
CRC32 hash (skip zero) : 79A39D82
AccurateRip v1 signature : FD842C2C (305ADB7D w/correction)
AccurateRip v2 signature : D7706762
->Accurately ripped with different offset (v1, confidence 2/2, offset -95)
Statistics
Read error : 0
Jitter error (maybe fixed) : 0
Retry sector count : 0
Damaged sector count : 0

Track 22
Filename : /XLD/Artie Shaw & His Orchestra - 1987 - 22 Original Big Band Hits [FLAC]/22 I'm Coming Virginia.flac
/XLD/Artie Shaw & His Orchestra - 1987 - 22 Original Big Band Hits [LAME MP3 (V0)]/22 I'm Coming Virginia.mp3
Pre-gap length : 00:02:37

Track gain : -2.46 dB
Peak : 0.686890
CRC32 hash (test run) : 82C557D7
CRC32 hash : 82C557D7
CRC32 hash (skip zero) : AD33808A
AccurateRip v1 signature : 9D400721 (AB5FE400 w/correction)
AccurateRip v2 signature : 7DE897BE
->Accurately ripped with different offset (v1, confidence 2/2, offset -95)
Statistics
Read error : 0
Jitter error (maybe fixed) : 0
Retry sector count : 0
Damaged sector count : 0

No errors occurred

End of status report

––-BEGIN XLD SIGNATURE––-
FERkGINboNCtPf2.Ab7e1KCYdAMnT8CiPzxvf_GdEB98f.vBCPMKNEwqRyR.T4J03YQlApse1MIXXpiF8P9_QqQPjBLgUwySDhu._Mi
––-END XLD SIGNATURE––-

All thanks go to the redacted

More Music in My Blog
Follow My RSS Channel