Subcategories

Ayn Inserto Jazz Orchestra - Down A Rabbit Hole (2018)

Posted By: Domestos
Ayn Inserto Jazz Orchestra - Down A Rabbit Hole (2018)

Ayn Inserto Jazz Orchestra - Down A Rabbit Hole (2018)
EAC Rip | FLAC (tracks+.cue, log) ~ 310.87 Mb | 00:51:16 | Cover
Post-Bop, Mainstream, Contemporary Jazz | Country: USA | Label: Summit Records - DCD 732

Down A Rabbit Hole CD music contains a single disc with 7 songs. Groundbreaking composer, Ayn Inserto presents an all original thought provoking large ensemble offering in delightful fashion on this, her fourth recording. Bringing with her; John Fedchock, trombone; George Garzone, tenor sax; Sean Jones, trumpet, the jazz orchestra is tight and lights up the sound of this creative original music. For fans of 'intelligent' big band music! Down A Rabbit Hole album for sale by Ayn Inserto Jazz Orchestra was released Sep 07, 2018 on the Summit label.



Track List:
01. Three and Me (8:45)
02. BJ’s Tune (8:13)
03. Mister and Dudley (6:36)
04. Down A Rabbit Hole (7:09)
05. Part I: Ze Teach (8:25)
06. Part II: And Me (5:39)
07. I’ll Be There (6:25)

Personnel:
Ayn Inserto, conductor/composer/arranger

Allan Chase, soprano/alto sax
Rick Stone, alto sax/flute/clarinet
Kelly Roberge, tenor sax/clarinet
Mark Zaleski, tenor sax/clarinet
Kathy Olson, bari sax/bass clarinet

Trumpets: Jeff Claassen, Bijon Watson, Dan Rosenthal, Matthew Small
Trombones: Randy Pingrey, Chris Gagne, Garo Saraydarian; Bass Trombone: Jennifer Wharton
Eric Hofbauer, guitar
Jason Yeager, piano
Sean Farias, bass
Austin McMahon, drums
Mike Tomasiak, tenor sax (#5)
Jerry Sabatini, trumpet (#5)
Jamie Kember, bass trombone (#5)

Special Guests:
John Fedchock, trombone
George Garzone, tenor sax
Sean Jones, trumpet

Ayn Inserto Jazz Orchestra - Down A Rabbit Hole (2018)

Exact Audio Copy V1.5 from 20. February 2020

EAC extraction logfile from 27. August 2020, 15:37

Ayn Inserto Jazz Orchestra / Down a Rabbit Hole

Used drive : PIONEER BD-RW BDR-XD05 Adapter: 1 ID: 0

Read mode : Secure
Utilize accurate stream : Yes
Defeat audio cache : Yes
Make use of C2 pointers : No

Read offset correction : 667
Overread into Lead-In and Lead-Out : No
Fill up missing offset samples with silence : Yes
Delete leading and trailing silent blocks : No
Null samples used in CRC calculations : Yes
Used interface : Native Win32 interface for Win NT & 2000
Gap handling : Appended to previous track

Used output format : User Defined Encoder
Selected bitrate : 1024 kBit/s
Quality : High
Add ID3 tag : No
Command line compressor : D:\Exact Audio Copy\Flac\flac.exe
Additional command line options : -8 -V -T "ARTIST=%artist%" -T "TITLE=%title%" -T "ALBUM=%albumtitle%" -T "DATE=%year%" -T "TRACKNUMBER=%tracknr%" -T "GENRE=%genre%" -T "PERFORMER=%albuminterpret%" -T "COMPOSER=%composer%" -T "ALBUMARTIST=%albumartist%" -T "DISCNUMBER=%cdnumber%" -T "TOTALDISCS=%totalcds%" -T "TOTALTRACKS=%numtracks%" -T "COMMENT=%comment%" %source% -o %dest%


TOC of the extracted CD

Track | Start | Length | Start sector | End sector
––––––––––––––––––––––––––––-
1 | 0:00.00 | 8:45.58 | 0 | 39432
2 | 8:45.58 | 8:13.24 | 39433 | 76431
3 | 16:59.07 | 6:36.64 | 76432 | 106195
4 | 23:35.71 | 7:09.67 | 106196 | 138437
5 | 30:45.63 | 8:25.39 | 138438 | 176351
6 | 39:11.27 | 5:39.30 | 176352 | 201806
7 | 44:50.57 | 6:25.24 | 201807 | 230705


Track 1

Filename C:\Users\jn970\Desktop\Music\Ayn Inserto Jazz Orchestra - Down a Rabbit Hole (2008) [CD-FLAC]\01 - Three and Me.wav

Pre-gap length 0:00:02.00

Peak level 89.1 %
Extraction speed 3.3 X
Track quality 100.0 %
Test CRC 419DF625
Copy CRC 419DF625
Accurately ripped (confidence 2) [0D005427] (AR v2)
Copy OK

Track 2

Filename C:\Users\jn970\Desktop\Music\Ayn Inserto Jazz Orchestra - Down a Rabbit Hole (2008) [CD-FLAC]\02 - BJ's Tune.wav

Peak level 89.1 %
Extraction speed 3.7 X
Track quality 99.9 %
Test CRC C931E54A
Copy CRC C931E54A
Accurately ripped (confidence 4) [ACE42F2B] (AR v2)
Copy OK

Track 3

Filename C:\Users\jn970\Desktop\Music\Ayn Inserto Jazz Orchestra - Down a Rabbit Hole (2008) [CD-FLAC]\03 - Mister and Dudley.wav

Peak level 89.1 %
Extraction speed 4.3 X
Track quality 100.0 %
Test CRC 6FD76EF9
Copy CRC 6FD76EF9
Accurately ripped (confidence 4) [5C671FCD] (AR v2)
Copy OK

Track 4

Filename C:\Users\jn970\Desktop\Music\Ayn Inserto Jazz Orchestra - Down a Rabbit Hole (2008) [CD-FLAC]\04 - Down a Rabbit Hole.wav

Peak level 89.1 %
Extraction speed 4.7 X
Track quality 100.0 %
Test CRC BCB00E08
Copy CRC BCB00E08
Accurately ripped (confidence 2) [E4453F72] (AR v2)
Copy OK

Track 5

Filename C:\Users\jn970\Desktop\Music\Ayn Inserto Jazz Orchestra - Down a Rabbit Hole (2008) [CD-FLAC]\05 - Part 1- Ze Teach.wav

Peak level 89.1 %
Extraction speed 5.1 X
Track quality 100.0 %
Test CRC E2CA2C19
Copy CRC E2CA2C19
Accurately ripped (confidence 4) [09C1F946] (AR v2)
Copy OK

Track 6

Filename C:\Users\jn970\Desktop\Music\Ayn Inserto Jazz Orchestra - Down a Rabbit Hole (2008) [CD-FLAC]\06 - Part 2- And Me.wav

Peak level 89.1 %
Extraction speed 5.1 X
Track quality 100.0 %
Test CRC 778172E3
Copy CRC 778172E3
Accurately ripped (confidence 2) [E7CECF24] (AR v2)
Copy OK

Track 7

Filename C:\Users\jn970\Desktop\Music\Ayn Inserto Jazz Orchestra - Down a Rabbit Hole (2008) [CD-FLAC]\07 - I'll Be There.wav

Peak level 89.1 %
Extraction speed 5.5 X
Track quality 100.0 %
Test CRC B5625141
Copy CRC B5625141
Accurately ripped (confidence 2) [7C7E6384] (AR v2)
Copy OK


All tracks accurately ripped

No errors occurred

End of status report

–– CUETools DB Plugin V2.1.6

[CTDB TOCID: VJFTCE4mF3HnvJRULgyg_L2rsPM-] found
Submit result: VJFTCE4mF3HnvJRULgyg_L2rsPM- has been confirmed
Track | CTDB Status
1 | (1/1) Accurately ripped
2 | (1/1) Accurately ripped
3 | (1/1) Accurately ripped
4 | (1/1) Accurately ripped
5 | (1/1) Accurately ripped
6 | (1/1) Accurately ripped
7 | (1/1) Accurately ripped


==== Log checksum 2B9AAD888E3EC4748445C1C08EEE69B2A49D1D76E30D5C52C48F1558548DFCE5 ====

All thanks go to the jn9702

More Music in My Blog
Follow My RSS Channel

===
Mp3
===