Subcategories

Chico & The Gypsies - Chico & The Gypsies Chantent Charles Aznavour (2011)

Posted By: L@ter
Chico & The Gypsies - Chico & The Gypsies Chantent Charles Aznavour (2011)

Chico & The Gypsies - Chico & The Gypsies Chantent Charles Aznavour (2011)
Eac Rip | Flac, Img+Cue, Log | 320 MB | 42,02 Min | Artwork
Label: Sony Music | Pop, folk, world | August 2011 | RAR 3% Rec.

On this 2011 album from Chico & the Gypsies, the group pays homage to a friend and fellow singer, Charles Aznavour. Chico & the Gypsies take on some of the best-loved songs of one of France’s greatest singing stars, including Que c’est Triste Venise (here, Venecia Sin Ti) and La Bohème, and add their own gypsy swing. A sure hit for fans of the originals as well as fans of Chico & the Gypsies.”What delicious food to be together! In dinners, he would always sing with us. To the surprise of his friends … But that’s because it feels good!” yesterday told the leader of Chico & the Gypsies during the presentation of their new disc. A tribute album where the seven members of the resume of major titles such as La bohème, die out of love, as they say. All in Spanish and flamenco…
Tracklist

01. T'espero (Je t'attends)
02. Llevame (Emmenez-moi)
03. La Bohemia (La Bohème)
04. Venecia Sin Ti (Que c'est triste Venise)
05. Tu Y Yo (Toi et Moi)
06. Las Dos Guitarras (Les deux guitares)
07. Como Dicen (Comme ils disent)
08. Nunca Mas (Désormais)
09. EL Barco Ya Se Fue (Les bateaux sont partis)
10. Es (She)
11. Morir De Amor (Mourir d'aimer)
12. La Mama


Exact Audio Copy V1.0 beta 3 from 29. August 2011

EAC extraction logfile from 30. January 2012, 0:52

Chico & The Gypsies / Chico & The Gypsies Chantent Charles Aznavour

Used drive : PLEXTOR DVDR PX-L890SA Adapter: 1 ID: 1

Read mode : Secure
Utilize accurate stream : Yes
Defeat audio cache : Yes
Make use of C2 pointers : No

Read offset correction : 6
Overread into Lead-In and Lead-Out : No
Fill up missing offset samples with silence : Yes
Delete leading and trailing silent blocks : No
Null samples used in CRC calculations : Yes
Used interface : Native Win32 interface for Win NT & 2000

Used output format : User Defined Encoder
Selected bitrate : 768 kBit/s
Quality : High
Add ID3 tag : No
Command line compressor : C:\Program Files (x86)\Exact Audio Copy\FLAC\FLAC.EXE
Additional command line options : -6 -V -T "ARTIST=%artist%" -T "TITLE=%title%" -T "ALBUM=%albumtitle%" -T "DATE=%year%" -T "TRACKNUMBER=%tracknr%" -T "GENRE=%genre%" -T "COMMENT=%comment%" -T "BAND=%albuminterpret%" -T "ALBUMARTIST=%albuminterpret%" -T "COMPOSER=%composer%" %haslyrics%–tag-from-file=LYRICS="%lyricsfile%"%haslyrics% -T "DISCNUMBER=%cdnumber%" -T "TOTALDISCS=%totalcds%" -T "TOTALTRACKS=%numtracks%" %hascover%–picture="%coverfile%"%hascover% %source% -o %dest%


TOC of the extracted CD

Track | Start | Length | Start sector | End sector
––––––––––––––––––––––––––––-
1 | 0:00.00 | 3:34.41 | 0 | 16090
2 | 3:34.41 | 4:15.29 | 16091 | 35244
3 | 7:49.70 | 3:30.25 | 35245 | 51019
4 | 11:20.20 | 3:09.52 | 51020 | 65246
5 | 14:29.72 | 3:04.08 | 65247 | 79054
6 | 17:34.05 | 4:21.66 | 79055 | 98695
7 | 21:55.71 | 4:05.21 | 98696 | 117091
8 | 26:01.17 | 3:31.74 | 117092 | 132990
9 | 29:33.16 | 2:41.63 | 132991 | 145128
10 | 32:15.04 | 2:42.02 | 145129 | 157280
11 | 34:57.06 | 3:36.29 | 157281 | 173509
12 | 38:33.35 | 3:28.54 | 173510 | 189163


Range status and errors

Selected range

Filename C:\Chico & The Gypsies - Chico & The Gypsies Chantent Charles Aznavour.wav

Peak level 96.6 %
Extraction speed 5.8 X
Range quality 99.9 %
Copy CRC 4A994B52
Copy OK

No errors occurred


End of status report

==== Log checksum 26906C6DEAAEE1AFDD8016CCBE9C5F8B3CFE3063E5A4C3139ACCA826DF249257 ====

New Link 12-09-2012

Filepost

Part 1     Part 2