Subcategories

J.S. Bach - Branderburg Concertos (1-6) and Orchestral Suites (1-4) (1990) {3CD Festival Strings Lucerne, Rudolf Baumgartner}

Posted By: ruskaval
J.S. Bach - Branderburg Concertos (1-6) and Orchestral Suites (1-4) (1990) {3CD Festival Strings Lucerne, Rudolf Baumgartner}

J.S. Bach - Branderburg Concertos (1-6) and Orchestral Suites (1-4) (1990) {3CD Festival Strings Lucerne, Rudolf Baumgartner rel 1977-1978}
XLD rip (secure mode) | FLAC (tracks)+CUE+LOG -> 986 Mb | MP3 @320 -> 433 Mb
Full Artwork @ 300 dpi (png) -> 122 Mb | 5% repair rar
© 1977-78, 1990 EuroDisc / BMG Ariola | 69219-2-RV
Classical / Baroque / Concerto / Orchestral

I've been listening to Brandenburgs non-stop for the past three weeks, for some reason. I love the Ristenpart recording, and I like the Britten version even better in some ways. This Baumgartner recording has a certain elegance. The pace is a tad slower and the ambience a bit thicker. The second movement of the first Brandenburg hits that emotional place a bit better than in the Britten version. I would be hard pressed to say which I prefer overall, but on first listening I sure loved this recording.
I don't think I have heard any performances more beautiful than this. I have no objections to the tempos, either. One possible weakness is how the soloists don't stand out in the sound-image; the soloists merge into the whole in this velvety production. It is very beautiful and elegant, but you might miss some excitement here. It works perfectly as background music, when you for example have invited somebody for a nice dinner; imagine the candlelight and the fireplace… But sometimes I prefer Leppard to Baumgartner on the Brandenburgs, more fresh and still reasonably elegant.
On sheer beauty nobody compares to Baumgartner and another wonderful thing about this 3CDs to a nice price tag is that the Orchestral Suites are included, and these seem to benefit even more of the treatment Baumgartner and his Festival Strings Lucerne give.

Musicians

Festival Strings Lucerne
Rudolf Baumgartner
- conductor

Track Listing

CD1

01 - Brandenburgisches Konzert Nr 1 F-dur 1 (ohne Satzbezeichnung)
02 - Brandenburgisches Konzert Nr 1 F-dur 2 Adagio
03 - Brandenburgisches Konzert Nr 1 F-dur 3 Allegro
04 - Brandenburgisches Konzert Nr 1 F-dur 4 Menuetto - Trio I - Polacca - Trio II
05 - Brandenburgisches Konzert Nr 2 F-dur 1 (ohne Satzbezeichnung)
06 - Brandenburgisches Konzert Nr 2 F-dur 2 Andante
07 - Brandenburgisches Konzert Nr 2 F-dur 3 Allegro assai
08 - Brandenburgisches Konzert Nr 3 G-dur 1 (ohne Satzbezeichnung)
09 - Brandenburgisches Konzert Nr 3 G-dur 2 Adagio
10 - Brandenburgisches Konzert Nr 3 G-dur 3 Allegro
11 - Brandenburgisches Konzert Nr 4 G-dur 1 Allegro
12 - Brandenburgisches Konzert Nr 4 G-dur 2 Adagio
13 - Brandenburgisches Konzert Nr 4 G-dur 3 Presto

J.S. Bach - Branderburg Concertos (1-6) and Orchestral Suites (1-4) (1990) {3CD Festival Strings Lucerne, Rudolf Baumgartner}


CD2
01 - Brandenburgisches Konzert Nr 5 D-dur 1 Allegro
02 - Brandenburgisches Konzert Nr 5 D-dur 2 Affettuoso
03 - Brandenburgisches Konzert Nr 5 D-dur 3 Allegro
04 - Brandenburgisches Konzert Nr 6 B-dur 1 ohne Bezeichnng
05 - Brandenburgisches Konzert Nr 6 B-dur 2 Adagio
06 - Brandenburgisches Konzert Nr 6 B-dur 3 Allegro
07 - Overture Nr 1 C-dur 1 Overture
08 - Overture Nr 1 C-dur 2 Courante
09 - Overture Nr 1 C-dur 3 Gavotte I & II
10 - Overture Nr 1 C-dur 4 Forlane
11 - Overture Nr 1 C-dur 5 Menuet I & II
12 - Overture Nr 1 C-dur 6 Bouree I & II
13 - Overture Nr 1 C-dur 7 Passepied I & II

J.S. Bach - Branderburg Concertos (1-6) and Orchestral Suites (1-4) (1990) {3CD Festival Strings Lucerne, Rudolf Baumgartner}


CD3
01 - Overture Nr 2 h-moll 1 Overture
02 - Overture Nr 2 h-moll 2 Rondeau
03 - Overture Nr 2 h-moll 3 Sarabande
04 - Overture Nr 2 h-moll 4 Bouree I & II
05 - Overture Nr 2 h-moll 5 Polonaise
06 - Overture Nr 2 h-moll 6 Menuet
07 - Overture Nr 2 h-moll 7 Badinerie
08 - Overture Nr 3 D-dur 1 Overture
09 - Overture Nr 3 D-dur 2 Air
10 - Overture Nr 3 D-dur 3 Gavotte I & II
11 - Overture Nr 3 D-dur 4 Bourree
12 - Overture Nr 3 D-dur 5 Gigue
13 - Overture Nr 4 D-dur 1 Overture
14 - Overture Nr 4 D-dur 2 Bourree I & II
15 - Overture Nr 4 D-dur 3 Gavotte
16 - Overture Nr 4 D-dur 4 Menuet
17 - Overture Nr 4 D-dur 5 Rejouissance

J.S. Bach - Branderburg Concertos (1-6) and Orchestral Suites (1-4) (1990) {3CD Festival Strings Lucerne, Rudolf Baumgartner}


X Lossless Decoder version 20141129a (148.2)

XLD extraction logfile from 2015-11-03 08:07:15 -0800

Festival Strings Lucerne / Brandenburg Concertos

Used drive : HL-DT-ST DVDRW GA32N (revision KE06)
Media type : Pressed CD

Ripper mode : XLD Secure Ripper
Disable audio cache : OK for the drive with a cache less than 1375KiB
Make use of C2 pointers : NO
Read offset correction : 103
Max retry count : 100
Gap status : Analyzed, Appended (except HTOA)

TOC of the extracted CD
Track | Start | Length | Start sector | End sector
––––––––––––––––––––––––––––-
1 | 00:00:00 | 04:45:53 | 0 | 21427
2 | 04:45:53 | 04:28:00 | 21428 | 41527
3 | 09:13:53 | 04:30:35 | 41528 | 61812
4 | 13:44:13 | 08:11:15 | 61813 | 98652
5 | 21:55:28 | 05:21:22 | 98653 | 122749
6 | 27:16:50 | 03:49:00 | 122750 | 139924
7 | 31:05:50 | 03:04:35 | 139925 | 153759
8 | 34:10:10 | 06:41:55 | 153760 | 183889
9 | 40:51:65 | 00:19:45 | 183890 | 185359
10 | 41:11:35 | 04:58:30 | 185360 | 207739
11 | 46:09:65 | 07:39:30 | 207740 | 242194
12 | 53:49:20 | 04:12:60 | 242195 | 261154
13 | 58:02:05 | 04:52:68 | 261155 | 283122

AccurateRip Summary (DiscID: 001e9178-012fd888-ba0ebe0d)
Track 01 : OK (v1+v2, confidence 9/9)
Track 02 : OK (v1+v2, confidence 9/9)
Track 03 : OK (v1+v2, confidence 9/9)
Track 04 : OK (v1+v2, confidence 9/9)
Track 05 : OK (v1+v2, confidence 9/9)
Track 06 : OK (v1+v2, confidence 9/9)
Track 07 : OK (v1+v2, confidence 9/9)
Track 08 : OK (v1+v2, confidence 9/9)
Track 09 : OK (v1+v2, confidence 9/9)
Track 10 : OK (v1+v2, confidence 9/9)
Track 11 : OK (v1+v2, confidence 9/9)
Track 12 : OK (v1+v2, confidence 9/9)
Track 13 : OK (v1+v2, confidence 9/9)
->All tracks accurately ripped.

All Tracks
Album gain : -2.10 dB
Peak : 0.960571
Statistics
Read error : 0
Jitter error (maybe fixed) : 0
Retry sector count : 0
Damaged sector count : 0

Track 01
Filename : /Volumes/HD5/ Prepping to upload/ Music/J.S. Bach - Branderberg Concertos (1-6) and Orchestral Suites (1-4) (1990) [FLAC] {Festival Strings Lucerne, 3cd set}/01 - Brandenburgisches Konzert Nr 1 F-dur 1 (ohne Satzbezeichnung).flac
Pre-gap length : 00:02:00

Track gain : -2.78 dB
Peak : 0.943176
CRC32 hash (test run) : 0DB9D3C8
CRC32 hash : 0DB9D3C8
CRC32 hash (skip zero) : C6CF5E89
AccurateRip v1 signature : 418B8065
AccurateRip v2 signature : FE9D02CE
->Accurately ripped (v1+v2, confidence 3+6/9)
Statistics
Read error : 0
Jitter error (maybe fixed) : 0
Retry sector count : 0
Damaged sector count : 0

Track 02
Filename : /Volumes/HD5/ Prepping to upload/ Music/J.S. Bach - Branderberg Concertos (1-6) and Orchestral Suites (1-4) (1990) [FLAC] {Festival Strings Lucerne, 3cd set}/02 - Brandenburgisches Konzert Nr 1 F-dur 2 Adagio.flac
Pre-gap length : 00:04:68

Track gain : 1.96 dB
Peak : 0.503723
CRC32 hash (test run) : FECBAC57
CRC32 hash : FECBAC57
CRC32 hash (skip zero) : 8D44DD2A
AccurateRip v1 signature : 619F6760
AccurateRip v2 signature : FC82BFE0
->Accurately ripped (v1+v2, confidence 3+6/9)
Statistics
Read error : 0
Jitter error (maybe fixed) : 0
Retry sector count : 0
Damaged sector count : 0

Track 03
Filename : /Volumes/HD5/ Prepping to upload/ Music/J.S. Bach - Branderberg Concertos (1-6) and Orchestral Suites (1-4) (1990) [FLAC] {Festival Strings Lucerne, 3cd set}/03 - Brandenburgisches Konzert Nr 1 F-dur 3 Allegro.flac

Track gain : -2.66 dB
Peak : 0.960571
CRC32 hash (test run) : 3229F264
CRC32 hash : 3229F264
CRC32 hash (skip zero) : 694C9E11
AccurateRip v1 signature : C0CD7EE9
AccurateRip v2 signature : EE7C8F96
->Accurately ripped (v1+v2, confidence 3+6/9)
Statistics
Read error : 0
Jitter error (maybe fixed) : 0
Retry sector count : 0
Damaged sector count : 0

Track 04
Filename : /Volumes/HD5/ Prepping to upload/ Music/J.S. Bach - Branderberg Concertos (1-6) and Orchestral Suites (1-4) (1990) [FLAC] {Festival Strings Lucerne, 3cd set}/04 - Brandenburgisches Konzert Nr 1 F-dur 4 Menuetto - Trio I - Polacca - Trio II.flac
Pre-gap length : 00:04:23

Track gain : -0.48 dB
Peak : 0.789398
CRC32 hash (test run) : 2F0EE860
CRC32 hash : 2F0EE860
CRC32 hash (skip zero) : DCDDFFEB
AccurateRip v1 signature : 59B62A43
AccurateRip v2 signature : 50F04C1D
->Accurately ripped (v1+v2, confidence 3+6/9)
Statistics
Read error : 0
Jitter error (maybe fixed) : 0
Retry sector count : 0
Damaged sector count : 0

Track 05
Filename : /Volumes/HD5/ Prepping to upload/ Music/J.S. Bach - Branderberg Concertos (1-6) and Orchestral Suites (1-4) (1990) [FLAC] {Festival Strings Lucerne, 3cd set}/05 - Brandenburgisches Konzert Nr 2 F-dur 1 (ohne Satzbezeichnung).flac
Pre-gap length : 00:09:18

Track gain : -4.11 dB
Peak : 0.922974
CRC32 hash (test run) : 5BF03934
CRC32 hash : 5BF03934
CRC32 hash (skip zero) : ADC6B513
AccurateRip v1 signature : BAED1FA5
AccurateRip v2 signature : A03F6CDD
->Accurately ripped (v1+v2, confidence 3+6/9)
Statistics
Read error : 0
Jitter error (maybe fixed) : 0
Retry sector count : 0
Damaged sector count : 0

Track 06
Filename : /Volumes/HD5/ Prepping to upload/ Music/J.S. Bach - Branderberg Concertos (1-6) and Orchestral Suites (1-4) (1990) [FLAC] {Festival Strings Lucerne, 3cd set}/06 - Brandenburgisches Konzert Nr 2 F-dur 2 Andante.flac
Pre-gap length : 00:04:22

Track gain : 2.35 dB
Peak : 0.521332
CRC32 hash (test run) : 2BC46255
CRC32 hash : 2BC46255
CRC32 hash (skip zero) : 287FE60B
AccurateRip v1 signature : AE5CEC52
AccurateRip v2 signature : 57753095
->Accurately ripped (v1+v2, confidence 3+6/9)
Statistics
Read error : 0
Jitter error (maybe fixed) : 0
Retry sector count : 0
Damaged sector count : 0

Track 07
Filename : /Volumes/HD5/ Prepping to upload/ Music/J.S. Bach - Branderberg Concertos (1-6) and Orchestral Suites (1-4) (1990) [FLAC] {Festival Strings Lucerne, 3cd set}/07 - Brandenburgisches Konzert Nr 2 F-dur 3 Allegro assai.flac
Pre-gap length : 00:00:52

Track gain : -4.61 dB
Peak : 0.941254
CRC32 hash (test run) : FFC4035F
CRC32 hash : FFC4035F
CRC32 hash (skip zero) : 9E1212AA
AccurateRip v1 signature : BFD1E62C
AccurateRip v2 signature : 979A095F
->Accurately ripped (v1+v2, confidence 3+6/9)
Statistics
Read error : 0
Jitter error (maybe fixed) : 0
Retry sector count : 0
Damaged sector count : 0

Track 08
Filename : /Volumes/HD5/ Prepping to upload/ Music/J.S. Bach - Branderberg Concertos (1-6) and Orchestral Suites (1-4) (1990) [FLAC] {Festival Strings Lucerne, 3cd set}/08 - Brandenburgisches Konzert Nr 3 G-dur 1 (ohne Satzbezeichnung).flac
Pre-gap length : 00:09:17

Track gain : 0.02 dB
Peak : 0.665161
CRC32 hash (test run) : 94A24626
CRC32 hash : 94A24626
CRC32 hash (skip zero) : 5F5F8913
AccurateRip v1 signature : B225FB5C
AccurateRip v2 signature : AF9949C7
->Accurately ripped (v1+v2, confidence 3+6/9)
Statistics
Read error : 0
Jitter error (maybe fixed) : 0
Retry sector count : 0
Damaged sector count : 0

Track 09
Filename : /Volumes/HD5/ Prepping to upload/ Music/J.S. Bach - Branderberg Concertos (1-6) and Orchestral Suites (1-4) (1990) [FLAC] {Festival Strings Lucerne, 3cd set}/09 - Brandenburgisches Konzert Nr 3 G-dur 2 Adagio.flac

Track gain : 11.73 dB
Peak : 0.149750
CRC32 hash (test run) : 7C43BAF5
CRC32 hash : 7C43BAF5
CRC32 hash (skip zero) : 8CB1D5AF
AccurateRip v1 signature : CB944DC6
AccurateRip v2 signature : 7CAE8E1D
->Accurately ripped (v1+v2, confidence 3+6/9)
Statistics
Read error : 0
Jitter error (maybe fixed) : 0
Retry sector count : 0
Damaged sector count : 0

Track 10
Filename : /Volumes/HD5/ Prepping to upload/ Music/J.S. Bach - Branderberg Concertos (1-6) and Orchestral Suites (1-4) (1990) [FLAC] {Festival Strings Lucerne, 3cd set}/10 - Brandenburgisches Konzert Nr 3 G-dur 3 Allegro.flac

Track gain : 0.64 dB
Peak : 0.591309
CRC32 hash (test run) : 6811F6DF
CRC32 hash : 6811F6DF
CRC32 hash (skip zero) : CAFFC224
AccurateRip v1 signature : 755C8F56
AccurateRip v2 signature : 956B2DFA
->Accurately ripped (v1+v2, confidence 3+6/9)
Statistics
Read error : 0
Jitter error (maybe fixed) : 0
Retry sector count : 0
Damaged sector count : 0

Track 11
Filename : /Volumes/HD5/ Prepping to upload/ Music/J.S. Bach - Branderberg Concertos (1-6) and Orchestral Suites (1-4) (1990) [FLAC] {Festival Strings Lucerne, 3cd set}/11 - Brandenburgisches Konzert Nr 4 G-dur 1 Allegro.flac
Pre-gap length : 00:09:30

Track gain : -1.94 dB
Peak : 0.906189
CRC32 hash (test run) : 33ED2B0C
CRC32 hash : 33ED2B0C
CRC32 hash (skip zero) : 623841CB
AccurateRip v1 signature : 84343297
AccurateRip v2 signature : 30165664
->Accurately ripped (v1+v2, confidence 3+6/9)
Statistics
Read error : 0
Jitter error (maybe fixed) : 0
Retry sector count : 0
Damaged sector count : 0

Track 12
Filename : /Volumes/HD5/ Prepping to upload/ Music/J.S. Bach - Branderberg Concertos (1-6) and Orchestral Suites (1-4) (1990) [FLAC] {Festival Strings Lucerne, 3cd set}/12 - Brandenburgisches Konzert Nr 4 G-dur 2 Adagio.flac
Pre-gap length : 00:05:20

Track gain : -1.08 dB
Peak : 0.712067
CRC32 hash (test run) : E214C5D0
CRC32 hash : E214C5D0
CRC32 hash (skip zero) : 609E41E7
AccurateRip v1 signature : 629C35C7
AccurateRip v2 signature : B81578DC
->Accurately ripped (v1+v2, confidence 3+6/9)
Statistics
Read error : 0
Jitter error (maybe fixed) : 0
Retry sector count : 0
Damaged sector count : 0

Track 13
Filename : /Volumes/HD5/ Prepping to upload/ Music/J.S. Bach - Branderberg Concertos (1-6) and Orchestral Suites (1-4) (1990) [FLAC] {Festival Strings Lucerne, 3cd set}/13 - Brandenburgisches Konzert Nr 4 G-dur 3 Presto.flac

Track gain : -2.92 dB
Peak : 0.875092
CRC32 hash (test run) : 36548634
CRC32 hash : 36548634
CRC32 hash (skip zero) : 1D32AF52
AccurateRip v1 signature : F6CDC68C
AccurateRip v2 signature : FA94849F
->Accurately ripped (v1+v2, confidence 3+6/9)
Statistics
Read error : 0
Jitter error (maybe fixed) : 0
Retry sector count : 0
Damaged sector count : 0

No errors occurred

End of status report

––-BEGIN XLD SIGNATURE––-
n4c.pW6Kdv9wuPuQKV44RAJFIDypP6YkcQdqkFagbRoNwz.w0wp457nkTTJQPzDJX71hdDxYlfPe153n_JS6Dy62EboqxZypYWHQWQO
––-END XLD SIGNATURE––-
X Lossless Decoder version 20141129a (148.2)

XLD extraction logfile from 2015-11-03 08:33:25 -0800

Festival Strings Lucerne / Brandenburg Concertos & Orchestral Suites - Baumgartner - Disc 2

Used drive : HL-DT-ST DVDRW GA32N (revision KE06)
Media type : Pressed CD

Ripper mode : XLD Secure Ripper
Disable audio cache : OK for the drive with a cache less than 1375KiB
Make use of C2 pointers : NO
Read offset correction : 103
Max retry count : 100
Gap status : Analyzed, Appended (except HTOA)

TOC of the extracted CD
Track | Start | Length | Start sector | End sector
––––––––––––––––––––––––––––-
1 | 00:00:00 | 10:11:63 | 0 | 45887
2 | 10:11:63 | 05:39:30 | 45888 | 71342
3 | 15:51:18 | 05:31:42 | 71343 | 96209
4 | 21:22:60 | 06:58:35 | 96210 | 127594
5 | 28:21:20 | 05:23:65 | 127595 | 151884
6 | 33:45:10 | 05:41:40 | 151885 | 177499
7 | 39:26:50 | 06:42:28 | 177500 | 207677
8 | 46:09:03 | 02:00:22 | 207678 | 216699
9 | 48:09:25 | 03:17:05 | 216700 | 231479
10 | 51:26:30 | 01:38:10 | 231480 | 238839
11 | 53:04:40 | 03:03:13 | 238840 | 252577
12 | 56:07:53 | 02:31:35 | 252578 | 263937
13 | 58:39:13 | 03:14:47 | 263938 | 278534

AccurateRip Summary (DiscID: 0024036a-0155c377-bf0e810d)
Track 01 : OK (v1+v2, confidence 8/8)
Track 02 : OK (v1+v2, confidence 8/8)
Track 03 : OK (v1+v2, confidence 8/8)
Track 04 : OK (v1+v2, confidence 8/8)
Track 05 : OK (v1+v2, confidence 8/8)
Track 06 : OK (v1+v2, confidence 8/8)
Track 07 : OK (v1+v2, confidence 7/7)
Track 08 : OK (v1+v2, confidence 7/7)
Track 09 : OK (v1+v2, confidence 7/7)
Track 10 : OK (v1+v2, confidence 7/7)
Track 11 : OK (v1+v2, confidence 7/7)
Track 12 : OK (v1+v2, confidence 7/7)
Track 13 : OK (v1+v2, confidence 7/7)
->All tracks accurately ripped.

All Tracks
Album gain : -1.24 dB
Peak : 0.938873
Statistics
Read error : 0
Jitter error (maybe fixed) : 0
Retry sector count : 0
Damaged sector count : 0

Track 01
Filename : /Volumes/HD5/ Prepping to upload/ Music/J.S. Bach - Branderberg Concertos (1-6) and Orchestral Suites (1-4) (1990) [FLAC] {Festival Strings Lucerne, 3cd set}/CD2/01 - Brandenburgisches Konzert Nr 5 D-dur 1 Allegro.flac
Pre-gap length : 00:02:00

Track gain : -1.34 dB
Peak : 0.938873
CRC32 hash (test run) : 46C0402B
CRC32 hash : 46C0402B
CRC32 hash (skip zero) : CE34B015
AccurateRip v1 signature : F809BF2E
AccurateRip v2 signature : 83186A32
->Accurately ripped (v1+v2, confidence 3+5/8)
Statistics
Read error : 0
Jitter error (maybe fixed) : 0
Retry sector count : 0
Damaged sector count : 0

Track 02
Filename : /Volumes/HD5/ Prepping to upload/ Music/J.S. Bach - Branderberg Concertos (1-6) and Orchestral Suites (1-4) (1990) [FLAC] {Festival Strings Lucerne, 3cd set}/CD2/02 - Brandenburgisches Konzert Nr 5 D-dur 2 Affettuoso.flac
Pre-gap length : 00:07:35

Track gain : 3.78 dB
Peak : 0.572021
CRC32 hash (test run) : 442AAA8E
CRC32 hash : 442AAA8E
CRC32 hash (skip zero) : FC545DD9
AccurateRip v1 signature : 978FFF42
AccurateRip v2 signature : 907A25C6
->Accurately ripped (v1+v2, confidence 3+5/8)
Statistics
Read error : 0
Jitter error (maybe fixed) : 0
Retry sector count : 0
Damaged sector count : 0

Track 03
Filename : /Volumes/HD5/ Prepping to upload/ Music/J.S. Bach - Branderberg Concertos (1-6) and Orchestral Suites (1-4) (1990) [FLAC] {Festival Strings Lucerne, 3cd set}/CD2/03 - Brandenburgisches Konzert Nr 5 D-dur 3 Allegro.flac
Pre-gap length : 00:05:65

Track gain : -0.61 dB
Peak : 0.818237
CRC32 hash (test run) : 0A5FBD97
CRC32 hash : 0A5FBD97
CRC32 hash (skip zero) : 8DB71141
AccurateRip v1 signature : 16ED2073
AccurateRip v2 signature : 3171E260
->Accurately ripped (v1+v2, confidence 3+5/8)
Statistics
Read error : 0
Jitter error (maybe fixed) : 0
Retry sector count : 0
Damaged sector count : 0

Track 04
Filename : /Volumes/HD5/ Prepping to upload/ Music/J.S. Bach - Branderberg Concertos (1-6) and Orchestral Suites (1-4) (1990) [FLAC] {Festival Strings Lucerne, 3cd set}/CD2/04 - Brandenburgisches Konzert Nr 6 B-dur 1 ohne Bezeichnng.flac
Pre-gap length : 00:09:45

Track gain : -1.77 dB
Peak : 0.789917
CRC32 hash (test run) : F5ADBC36
CRC32 hash : F5ADBC36
CRC32 hash (skip zero) : F1DEBB19
AccurateRip v1 signature : 630F798B
AccurateRip v2 signature : D4B8E155
->Accurately ripped (v1+v2, confidence 3+5/8)
Statistics
Read error : 0
Jitter error (maybe fixed) : 0
Retry sector count : 0
Damaged sector count : 0

Track 05
Filename : /Volumes/HD5/ Prepping to upload/ Music/J.S. Bach - Branderberg Concertos (1-6) and Orchestral Suites (1-4) (1990) [FLAC] {Festival Strings Lucerne, 3cd set}/CD2/05 - Brandenburgisches Konzert Nr 6 B-dur 2 Adagio.flac
Pre-gap length : 00:02:07

Track gain : 3.86 dB
Peak : 0.474609
CRC32 hash (test run) : 2F5BEA2D
CRC32 hash : 2F5BEA2D
CRC32 hash (skip zero) : 39D7B5AF
AccurateRip v1 signature : CC6EF226
AccurateRip v2 signature : A4FF3F7C
->Accurately ripped (v1+v2, confidence 3+5/8)
Statistics
Read error : 0
Jitter error (maybe fixed) : 0
Retry sector count : 0
Damaged sector count : 0

Track 06
Filename : /Volumes/HD5/ Prepping to upload/ Music/J.S. Bach - Branderberg Concertos (1-6) and Orchestral Suites (1-4) (1990) [FLAC] {Festival Strings Lucerne, 3cd set}/CD2/06 - Brandenburgisches Konzert Nr 6 B-dur 3 Allegro.flac

Track gain : -1.48 dB
Peak : 0.849792
CRC32 hash (test run) : 09C7D8CB
CRC32 hash : 09C7D8CB
CRC32 hash (skip zero) : F3F844A6
AccurateRip v1 signature : 71115C63
AccurateRip v2 signature : 4ED01FB6
->Accurately ripped (v1+v2, confidence 3+5/8)
Statistics
Read error : 0
Jitter error (maybe fixed) : 0
Retry sector count : 0
Damaged sector count : 0

Track 07
Filename : /Volumes/HD5/ Prepping to upload/ Music/J.S. Bach - Branderberg Concertos (1-6) and Orchestral Suites (1-4) (1990) [FLAC] {Festival Strings Lucerne, 3cd set}/CD2/07 - Overture Nr 1 C-dur 1 Overture.flac
Pre-gap length : 00:10:60

Track gain : -2.39 dB
Peak : 0.820007
CRC32 hash (test run) : 842E5A9F
CRC32 hash : 842E5A9F
CRC32 hash (skip zero) : C629F355
AccurateRip v1 signature : C7836C8D
AccurateRip v2 signature : 4F86142C
->Accurately ripped (v1+v2, confidence 2+5/7)
Statistics
Read error : 0
Jitter error (maybe fixed) : 0
Retry sector count : 0
Damaged sector count : 0

Track 08
Filename : /Volumes/HD5/ Prepping to upload/ Music/J.S. Bach - Branderberg Concertos (1-6) and Orchestral Suites (1-4) (1990) [FLAC] {Festival Strings Lucerne, 3cd set}/CD2/08 - Overture Nr 1 C-dur 2 Courante.flac
Pre-gap length : 00:03:03

Track gain : 0.38 dB
Peak : 0.607025
CRC32 hash (test run) : 78B3511F
CRC32 hash : 78B3511F
CRC32 hash (skip zero) : 049361D0
AccurateRip v1 signature : 5F6E76C2
AccurateRip v2 signature : BB1ACB7A
->Accurately ripped (v1+v2, confidence 2+5/7)
Statistics
Read error : 0
Jitter error (maybe fixed) : 0
Retry sector count : 0
Damaged sector count : 0

Track 09
Filename : /Volumes/HD5/ Prepping to upload/ Music/J.S. Bach - Branderberg Concertos (1-6) and Orchestral Suites (1-4) (1990) [FLAC] {Festival Strings Lucerne, 3cd set}/CD2/09 - Overture Nr 1 C-dur 3 Gavotte I & II.flac

Track gain : 0.96 dB
Peak : 0.728241
CRC32 hash (test run) : D8419896
CRC32 hash : D8419896
CRC32 hash (skip zero) : A44D1345
AccurateRip v1 signature : 9249FE69
AccurateRip v2 signature : 1F704A09
->Accurately ripped (v1+v2, confidence 2+5/7)
Statistics
Read error : 0
Jitter error (maybe fixed) : 0
Retry sector count : 0
Damaged sector count : 0

Track 10
Filename : /Volumes/HD5/ Prepping to upload/ Music/J.S. Bach - Branderberg Concertos (1-6) and Orchestral Suites (1-4) (1990) [FLAC] {Festival Strings Lucerne, 3cd set}/CD2/10 - Overture Nr 1 C-dur 4 Forlane.flac

Track gain : 0.78 dB
Peak : 0.574799
CRC32 hash (test run) : 0701968E
CRC32 hash : 0701968E
CRC32 hash (skip zero) : 35082E5A
AccurateRip v1 signature : 021E58DB
AccurateRip v2 signature : D97672B5
->Accurately ripped (v1+v2, confidence 2+5/7)
Statistics
Read error : 0
Jitter error (maybe fixed) : 0
Retry sector count : 0
Damaged sector count : 0

Track 11
Filename : /Volumes/HD5/ Prepping to upload/ Music/J.S. Bach - Branderberg Concertos (1-6) and Orchestral Suites (1-4) (1990) [FLAC] {Festival Strings Lucerne, 3cd set}/CD2/11 - Overture Nr 1 C-dur 5 Menuet I & II.flac
Pre-gap length : 00:01:07

Track gain : -1.43 dB
Peak : 0.750031
CRC32 hash (test run) : D03653F5
CRC32 hash : D03653F5
CRC32 hash (skip zero) : 822CBF06
AccurateRip v1 signature : EF293D88
AccurateRip v2 signature : 6A7E9B68
->Accurately ripped (v1+v2, confidence 2+5/7)
Statistics
Read error : 0
Jitter error (maybe fixed) : 0
Retry sector count : 0
Damaged sector count : 0

Track 12
Filename : /Volumes/HD5/ Prepping to upload/ Music/J.S. Bach - Branderberg Concertos (1-6) and Orchestral Suites (1-4) (1990) [FLAC] {Festival Strings Lucerne, 3cd set}/CD2/12 - Overture Nr 1 C-dur 6 Bouree I & II.flac

Track gain : -0.83 dB
Peak : 0.713684
CRC32 hash (test run) : 985E7119
CRC32 hash : 985E7119
CRC32 hash (skip zero) : ED019BF2
AccurateRip v1 signature : AC31986E
AccurateRip v2 signature : A1C734FD
->Accurately ripped (v1+v2, confidence 2+5/7)
Statistics
Read error : 0
Jitter error (maybe fixed) : 0
Retry sector count : 0
Damaged sector count : 0

Track 13
Filename : /Volumes/HD5/ Prepping to upload/ Music/J.S. Bach - Branderberg Concertos (1-6) and Orchestral Suites (1-4) (1990) [FLAC] {Festival Strings Lucerne, 3cd set}/CD2/13 - Overture Nr 1 C-dur 7 Passepied I & II.flac

Track gain : -3.03 dB
Peak : 0.870270
CRC32 hash (test run) : EBE1332A
CRC32 hash : EBE1332A
CRC32 hash (skip zero) : FA67BDC5
AccurateRip v1 signature : 6F31A4D7
AccurateRip v2 signature : A16952F4
->Accurately ripped (v1+v2, confidence 2+5/7)
Statistics
Read error : 0
Jitter error (maybe fixed) : 0
Retry sector count : 0
Damaged sector count : 0

No errors occurred

End of status report

––-BEGIN XLD SIGNATURE––-
8Ne36Da1RUH.EwePYxBjhUh5ClA6Vk1WeKCXQ84kF8yDY9PVYORSceX5_dl0MRqZfDq_5XTqWdbUTY6YA42L2ul_qrgFaWgdnTAiALm
––-END XLD SIGNATURE––-
X Lossless Decoder version 20141129a (148.2)

XLD extraction logfile from 2015-11-03 09:09:35 -0800

Festival Strings Lucerne / Orchestral Suites - Baumgartner - Disc 3

Used drive : HL-DT-ST DVDRW GA32N (revision KE06)
Media type : Pressed CD

Ripper mode : XLD Secure Ripper
Disable audio cache : OK for the drive with a cache less than 1375KiB
Make use of C2 pointers : NO
Read offset correction : 103
Max retry count : 100
Gap status : Analyzed, Appended (except HTOA)

TOC of the extracted CD
Track | Start | Length | Start sector | End sector
––––––––––––––––––––––––––––-
1 | 00:00:00 | 06:30:30 | 0 | 29279
2 | 06:30:30 | 01:45:50 | 29280 | 37204
3 | 08:16:05 | 03:02:38 | 37205 | 50892
4 | 11:18:43 | 01:58:20 | 50893 | 59762
5 | 13:16:63 | 03:16:65 | 59763 | 74527
6 | 16:33:53 | 01:20:10 | 74528 | 80537
7 | 17:53:63 | 01:34:25 | 80538 | 87612
8 | 19:28:13 | 07:44:57 | 87613 | 122469
9 | 27:12:70 | 04:02:00 | 122470 | 140619
10 | 31:14:70 | 04:37:58 | 140620 | 161452
11 | 35:52:53 | 01:17:60 | 161453 | 167287
12 | 37:10:38 | 03:10:50 | 167288 | 181587
13 | 40:21:13 | 08:32:02 | 181588 | 219989
14 | 48:53:15 | 02:51:70 | 219990 | 232884
15 | 51:45:10 | 02:05:50 | 232885 | 242309
16 | 53:50:60 | 04:02:33 | 242310 | 260492
17 | 57:53:18 | 02:26:55 | 260493 | 271497

List of alternate offset correction values
# | Absolute | Relative | Confidence
–––––––––––––––––––––
1 | 358 | 255 | 2

AccurateRip Summary (DiscID: 0024eebf-01d601b2-f70e2311)
Track 01 : OK (v1+v2, confidence 7/9)
Track 02 : OK (v1+v2, confidence 7/9)
Track 03 : OK (v1+v2, confidence 7/9)
Track 04 : OK (v1+v2, confidence 7/9)
Track 05 : OK (v1+v2, confidence 7/9)
Track 06 : OK (v1+v2, confidence 7/9)
Track 07 : OK (v1+v2, confidence 7/9)
Track 08 : OK (v1+v2, confidence 7/9)
Track 09 : OK (v1+v2, confidence 7/9)
Track 10 : OK (v1+v2, confidence 7/9)
Track 11 : OK (v1+v2, confidence 7/9)
Track 12 : OK (v1+v2, confidence 7/9)
Track 13 : OK (v1+v2, confidence 7/9)
Track 14 : OK (v1+v2, confidence 7/9)
Track 15 : OK (v1+v2, confidence 7/9)
Track 16 : OK (v1+v2, confidence 7/9)
Track 17 : OK (v1+v2, confidence 7/9)
->All tracks accurately ripped.

All Tracks
Album gain : 0.12 dB
Peak : 0.779846
Statistics
Read error : 0
Jitter error (maybe fixed) : 0
Retry sector count : 0
Damaged sector count : 0

Track 01
Filename : /Volumes/HD5/ Prepping to upload/ Music/J.S. Bach - Branderberg Concertos (1-6) and Orchestral Suites (1-4) (1990) [FLAC] {Festival Strings Lucerne, 3cd set}/CD3/01 - Overture Nr 2 h-moll 1 Overture.flac
Pre-gap length : 00:02:00

Track gain : 0.24 dB
Peak : 0.720337
CRC32 hash (test run) : 062CFA2D
CRC32 hash : 062CFA2D
CRC32 hash (skip zero) : 2DE6D3B0
AccurateRip v1 signature : B145AEDE
AccurateRip v2 signature : 26CC9BF6
->Accurately ripped (v1+v2, confidence 2+5/9)
Statistics
Read error : 0
Jitter error (maybe fixed) : 0
Retry sector count : 0
Damaged sector count : 0

Track 02
Filename : /Volumes/HD5/ Prepping to upload/ Music/J.S. Bach - Branderberg Concertos (1-6) and Orchestral Suites (1-4) (1990) [FLAC] {Festival Strings Lucerne, 3cd set}/CD3/02 - Overture Nr 2 h-moll 2 Rondeau.flac
Pre-gap length : 00:01:60

Track gain : 3.00 dB
Peak : 0.466156
CRC32 hash (test run) : D8C39C48
CRC32 hash : D8C39C48
CRC32 hash (skip zero) : 572F40CE
AccurateRip v1 signature : 7E4853BF
AccurateRip v2 signature : D2EFD0E8
->Accurately ripped (v1+v2, confidence 2+5/9)
Statistics
Read error : 0
Jitter error (maybe fixed) : 0
Retry sector count : 0
Damaged sector count : 0

Track 03
Filename : /Volumes/HD5/ Prepping to upload/ Music/J.S. Bach - Branderberg Concertos (1-6) and Orchestral Suites (1-4) (1990) [FLAC] {Festival Strings Lucerne, 3cd set}/CD3/03 - Overture Nr 2 h-moll 3 Sarabande.flac

Track gain : 2.46 dB
Peak : 0.585571
CRC32 hash (test run) : EBBB9C63
CRC32 hash : EBBB9C63
CRC32 hash (skip zero) : 717FEF34
AccurateRip v1 signature : 88699DCE
AccurateRip v2 signature : 26B4BD82
->Accurately ripped (v1+v2, confidence 2+5/9)
Statistics
Read error : 0
Jitter error (maybe fixed) : 0
Retry sector count : 0
Damaged sector count : 0

Track 04
Filename : /Volumes/HD5/ Prepping to upload/ Music/J.S. Bach - Branderberg Concertos (1-6) and Orchestral Suites (1-4) (1990) [FLAC] {Festival Strings Lucerne, 3cd set}/CD3/04 - Overture Nr 2 h-moll 4 Bouree I & II.flac

Track gain : 0.50 dB
Peak : 0.595490
CRC32 hash (test run) : A82707F4
CRC32 hash : A82707F4
CRC32 hash (skip zero) : 94C9873E
AccurateRip v1 signature : B25CC85C
AccurateRip v2 signature : FE51F90A
->Accurately ripped (v1+v2, confidence 2+5/9)
Statistics
Read error : 0
Jitter error (maybe fixed) : 0
Retry sector count : 0
Damaged sector count : 0

Track 05
Filename : /Volumes/HD5/ Prepping to upload/ Music/J.S. Bach - Branderberg Concertos (1-6) and Orchestral Suites (1-4) (1990) [FLAC] {Festival Strings Lucerne, 3cd set}/CD3/05 - Overture Nr 2 h-moll 5 Polonaise.flac
Pre-gap length : 00:01:20

Track gain : 1.04 dB
Peak : 0.607513
CRC32 hash (test run) : 54DCE61D
CRC32 hash : 54DCE61D
CRC32 hash (skip zero) : 02810517
AccurateRip v1 signature : 4112B9F7
AccurateRip v2 signature : 838088F9
->Accurately ripped (v1+v2, confidence 2+5/9)
Statistics
Read error : 0
Jitter error (maybe fixed) : 0
Retry sector count : 0
Damaged sector count : 0

Track 06
Filename : /Volumes/HD5/ Prepping to upload/ Music/J.S. Bach - Branderberg Concertos (1-6) and Orchestral Suites (1-4) (1990) [FLAC] {Festival Strings Lucerne, 3cd set}/CD3/06 - Overture Nr 2 h-moll 6 Menuet.flac

Track gain : 2.72 dB
Peak : 0.464355
CRC32 hash (test run) : 2EDCD71B
CRC32 hash : 2EDCD71B
CRC32 hash (skip zero) : 935C0B71
AccurateRip v1 signature : FAD91333
AccurateRip v2 signature : A6576703
->Accurately ripped (v1+v2, confidence 2+5/9)
Statistics
Read error : 0
Jitter error (maybe fixed) : 0
Retry sector count : 0
Damaged sector count : 0

Track 07
Filename : /Volumes/HD5/ Prepping to upload/ Music/J.S. Bach - Branderberg Concertos (1-6) and Orchestral Suites (1-4) (1990) [FLAC] {Festival Strings Lucerne, 3cd set}/CD3/07 - Overture Nr 2 h-moll 7 Badinerie.flac

Track gain : 2.87 dB
Peak : 0.490448
CRC32 hash (test run) : 2F76D0D4
CRC32 hash : 2F76D0D4
CRC32 hash (skip zero) : 1D148880
AccurateRip v1 signature : 4DB34932
AccurateRip v2 signature : 8B6AB9B0
->Accurately ripped (v1+v2, confidence 2+5/9)
Statistics
Read error : 0
Jitter error (maybe fixed) : 0
Retry sector count : 0
Damaged sector count : 0

Track 08
Filename : /Volumes/HD5/ Prepping to upload/ Music/J.S. Bach - Branderberg Concertos (1-6) and Orchestral Suites (1-4) (1990) [FLAC] {Festival Strings Lucerne, 3cd set}/CD3/08 - Overture Nr 3 D-dur 1 Overture.flac
Pre-gap length : 00:10:30

Track gain : -1.71 dB
Peak : 0.779846
CRC32 hash (test run) : 4902B476
CRC32 hash : 4902B476
CRC32 hash (skip zero) : A79B4916
AccurateRip v1 signature : B649C7D4
AccurateRip v2 signature : 8E972A59
->Accurately ripped (v1+v2, confidence 2+5/9)
Statistics
Read error : 0
Jitter error (maybe fixed) : 0
Retry sector count : 0
Damaged sector count : 0

Track 09
Filename : /Volumes/HD5/ Prepping to upload/ Music/J.S. Bach - Branderberg Concertos (1-6) and Orchestral Suites (1-4) (1990) [FLAC] {Festival Strings Lucerne, 3cd set}/CD3/09 - Overture Nr 3 D-dur 2 Air.flac
Pre-gap length : 00:05:10

Track gain : 5.54 dB
Peak : 0.384613
CRC32 hash (test run) : F3120C24
CRC32 hash : F3120C24
CRC32 hash (skip zero) : 26D7473C
AccurateRip v1 signature : 56E3BEA8
AccurateRip v2 signature : 2975FD60
->Accurately ripped (v1+v2, confidence 2+5/9)
Statistics
Read error : 0
Jitter error (maybe fixed) : 0
Retry sector count : 0
Damaged sector count : 0

Track 10
Filename : /Volumes/HD5/ Prepping to upload/ Music/J.S. Bach - Branderberg Concertos (1-6) and Orchestral Suites (1-4) (1990) [FLAC] {Festival Strings Lucerne, 3cd set}/CD3/10 - Overture Nr 3 D-dur 3 Gavotte I & II.flac
Pre-gap length : 00:03:20

Track gain : 1.09 dB
Peak : 0.586884
CRC32 hash (test run) : 14146F57
CRC32 hash : 14146F57
CRC32 hash (skip zero) : 2F729589
AccurateRip v1 signature : C6427AF2
AccurateRip v2 signature : 29D098DC
->Accurately ripped (v1+v2, confidence 2+5/9)
Statistics
Read error : 0
Jitter error (maybe fixed) : 0
Retry sector count : 0
Damaged sector count : 0

Track 11
Filename : /Volumes/HD5/ Prepping to upload/ Music/J.S. Bach - Branderberg Concertos (1-6) and Orchestral Suites (1-4) (1990) [FLAC] {Festival Strings Lucerne, 3cd set}/CD3/11 - Overture Nr 3 D-dur 4 Bourree.flac
Pre-gap length : 00:03:18

Track gain : 0.25 dB
Peak : 0.620819
CRC32 hash (test run) : 1ED03A64
CRC32 hash : 1ED03A64
CRC32 hash (skip zero) : 2FA970BC
AccurateRip v1 signature : EF69B2B3
AccurateRip v2 signature : A3C79542
->Accurately ripped (v1+v2, confidence 2+5/9)
Statistics
Read error : 0
Jitter error (maybe fixed) : 0
Retry sector count : 0
Damaged sector count : 0

Track 12
Filename : /Volumes/HD5/ Prepping to upload/ Music/J.S. Bach - Branderberg Concertos (1-6) and Orchestral Suites (1-4) (1990) [FLAC] {Festival Strings Lucerne, 3cd set}/CD3/12 - Overture Nr 3 D-dur 5 Gigue.flac

Track gain : -1.81 dB
Peak : 0.759735
CRC32 hash (test run) : 96FBBCBA
CRC32 hash : 96FBBCBA
CRC32 hash (skip zero) : F259EB6C
AccurateRip v1 signature : 0344A26A
AccurateRip v2 signature : 1F41B416
->Accurately ripped (v1+v2, confidence 2+5/9)
Statistics
Read error : 0
Jitter error (maybe fixed) : 0
Retry sector count : 0
Damaged sector count : 0

Track 13
Filename : /Volumes/HD5/ Prepping to upload/ Music/J.S. Bach - Branderberg Concertos (1-6) and Orchestral Suites (1-4) (1990) [FLAC] {Festival Strings Lucerne, 3cd set}/CD3/13 - Overture Nr 4 D-dur 1 Overture.flac
Pre-gap length : 00:09:40

Track gain : -0.83 dB
Peak : 0.719482
CRC32 hash (test run) : A11BAFE2
CRC32 hash : A11BAFE2
CRC32 hash (skip zero) : 88C591CD
AccurateRip v1 signature : A88CADBF
AccurateRip v2 signature : 3D88D0D4
->Accurately ripped (v1+v2, confidence 2+5/9)
Statistics
Read error : 0
Jitter error (maybe fixed) : 0
Retry sector count : 0
Damaged sector count : 0

Track 14
Filename : /Volumes/HD5/ Prepping to upload/ Music/J.S. Bach - Branderberg Concertos (1-6) and Orchestral Suites (1-4) (1990) [FLAC] {Festival Strings Lucerne, 3cd set}/CD3/14 - Overture Nr 4 D-dur 2 Bourree I & II.flac
Pre-gap length : 00:05:25

Track gain : 4.51 dB
Peak : 0.644928
CRC32 hash (test run) : 99351921
CRC32 hash : 99351921
CRC32 hash (skip zero) : 58DB83B5
AccurateRip v1 signature : F412C922
AccurateRip v2 signature : 2BE9A815
->Accurately ripped (v1+v2, confidence 2+5/9)
Statistics
Read error : 0
Jitter error (maybe fixed) : 0
Retry sector count : 0
Damaged sector count : 0

Track 15
Filename : /Volumes/HD5/ Prepping to upload/ Music/J.S. Bach - Branderberg Concertos (1-6) and Orchestral Suites (1-4) (1990) [FLAC] {Festival Strings Lucerne, 3cd set}/CD3/15 - Overture Nr 4 D-dur 3 Gavotte.flac

Track gain : -1.15 dB
Peak : 0.717316
CRC32 hash (test run) : 38410ED3
CRC32 hash : 38410ED3
CRC32 hash (skip zero) : 1FE7AC6A
AccurateRip v1 signature : DE814DD8
AccurateRip v2 signature : 2160428C
->Accurately ripped (v1+v2, confidence 2+5/9)
Statistics
Read error : 0
Jitter error (maybe fixed) : 0
Retry sector count : 0
Damaged sector count : 0

Track 16
Filename : /Volumes/HD5/ Prepping to upload/ Music/J.S. Bach - Branderberg Concertos (1-6) and Orchestral Suites (1-4) (1990) [FLAC] {Festival Strings Lucerne, 3cd set}/CD3/16 - Overture Nr 4 D-dur 4 Menuet.flac

Track gain : 3.49 dB
Peak : 0.480286
CRC32 hash (test run) : 6D7344E9
CRC32 hash : 6D7344E9
CRC32 hash (skip zero) : 52D4A563
AccurateRip v1 signature : B8D4BF74
AccurateRip v2 signature : 0BD36149
->Accurately ripped (v1+v2, confidence 2+5/9)
Statistics
Read error : 0
Jitter error (maybe fixed) : 0
Retry sector count : 0
Damaged sector count : 0

Track 17
Filename : /Volumes/HD5/ Prepping to upload/ Music/J.S. Bach - Branderberg Concertos (1-6) and Orchestral Suites (1-4) (1990) [FLAC] {Festival Strings Lucerne, 3cd set}/CD3/17 - Overture Nr 4 D-dur 5 Rejouissance.flac
Pre-gap length : 00:01:50

Track gain : -0.39 dB
Peak : 0.658661
CRC32 hash (test run) : 09388867
CRC32 hash : 09388867
CRC32 hash (skip zero) : D89279ED
AccurateRip v1 signature : 95673B25
AccurateRip v2 signature : F1EA7BDB
->Accurately ripped (v1+v2, confidence 2+5/9)
Statistics
Read error : 0
Jitter error (maybe fixed) : 0
Retry sector count : 0
Damaged sector count : 0

No errors occurred

End of status report

––-BEGIN XLD SIGNATURE––-
bpV32r3Xnpx_jq9nhilw34XndIOeUYw1w_8VabEuvo8Ny8Am25h51vNN62GHDolPelqENYNiZ19ASg8EWRsY9kTiF1.CpHTjfEpvuKC
––-END XLD SIGNATURE––-


J.S. Bach - Branderburg Concertos (1-6) and Orchestral Suites (1-4) (1990) {3CD Festival Strings Lucerne, Rudolf Baumgartner}



===