Subcategories

Bach - Cello Suites (Jean-Guihen Queyras) (2007)

Posted By: shamanicus
Bach - Cello Suites (Jean-Guihen Queyras) (2007)

Bach - Cello Suites (Jean-Guihen Queyras) (2007)
EAC Rip | FLAC (tracks+.cue, log) | Artwork., d.booklet | 573 mb | MP3 CBR 320kbps | RAR | 299 mb
Classical, Cello | Label: Harmonia Mundi / HMC901970.71

In a promotional DVD accompanying this release Jean-Guihen Queyras cites the abundance of excellent Bach Cello Suites cycles on the market as one reason he waited until 2007 to commit his interpretations to disc. Queyras needn't have worried, for his playing is never less than beautiful, eloquent, and thoroughly world-class. It fuses the most apparent characteristics distinguishing certain memorable editions: Schiff's shapely melodic parsing, Pergamenschikov's infectious feeling for the dance, Bylsma's period-performance innovations, and Tortelier's purity of tone.

Queyras possesses an all-encompassing, supple, and effortless technique equal to Truls Mørk's, yet he avoids the latter's arch and self-conscious tendencies. In fact, the array of colors and articulations Queyras obtains always bypass the instrument en route to the music. The Sixth Suite is a good example. Because the work's notoriously high-lying tessitura poses no problems for Queyras, he can sustain the Sarabande with whispering deliberation or, by contrast, make the Gavottes lighter and more bracing than usual. The latter also applies to the E-flat suite's Gigue and the C major's zesty Bourées. In Queyras' hands, each Suite's opening Prelude amounts to a master class in how to intelligently scale dynamics and inflect a basic pulse with a sense of proportion and controlled freedom, such as in the D minor Prelude's insidious build. An ideal church acoustic and Cécile Lenoir's sensitive engineering make Queyras' Bach all the more recommendable.
Jed Distler, ClassicsToday.com


Disc 1 (55:54)
01. Cello Suite No. 1 in G Major, BWV 1007: I. Prélude (02:17)
02. Cello Suite No. 1 in G Major, BWV 1007: II. Allemande (04:25)
03. Cello Suite No. 1 in G Major, BWV 1007: III. Courante (02:25)
04. Cello Suite No. 1 in G Major, BWV 1007: IV. Sarabande (02:30)
05. Cello Suite No. 1 in G Major, BWV 1007: V. Menuets I & II (03:05)
06. Cello Suite No. 1 in G Major, BWV 1007: VI. Gigue (01:38)
07. Cello Suite No. 2 in D Minor, BWV 1008: I. Prélude (03:36)
08. Cello Suite No. 2 in D Minor, BWV 1008: II. Allemande (03:55)
09. Cello Suite No. 2 in D Minor, BWV 1008: III. Courante (01:48)
10. Cello Suite No. 2 in D Minor, BWV 1008: IV. Sarabande (04:06)
11. Cello Suite No. 2 in D Minor, BWV 1008: V. Menuets I & II (03:00)
12. Cello Suite No. 2 in D Minor, BWV 1008: VI. Gigue (02:33)
13. Cello Suite No. 3 in C Major, BWV 1009: I. Prélude (03:10)
14. Cello Suite No. 3 in C Major, BWV 1009: II. Allemande (04:00)
15. Cello Suite No. 3 in C Major, BWV 1009: III. Courante (02:55)
16. Cello Suite No. 3 in C Major, BWV 1009: IV. Sarabane (03:56)
17. Cello Suite No. 3 in C Major, BWV 1009: V. Bourrées I & II (03:26)
18. Cello Suite No. 3 in C Major, BWV 1009: VI. Gigue (03:09)

Disc 2 (01:13:44)
01. Cello Suite No. 4 in E-Flat Major, BWV 1010: I. Prélude (03:57)
02. Cello Suite No. 4 in E-Flat Major, BWV 1010: II. Allemande (04:34)
03. Cello Suite No. 4 in E-Flat Major, BWV 1010: III. Courante (03:39)
04. Cello Suite No. 4 in E-Flat Major, BWV 1010: IV. Sarabande (03:47)
05. Cello Suite No. 4 in E-Flat Major, BWV 1010: V. Bourrées I & II (04:20)
06. Cello Suite No. 4 in E-Flat Major, BWV 1010: VI. Gigue (02:31)
07. Cello Suite No. 5 in C Minor, BWV 1011: I. Prélude (06:03)
08. Cello Suite No. 5 in C Minor, BWV 1011: II. Allemande (04:50)
09. Cello Suite No. 5 in C Minor, BWV 1011: III. Courante (02:05)
10. Cello Suite No. 5 in C Minor, BWV 1011: IV. Sarabande (03:20)
11. Cello Suite No. 5 in C Minor, BWV 1011: V. Gavottes I & II (04:59)
12. Cello Suite No. 5 in C Minor, BWV 1011: VI. Gigue (02:14)
13. Cello Suite No. 6 in D Major, BWV 1012: I. Prélude (04:27)
14. Cello Suite No. 6 in D Major, BWV 1012: II. Allemande (07:34)
15. Cello Suite No. 6 in D Major, BWV 1012: III. Courante (03:33)
16. Cello Suite No. 6 in D Major, BWV 1012: IV. Sarabande (04:30)
17. Cello Suite No. 6 in D. Major, BWV 1012: V. Gavottes I & II (03:20)
18. Cello Suite No. 6 in D Major, BWV 1012: VI. Gigue (04:01)

Total length: 02:09:38

Bach - Cello Suites (Jean-Guihen Queyras) (2007)


Composers: Johann Sebastian Bach ‎
Performers: Jean-Guihen Queyras


Exact Audio Copy V1.3 from 2. September 2016

EAC extraction logfile from 12. September 2017, 23:34

Jean-Guihen Queyras / Cello Suites [CD1]

Used drive : HL-DT-STDVDRAM GSA-H10N Adapter: 1 ID: 0

Read mode : Secure
Utilize accurate stream : Yes
Defeat audio cache : Yes
Make use of C2 pointers : No

Read offset correction : 667
Overread into Lead-In and Lead-Out : No
Fill up missing offset samples with silence : Yes
Delete leading and trailing silent blocks : No
Null samples used in CRC calculations : Yes
Used interface : Native Win32 interface for Win NT & 2000
Gap handling : Appended to previous track

Used output format : User Defined Encoder
Selected bitrate : 768 kBit/s
Quality : High
Add ID3 tag : No
Command line compressor : C:\Program Files (x86)\Exact Audio Copy\Flac\flac.exe
Additional command line options : -8 -V -T "ARTIST=%artist%" -T "TITLE=%title%" -T "ALBUM=%albumtitle%" -T "DATE=%year%" -T "TRACKNUMBER=%tracknr%" -T "GENRE=%genre%" -T "PERFORMER=%albuminterpret%" -T "COMPOSER=%composer%" %haslyrics%–tag-from-file=LYRICS="%lyricsfile%"%haslyrics% -T "ALBUMARTIST=%albumartist%" -T "DISCNUMBER=%cdnumber%" -T "TOTALDISCS=%totalcds%" -T "TOTALTRACKS=%numtracks%" -T "COMMENT=%comment%" %source% -o %dest%


TOC of the extracted CD

Track | Start | Length | Start sector | End sector
––––––––––––––––––––––––––––-
1 | 0:00.00 | 2:17.00 | 0 | 10274
2 | 2:17.00 | 4:25.36 | 10275 | 30185
3 | 6:42.36 | 2:25.14 | 30186 | 41074
4 | 9:07.50 | 2:30.05 | 41075 | 52329
5 | 11:37.55 | 3:05.65 | 52330 | 66269
6 | 14:43.45 | 1:38.60 | 66270 | 73679
7 | 16:22.30 | 3:36.06 | 73680 | 89885
8 | 19:58.36 | 3:55.20 | 89886 | 107530
9 | 23:53.56 | 1:48.48 | 107531 | 115678
10 | 25:42.29 | 4:06.55 | 115679 | 134183
11 | 29:49.09 | 3:00.14 | 134184 | 147697
12 | 32:49.23 | 2:33.21 | 147698 | 159193
13 | 35:22.44 | 3:10.13 | 159194 | 173456
14 | 38:32.57 | 4:00.26 | 173457 | 191482
15 | 42:33.08 | 2:55.47 | 191483 | 204654
16 | 45:28.55 | 3:56.31 | 204655 | 222385
17 | 49:25.11 | 3:26.73 | 222386 | 237908
18 | 52:52.09 | 3:09.61 | 237909 | 252144


Track 1

Filename E:\EAC\01 - Suite No. 1 in G Major BWV 1007 - I. Prelude.wav

Pre-gap length 0:00:02.00

Peak level 98.8 %
Extraction speed 2.3 X
Track quality 100.0 %
Test CRC F1FF3919
Copy CRC F1FF3919
Accurately ripped (confidence 34) [B9BBAEB1] (AR v2)
Copy OK

Track 2

Filename E:\EAC\02 - Suite No. 1 in G Major BWV 1007 - II. Allemande.wav

Peak level 98.8 %
Extraction speed 2.9 X
Track quality 100.0 %
Test CRC 610A7840
Copy CRC 610A7840
Accurately ripped (confidence 34) [2BD2B333] (AR v2)
Copy OK

Track 3

Filename E:\EAC\03 - Suite No. 1 in G Major BWV 1007 - III. Courante.wav

Peak level 98.8 %
Extraction speed 2.9 X
Track quality 100.0 %
Test CRC A48F2B1A
Copy CRC A48F2B1A
Accurately ripped (confidence 34) [0C84CB2B] (AR v2)
Copy OK

Track 4

Filename E:\EAC\04 - Suite No. 1 in G Major BWV 1007 - IV Sarabande.wav

Peak level 80.1 %
Extraction speed 2.5 X
Track quality 99.9 %
Test CRC 255D2A47
Copy CRC 255D2A47
Accurately ripped (confidence 34) [0DB457F6] (AR v2)
Copy OK

Track 5

Filename E:\EAC\05 - Suite No. 1 in G Major BWV 1007 - V. Menuets I & II.wav

Peak level 86.3 %
Extraction speed 3.2 X
Track quality 100.0 %
Test CRC 3F187BC5
Copy CRC 3F187BC5
Accurately ripped (confidence 34) [96F6E94A] (AR v2)
Copy OK

Track 6

Filename E:\EAC\06 - Suite No. 1 in G Major BWV 1007 - VI. Gigue.wav

Peak level 91.4 %
Extraction speed 2.9 X
Track quality 100.0 %
Test CRC 7EF20C59
Copy CRC 7EF20C59
Accurately ripped (confidence 34) [127A0272] (AR v2)
Copy OK

Track 7

Filename E:\EAC\07 - Suite No. 2 in D Minor BWV 1008 - I. Prelude.wav

Pre-gap length 0:00:08.00

Peak level 98.8 %
Extraction speed 3.6 X
Track quality 100.0 %
Test CRC 2225BA98
Copy CRC 2225BA98
Accurately ripped (confidence 34) [430E28DF] (AR v2)
Copy OK

Track 8

Filename E:\EAC\08 - Suite No. 2 in D Minor BWV 1008 - II. Allemande.wav

Peak level 98.8 %
Extraction speed 3.8 X
Track quality 100.0 %
Test CRC 7712ABD4
Copy CRC 7712ABD4
Accurately ripped (confidence 34) [433DCC32] (AR v2)
Copy OK

Track 9

Filename E:\EAC\09 - Suite No. 2 in D Minor BWV 1008 - III. Courante.wav

Peak level 84.8 %
Extraction speed 3.5 X
Track quality 100.0 %
Test CRC 6579B347
Copy CRC 6579B347
Accurately ripped (confidence 34) [DE918D0A] (AR v2)
Copy OK

Track 10

Filename E:\EAC\10 - Suite No. 2 in D Minor BWV 1008 - IV. Sarabande.wav

Peak level 75.0 %
Extraction speed 4.2 X
Track quality 100.0 %
Test CRC 12824D0E
Copy CRC 12824D0E
Accurately ripped (confidence 34) [139718C6] (AR v2)
Copy OK

Track 11

Filename E:\EAC\11 - Suite No. 2 in D Minor BWV 1008 - V. Menuets I & II.wav

Peak level 85.5 %
Extraction speed 4.0 X
Track quality 100.0 %
Test CRC 89938EBE
Copy CRC 89938EBE
Accurately ripped (confidence 34) [DA4757B8] (AR v2)
Copy OK

Track 12

Filename E:\EAC\12 - Suite No. 2 in D Minor BWV 1008 - VI. Gigue.wav

Peak level 96.8 %
Extraction speed 4.0 X
Track quality 100.0 %
Test CRC 81B83FCD
Copy CRC 81B83FCD
Accurately ripped (confidence 34) [554668AE] (AR v2)
Copy OK

Track 13

Filename E:\EAC\13 - Suite No. 3 in C Major BWV 1009 - I. Prelude.wav

Pre-gap length 0:00:08.00

Peak level 96.3 %
Extraction speed 4.3 X
Track quality 100.0 %
Test CRC 5026A480
Copy CRC 5026A480
Accurately ripped (confidence 34) [5F1D5776] (AR v2)
Copy OK

Track 14

Filename E:\EAC\14 - Suite No. 3 in C Major BWV 1009 - II. Allemande.wav

Peak level 87.3 %
Extraction speed 4.1 X
Track quality 99.9 %
Test CRC 93E9F63A
Copy CRC 93E9F63A
Accurately ripped (confidence 34) [69976E07] (AR v2)
Copy OK

Track 15

Filename E:\EAC\15 - Suite No. 3 in C Major BWV 1009 - III. Courante.wav

Peak level 98.8 %
Extraction speed 3.9 X
Track quality 99.9 %
Test CRC 53951FEB
Copy CRC 53951FEB
Accurately ripped (confidence 34) [85A59986] (AR v2)
Copy OK

Track 16

Filename E:\EAC\16 - Suite No. 3 in C Major BWV 1009 - IV. Sarabande.wav

Peak level 64.4 %
Extraction speed 5.0 X
Track quality 100.0 %
Test CRC F7C3412A
Copy CRC F7C3412A
Accurately ripped (confidence 34) [A8C4DC65] (AR v2)
Copy OK

Track 17

Filename E:\EAC\17 - Suite No. 3 in C Major BWV 1009 - V. Bourrees I & II.wav

Peak level 58.6 %
Extraction speed 5.0 X
Track quality 100.0 %
Test CRC D09085A7
Copy CRC D09085A7
Accurately ripped (confidence 33) [666A836C] (AR v2)
Copy OK

Track 18

Filename E:\EAC\18 - Suite No. 3 in C Major BWV 1009 - VI. Gigue.wav

Peak level 98.8 %
Extraction speed 5.1 X
Track quality 100.0 %
Test CRC FEB1CECD
Copy CRC FEB1CECD
Accurately ripped (confidence 33) [28C58D26] (AR v2)
Copy OK


All tracks accurately ripped

No errors occurred

End of status report

–– CUETools DB Plugin V2.1.6

[CTDB TOCID: lIc7dQIoRrcMNlpP.PYjYd0Dv8Y-] found
Submit result: lIc7dQIoRrcMNlpP.PYjYd0Dv8Y- has been confirmed
Track | CTDB Status
1 | (134/135) Accurately ripped
2 | (135/135) Accurately ripped
3 | (135/135) Accurately ripped
4 | (135/135) Accurately ripped
5 | (135/135) Accurately ripped
6 | (134/135) Accurately ripped
7 | (135/135) Accurately ripped
8 | (134/135) Accurately ripped
9 | (135/135) Accurately ripped
10 | (135/135) Accurately ripped
11 | (135/135) Accurately ripped
12 | (135/135) Accurately ripped
13 | (135/135) Accurately ripped
14 | (135/135) Accurately ripped
15 | (135/135) Accurately ripped
16 | (135/135) Accurately ripped
17 | (134/135) Accurately ripped
18 | (135/135) Accurately ripped


==== Log checksum 7847FABB3298899E7BBF17AF8069FA80E5357B1F1D34F9E204E3831E04AF861A ====

Exact Audio Copy V1.3 from 2. September 2016

EAC extraction logfile from 13. September 2017, 0:31

Jean-Guihen Queyras / Cello Suites [CD2]

Used drive : HL-DT-STDVDRAM GSA-H10N Adapter: 1 ID: 0

Read mode : Secure
Utilize accurate stream : Yes
Defeat audio cache : Yes
Make use of C2 pointers : No

Read offset correction : 667
Overread into Lead-In and Lead-Out : No
Fill up missing offset samples with silence : Yes
Delete leading and trailing silent blocks : No
Null samples used in CRC calculations : Yes
Used interface : Native Win32 interface for Win NT & 2000
Gap handling : Appended to previous track

Used output format : User Defined Encoder
Selected bitrate : 768 kBit/s
Quality : High
Add ID3 tag : No
Command line compressor : C:\Program Files (x86)\Exact Audio Copy\Flac\flac.exe
Additional command line options : -8 -V -T "ARTIST=%artist%" -T "TITLE=%title%" -T "ALBUM=%albumtitle%" -T "DATE=%year%" -T "TRACKNUMBER=%tracknr%" -T "GENRE=%genre%" -T "PERFORMER=%albuminterpret%" -T "COMPOSER=%composer%" %haslyrics%–tag-from-file=LYRICS="%lyricsfile%"%haslyrics% -T "ALBUMARTIST=%albumartist%" -T "DISCNUMBER=%cdnumber%" -T "TOTALDISCS=%totalcds%" -T "TOTALTRACKS=%numtracks%" -T "COMMENT=%comment%" %source% -o %dest%


TOC of the extracted CD

Track | Start | Length | Start sector | End sector
––––––––––––––––––––––––––––-
1 | 0:00.00 | 3:57.22 | 0 | 17796
2 | 3:57.22 | 4:34.57 | 17797 | 38403
3 | 8:32.04 | 3:39.35 | 38404 | 54863
4 | 12:11.39 | 3:47.43 | 54864 | 71931
5 | 15:59.07 | 4:20.33 | 71932 | 91464
6 | 20:19.40 | 2:31.13 | 91465 | 102802
7 | 22:50.53 | 6:03.26 | 102803 | 130053
8 | 28:54.04 | 4:50.67 | 130054 | 151870
9 | 33:44.71 | 2:05.55 | 151871 | 161300
10 | 35:50.51 | 3:20.30 | 161301 | 176330
11 | 39:11.06 | 4:59.27 | 176331 | 198782
12 | 44:10.33 | 2:14.42 | 198783 | 208874
13 | 46:25.00 | 4:27.65 | 208875 | 228964
14 | 50:52.65 | 7:34.27 | 228965 | 263041
15 | 58:27.17 | 3:33.17 | 263042 | 279033
16 | 62:00.34 | 4:30.54 | 279034 | 299337
17 | 66:31.13 | 3:20.14 | 299338 | 314351
18 | 69:51.27 | 4:01.32 | 314352 | 332458


Track 1

Filename E:\EAC\01 - Suite No. 4 in E Flat Major BWV 1010 - I. Prelude.wav

Pre-gap length 0:00:02.00

Peak level 98.8 %
Extraction speed 2.5 X
Track quality 100.0 %
Test CRC 18D733CC
Copy CRC 18D733CC
Accurately ripped (confidence 105) [6AFB7F85] (AR v2)
Copy OK

Track 2

Filename E:\EAC\02 - Suite No. 4 in E Flat Major BWV 1010 - II. Allemande.wav

Peak level 70.0 %
Extraction speed 2.9 X
Track quality 100.0 %
Test CRC F2E7FBAF
Copy CRC F2E7FBAF
Accurately ripped (confidence 105) [9F5DFA49] (AR v2)
Copy OK

Track 3

Filename E:\EAC\03 - Suite No. 4 in E Flat Major BWV 1010 - III. Courante.wav

Peak level 98.8 %
Extraction speed 2.5 X
Track quality 99.9 %
Test CRC 9DCB9DDB
Copy CRC 9DCB9DDB
Accurately ripped (confidence 105) [D78055EB] (AR v2)
Copy OK

Track 4

Filename E:\EAC\04 - Suite No. 4 in E Flat Major BWV 1010 - IV. Sarabande.wav

Peak level 75.9 %
Extraction speed 3.4 X
Track quality 100.0 %
Test CRC ADEB1FC9
Copy CRC ADEB1FC9
Accurately ripped (confidence 105) [4444DBF3] (AR v2)
Copy OK

Track 5

Filename E:\EAC\05 - Suite No. 4 in E Flat Major BWV 1010 - V. Bourrees I & II.wav

Peak level 98.8 %
Extraction speed 3.6 X
Track quality 100.0 %
Test CRC 7BC72CF8
Copy CRC 7BC72CF8
Accurately ripped (confidence 104) [505254A8] (AR v2)
Copy OK

Track 6

Filename E:\EAC\06 - Suite No. 4 in E Flat Major BWV 1010 - VI. Gigue.wav

Peak level 75.2 %
Extraction speed 3.5 X
Track quality 100.0 %
Test CRC E5CBF2CD
Copy CRC E5CBF2CD
Accurately ripped (confidence 105) [029C9359] (AR v2)
Copy OK

Track 7

Filename E:\EAC\07 - Suite No. 5 in C Minor BWV 1011 - I. Prelude.wav

Pre-gap length 0:00:08.00

Peak level 98.8 %
Extraction speed 4.1 X
Track quality 100.0 %
Test CRC 6182BB32
Copy CRC 6182BB32
Accurately ripped (confidence 105) [296EFFCB] (AR v2)
Copy OK

Track 8

Filename E:\EAC\08 - Suite No. 5 in C Minor BWV 1011 - II. Allemande.wav

Peak level 80.6 %
Extraction speed 4.3 X
Track quality 100.0 %
Test CRC 5B72EF9E
Copy CRC 5B72EF9E
Accurately ripped (confidence 105) [7E784C60] (AR v2)
Copy OK

Track 9

Filename E:\EAC\09 - Suite No. 5 in C Minor BWV 1011 - III. Courante.wav

Peak level 98.8 %
Extraction speed 3.7 X
Track quality 100.0 %
Test CRC 3E70A3AA
Copy CRC 3E70A3AA
Accurately ripped (confidence 105) [98F6F17F] (AR v2)
Copy OK

Track 10

Filename E:\EAC\10 - Suite No. 5 in C Minor BWV 1011 - IV. Sarabande.wav

Peak level 54.1 %
Extraction speed 4.1 X
Track quality 100.0 %
Test CRC 9C44F75F
Copy CRC 9C44F75F
Accurately ripped (confidence 105) [1052BDF7] (AR v2)
Copy OK

Track 11

Filename E:\EAC\11 - Suite No. 5 in C Minor BWV 1011 - V. Gavottes I & II.wav

Peak level 91.2 %
Extraction speed 4.5 X
Track quality 100.0 %
Test CRC 712DE0CF
Copy CRC 712DE0CF
Accurately ripped (confidence 105) [5A811561] (AR v2)
Copy OK

Track 12

Filename E:\EAC\12 - Suite No. 5 in C Minor BWV 1011 - VI. Gigue.wav

Peak level 84.4 %
Extraction speed 4.2 X
Track quality 100.0 %
Test CRC 86AF1309
Copy CRC 86AF1309
Accurately ripped (confidence 105) [59E8C220] (AR v2)
Copy OK

Track 13

Filename E:\EAC\13 - Suite No. 6 in D Major BWV 1012 - I. Prelude.wav

Pre-gap length 0:00:08.00

Peak level 98.8 %
Extraction speed 4.7 X
Track quality 100.0 %
Test CRC 649DD486
Copy CRC 649DD486
Accurately ripped (confidence 105) [E20E83E3] (AR v2)
Copy OK

Track 14

Filename E:\EAC\14 - Suite No. 6 in D Major BWV 1012 - II. Allemande.wav

Peak level 98.8 %
Extraction speed 5.2 X
Track quality 100.0 %
Test CRC BEA2F350
Copy CRC BEA2F350
Accurately ripped (confidence 105) [F3D71021] (AR v2)
Copy OK

Track 15

Filename E:\EAC\15 - Suite No. 6 in D Major BWV 1012 - III. Courante.wav

Peak level 98.8 %
Extraction speed 4.8 X
Track quality 100.0 %
Test CRC 35E7FF6D
Copy CRC 35E7FF6D
Accurately ripped (confidence 105) [B9C73933] (AR v2)
Copy OK

Track 16

Filename E:\EAC\16 - Suite No. 6 in D Major BWV 1012 - IV. Sarabande.wav

Peak level 98.8 %
Extraction speed 5.3 X
Track quality 100.0 %
Test CRC 8B9CEEE7
Copy CRC 8B9CEEE7
Accurately ripped (confidence 104) [0A308688] (AR v2)
Copy OK

Track 17

Filename E:\EAC\17 - Suite No. 6 in D Major BWV 1012 - V. Gavottes I & II.wav

Peak level 98.8 %
Extraction speed 3.7 X
Track quality 99.9 %
Test CRC 379FC1D6
Copy CRC 379FC1D6
Accurately ripped (confidence 104) [0E831FDF] (AR v2)
Copy OK

Track 18

Filename E:\EAC\18 - Suite No. 6 in D Major BWV 1012 - VI. Gigue.wav

Peak level 98.8 %
Extraction speed 5.7 X
Track quality 100.0 %
Test CRC 94F30DC6
Copy CRC 94F30DC6
Accurately ripped (confidence 101) [A5C73E49] (AR v2)
Copy OK


All tracks accurately ripped

No errors occurred

End of status report

–– CUETools DB Plugin V2.1.6

[CTDB TOCID: wgHrLl9y_SZKHQ0j70Vtul05gE0-] found
Submit result: wgHrLl9y_SZKHQ0j70Vtul05gE0- has been confirmed
Track | CTDB Status
1 | (127/128) Accurately ripped
2 | (127/128) Accurately ripped
3 | (128/128) Accurately ripped
4 | (128/128) Accurately ripped
5 | (128/128) Accurately ripped
6 | (128/128) Accurately ripped
7 | (128/128) Accurately ripped
8 | (128/128) Accurately ripped
9 | (128/128) Accurately ripped
10 | (128/128) Accurately ripped
11 | (128/128) Accurately ripped
12 | (128/128) Accurately ripped
13 | (128/128) Accurately ripped
14 | (128/128) Accurately ripped
15 | (127/128) Accurately ripped
16 | (128/128) Accurately ripped
17 | (127/128) Accurately ripped
18 | (127/128) Accurately ripped


==== Log checksum 61547D853E66D34154F925AD77410D4F70C873F0D481A9A1D978882FBF58CB67 ====


Thanks to the Original customer.