Subcategories

J.S. Bach - The English Suites - Carole Cerasi (2007) {2CD Set Metronome METCD 1078}

Posted By: ruskaval
J.S. Bach - The English Suites - Carole Cerasi (2007) {2CD Set Metronome METCD 1078}

J.S. Bach - The English Suites - Carole Cerasi (2007) {2CD Set Metronome METCD 1078}
XLD rip (secure mode) | FLAC (tracks)+CUE+LOG -> 977 Mb | MP3 @320 -> 338 Mb
Full Artwork @ 300 dpi (jpg) -> 17 Mb | 5% repair rar
© 2007 Metronome Recordings | MET CD 1078
Classical / Baroque / Period Instruments / Harpsichord

Recorded on a harpsichord by François-Etienne Blanchet II (Paris, 1757), restored and enlarged by Pascal Taskin (Paris, 1778), loaned by Kenneth Gilbert and recorded in the Musée des Beaux Arts, Chartres.

From the rarified and somewhat recherché music of Blasco de Nebra, Carole Cerasi turns her focus on a masterpiece of the repertoire for keyboards with this new recording of the English Suites.

The English Suites are the earliest of Bach’s three major collections of keyboard Suites. They were written in Weimar between 1708 and 1717 and are considerably more technically demanding than anything that had been written for harpsichord before in Germany.
It is not known exactly why they are called “English”: a copy once in the possession of the composer's son J.C.Bach – the London Bach is headed “pour les Anglois” -, but a more likely explanation is that they follow a suite form established by the composer Dieupart, who settled in London in 1700, and thus known to Bach as English.
J.S. Bach - The English Suites - Carole Cerasi (2007) {2CD Set Metronome METCD 1078}


musicweb-international.com INFO

Performer

Carole Cerasi (harpsichord, Blanchet-Taskin, 1757-1778)
rec. February, April 2005, Musée des Beaux-Arts, Chartres, France. DDD

Works on This Recording

Johann Sebastian BACH (1685-1750)
English Suites (BWV 806-811)
CD 1
Suite No. 1 in A (BWV 806) [27:56]
Suite No. 2 in a minor (BWV 807) [21:43]
Suite No. 3 in g minor (BWV 808) [20:11]
CD 2
Suite No. 4 in F (BWV 809) [21:25]
Suite No. 5 in e minor (BWV 810) [20:57]
Suite No. 6 in d minor (BWV 811) [28:10]

X Lossless Decoder version 20181019 (151.1)

XLD extraction logfile from 2018-12-22 19:21:39 +0100

Carole Cerasi / Bach (J-S) - English suites (CD1)

Used drive : MATSHITA BD-MLT UJ260AF (revision 1.00)
Media type : Pressed CD

Ripper mode : XLD Secure Ripper
Disable audio cache : OK for the drive with a cache less than 1375KiB
Make use of C2 pointers : NO
Read offset correction : 103
Max retry count : 20
Gap status : Analyzed, Appended (except HTOA)

TOC of the extracted CD
Track | Start | Length | Start sector | End sector
––––––––––––––––––––––––––––-
1 | 00:00:00 | 02:37:18 | 0 | 11792
2 | 02:37:18 | 05:12:14 | 11793 | 35206
3 | 07:49:32 | 01:53:21 | 35207 | 43702
4 | 09:42:53 | 06:06:33 | 43703 | 71185
5 | 15:49:11 | 04:30:61 | 71186 | 91496
6 | 20:19:72 | 04:12:38 | 91497 | 110434
7 | 24:32:35 | 03:01:22 | 110435 | 124031
8 | 27:33:57 | 04:36:45 | 124032 | 144776
9 | 32:10:27 | 04:35:43 | 144777 | 165444
10 | 36:45:70 | 01:48:68 | 165445 | 173612
11 | 38:34:63 | 04:02:59 | 173613 | 191821
12 | 42:37:47 | 04:07:50 | 191822 | 210396
13 | 46:45:22 | 03:35:58 | 210397 | 226579
14 | 50:21:05 | 03:05:71 | 226580 | 240525
15 | 53:27:01 | 04:23:66 | 240526 | 260316
16 | 57:50:67 | 02:28:09 | 260317 | 271425
17 | 60:19:01 | 03:32:40 | 271426 | 287365
18 | 63:51:41 | 03:15:00 | 287366 | 301990
19 | 67:06:41 | 03:09:11 | 301991 | 316176

AccurateRip Summary (DiscID: 003205d2-02b8e52d-02107713)
Track 01 : OK (v1, confidence 2/2)
Track 02 : OK (v1, confidence 2/2)
Track 03 : OK (v1, confidence 2/2)
Track 04 : OK (v1, confidence 2/2)
Track 05 : OK (v1, confidence 2/2)
Track 06 : OK (v1, confidence 2/2)
Track 07 : OK (v1, confidence 2/2)
Track 08 : OK (v1, confidence 2/2)
Track 09 : OK (v1+v2, confidence 2/3)
Track 10 : OK (v1, confidence 2/2)
Track 11 : OK (v1, confidence 2/2)
Track 12 : OK (v1, confidence 2/2)
Track 13 : OK (v1, confidence 2/2)
Track 14 : OK (v1, confidence 2/2)
Track 15 : OK (v1, confidence 2/2)
Track 16 : OK (v1, confidence 2/2)
Track 17 : OK (v1, confidence 2/2)
Track 18 : OK (v1, confidence 2/2)
Track 19 : OK (v1, confidence 2/2)
->All tracks accurately ripped.

All Tracks
Statistics
Read error : 0
Jitter error (maybe fixed) : 0
Retry sector count : 0
Damaged sector count : 0

Track 01
Filename : /Volumes/Intenso 5to/01 Suite 1 in A BWV 806 - Prélude.flac
Pre-gap length : 00:02:00

CRC32 hash (test run) : AAEEB57A
CRC32 hash : AAEEB57A
CRC32 hash (skip zero) : F7B864AB
AccurateRip v1 signature : 2D44FE9A
AccurateRip v2 signature : CE755EFD
->Accurately ripped (v1, confidence 2/2)
Statistics
Read error : 0
Jitter error (maybe fixed) : 0
Retry sector count : 0
Damaged sector count : 0

Track 02
Filename : /Volumes/Intenso 5to/02 Suite 1 in A BWV 806 - Allemande.flac

CRC32 hash (test run) : A56FAC52
CRC32 hash : A56FAC52
CRC32 hash (skip zero) : 30ECF0DC
AccurateRip v1 signature : BB046DA8
AccurateRip v2 signature : 41D41CFD
->Accurately ripped (v1, confidence 2/2)
Statistics
Read error : 0
Jitter error (maybe fixed) : 0
Retry sector count : 0
Damaged sector count : 0

Track 03
Filename : /Volumes/Intenso 5to/03 Suite 1 in A BWV 806 - Courante I.flac

CRC32 hash (test run) : 79D87C91
CRC32 hash : 79D87C91
CRC32 hash (skip zero) : 869A0912
AccurateRip v1 signature : 7B961A9A
AccurateRip v2 signature : 04E032B4
->Accurately ripped (v1, confidence 2/2)
Statistics
Read error : 0
Jitter error (maybe fixed) : 0
Retry sector count : 0
Damaged sector count : 0

Track 04
Filename : /Volumes/Intenso 5to/04 Suite 1 in A BWV 806 - Courante II & doubles.flac

CRC32 hash (test run) : 978CA671
CRC32 hash : 978CA671
CRC32 hash (skip zero) : 95D24E10
AccurateRip v1 signature : 60B06649
AccurateRip v2 signature : 2333A197
->Accurately ripped (v1, confidence 2/2)
Statistics
Read error : 0
Jitter error (maybe fixed) : 0
Retry sector count : 0
Damaged sector count : 0

Track 05
Filename : /Volumes/Intenso 5to/05 Suite 1 in A BWV 806 - Sarabande.flac

CRC32 hash (test run) : 242DECEE
CRC32 hash : 242DECEE
CRC32 hash (skip zero) : C14A2C3E
AccurateRip v1 signature : 4CEF85D9
AccurateRip v2 signature : 750D8EE0
->Accurately ripped (v1, confidence 2/2)
Statistics
Read error : 0
Jitter error (maybe fixed) : 0
Retry sector count : 0
Damaged sector count : 0

Track 06
Filename : /Volumes/Intenso 5to/06 Suite 1 in A BWV 806 - Bourrées 1 & 2.flac

CRC32 hash (test run) : 8D360397
CRC32 hash : 8D360397
CRC32 hash (skip zero) : FADFBFBE
AccurateRip v1 signature : 89933B98
AccurateRip v2 signature : 830E7D73
->Accurately ripped (v1, confidence 2/2)
Statistics
Read error : 0
Jitter error (maybe fixed) : 0
Retry sector count : 0
Damaged sector count : 0

Track 07
Filename : /Volumes/Intenso 5to/07 Suite 1 in A BWV 806 - Gigue.flac

CRC32 hash (test run) : B224DDBF
CRC32 hash : B224DDBF
CRC32 hash (skip zero) : 3F6FA9F8
AccurateRip v1 signature : 03315407
AccurateRip v2 signature : 622187D6
->Accurately ripped (v1, confidence 2/2)
Statistics
Read error : 0
Jitter error (maybe fixed) : 0
Retry sector count : 0
Damaged sector count : 0

Track 08
Filename : /Volumes/Intenso 5to/08 Suite 2 in a BWV 807 - Prélude.flac

CRC32 hash (test run) : 9259FA9D
CRC32 hash : 9259FA9D
CRC32 hash (skip zero) : B2D746F1
AccurateRip v1 signature : 7F0F3270
AccurateRip v2 signature : 339A7FFD
->Accurately ripped (v1, confidence 2/2)
Statistics
Read error : 0
Jitter error (maybe fixed) : 0
Retry sector count : 0
Damaged sector count : 0

Track 09
Filename : /Volumes/Intenso 5to/09 Suite 2 in a BWV 807 - Allemande.flac

CRC32 hash (test run) : BBCC10A8
CRC32 hash : BBCC10A8
CRC32 hash (skip zero) : D75F8AD5
AccurateRip v1 signature : 9257FAD4
AccurateRip v2 signature : 1CE5F05A
->Accurately ripped (v1+v2, confidence 1+1/3)
Statistics
Read error : 0
Jitter error (maybe fixed) : 0
Retry sector count : 0
Damaged sector count : 0

Track 10
Filename : /Volumes/Intenso 5to/10 Suite 2 in a BWV 807 - Courante.flac

CRC32 hash (test run) : 2249D69C
CRC32 hash : 2249D69C
CRC32 hash (skip zero) : 2F743907
AccurateRip v1 signature : 4741EA61
AccurateRip v2 signature : 2A0D3CE4
->Accurately ripped (v1, confidence 2/2)
Statistics
Read error : 0
Jitter error (maybe fixed) : 0
Retry sector count : 0
Damaged sector count : 0

Track 11
Filename : /Volumes/Intenso 5to/11 Suite 2 in a BWV 807 - Sarabande.flac

CRC32 hash (test run) : 7BEB1E00
CRC32 hash : 7BEB1E00
CRC32 hash (skip zero) : D8598331
AccurateRip v1 signature : 8207A652
AccurateRip v2 signature : A46B6BC6
->Accurately ripped (v1, confidence 2/2)
Statistics
Read error : 0
Jitter error (maybe fixed) : 0
Retry sector count : 0
Damaged sector count : 0

Track 12
Filename : /Volumes/Intenso 5to/12 Suite 2 in a BWV 807 - Bourrées 1 & 2.flac

CRC32 hash (test run) : 555B95CD
CRC32 hash : 555B95CD
CRC32 hash (skip zero) : CA2C1728
AccurateRip v1 signature : DC5A103B
AccurateRip v2 signature : 1F645BC5
->Accurately ripped (v1, confidence 2/2)
Statistics
Read error : 0
Jitter error (maybe fixed) : 0
Retry sector count : 0
Damaged sector count : 0

Track 13
Filename : /Volumes/Intenso 5to/13 Suite 2 in a BWV 807 - Gigue.flac

CRC32 hash (test run) : C6B5497E
CRC32 hash : C6B5497E
CRC32 hash (skip zero) : EEFB3C1D
AccurateRip v1 signature : B4779FE3
AccurateRip v2 signature : 0CD8C5EB
->Accurately ripped (v1, confidence 2/2)
Statistics
Read error : 0
Jitter error (maybe fixed) : 0
Retry sector count : 0
Damaged sector count : 0

Track 14
Filename : /Volumes/Intenso 5to/14 Suite 3 in g BWV 808 - Prélude.flac

CRC32 hash (test run) : 6721203B
CRC32 hash : 6721203B
CRC32 hash (skip zero) : 3F507E44
AccurateRip v1 signature : F3EBDD9B
AccurateRip v2 signature : C84D7779
->Accurately ripped (v1, confidence 2/2)
Statistics
Read error : 0
Jitter error (maybe fixed) : 0
Retry sector count : 0
Damaged sector count : 0

Track 15
Filename : /Volumes/Intenso 5to/15 Suite 3 in g BWV 808 - Allemande.flac

CRC32 hash (test run) : 77A2B2A0
CRC32 hash : 77A2B2A0
CRC32 hash (skip zero) : 9DB9CBFE
AccurateRip v1 signature : EE72926F
AccurateRip v2 signature : 038D3346
->Accurately ripped (v1, confidence 2/2)
Statistics
Read error : 0
Jitter error (maybe fixed) : 0
Retry sector count : 0
Damaged sector count : 0

Track 16
Filename : /Volumes/Intenso 5to/16 Suite 3 in g BWV 808 - Courante.flac

CRC32 hash (test run) : D6B460CB
CRC32 hash : D6B460CB
CRC32 hash (skip zero) : 25ABC843
AccurateRip v1 signature : F190BC3D
AccurateRip v2 signature : 85F0514E
->Accurately ripped (v1, confidence 2/2)
Statistics
Read error : 0
Jitter error (maybe fixed) : 0
Retry sector count : 0
Damaged sector count : 0

Track 17
Filename : /Volumes/Intenso 5to/17 Suite 3 in g BWV 808 - Sarabande.flac

CRC32 hash (test run) : 510A6A75
CRC32 hash : 510A6A75
CRC32 hash (skip zero) : AA84D9F0
AccurateRip v1 signature : 5F79AFA9
AccurateRip v2 signature : 17D85C87
->Accurately ripped (v1, confidence 2/2)
Statistics
Read error : 0
Jitter error (maybe fixed) : 0
Retry sector count : 0
Damaged sector count : 0

Track 18
Filename : /Volumes/Intenso 5to/18 Suite 3 in g BWV 808 - Gavottes 1 & 2.flac

CRC32 hash (test run) : E5FCD6F2
CRC32 hash : E5FCD6F2
CRC32 hash (skip zero) : 765F0E85
AccurateRip v1 signature : 81ADA300
AccurateRip v2 signature : D0FD32BB
->Accurately ripped (v1, confidence 2/2)
Statistics
Read error : 0
Jitter error (maybe fixed) : 0
Retry sector count : 0
Damaged sector count : 0

Track 19
Filename : /Volumes/Intenso 5to/19 Suite 3 in g BWV 808 - Gigue.flac

CRC32 hash (test run) : 3A0F65AC
CRC32 hash : 3A0F65AC
CRC32 hash (skip zero) : 1D442EEA
AccurateRip v1 signature : 3B6CFF24
AccurateRip v2 signature : A2C96DF8
->Accurately ripped (v1, confidence 2/2)
Statistics
Read error : 0
Jitter error (maybe fixed) : 0
Retry sector count : 0
Damaged sector count : 0

No errors occurred

End of status report

––-BEGIN XLD SIGNATURE––-
hQ3Tw7x6Kk8PLhHrSaLeABZUaLRN0ly4_CToHh.xQvAJcOtwtkuh0URy_st3xY7SpQLcvl4DSWbjl.bcU.g8EypeJHp9JAdhxcpDz3q
––-END XLD SIGNATURE––-
X Lossless Decoder version 20181019 (151.1)

XLD extraction logfile from 2018-12-22 21:30:58 +0100

Carole Cerasi / Bach - English Suites (CD2)

Used drive : MATSHITA BD-MLT UJ260AF (revision 1.00)
Media type : Pressed CD

Ripper mode : XLD Secure Ripper
Disable audio cache : OK for the drive with a cache less than 1375KiB
Make use of C2 pointers : NO
Read offset correction : 103
Max retry count : 20
Gap status : Analyzed, Appended (except HTOA)

TOC of the extracted CD
Track | Start | Length | Start sector | End sector
––––––––––––––––––––––––––––-
1 | 00:00:00 | 04:45:41 | 0 | 21415
2 | 04:45:41 | 04:14:66 | 21416 | 40531
3 | 09:00:32 | 01:43:44 | 40532 | 48300
4 | 10:44:01 | 03:34:28 | 48301 | 64378
5 | 14:18:29 | 03:39:30 | 64379 | 80833
6 | 17:57:59 | 03:30:09 | 80834 | 96592
7 | 21:27:68 | 04:34:49 | 96593 | 117191
8 | 26:02:42 | 04:27:67 | 117192 | 137283
9 | 30:30:34 | 02:09:48 | 137284 | 147006
10 | 32:40:07 | 03:28:25 | 147007 | 162631
11 | 36:08:32 | 03:31:33 | 162632 | 178489
12 | 39:39:65 | 02:48:15 | 178490 | 191104
13 | 42:28:05 | 07:48:43 | 191105 | 226247
14 | 50:16:48 | 05:00:34 | 226248 | 248781
15 | 55:17:07 | 02:33:43 | 248782 | 260299
16 | 57:50:50 | 05:54:43 | 260300 | 286892
17 | 63:45:18 | 03:35:00 | 286893 | 303017
18 | 67:20:18 | 03:20:11 | 303018 | 318028

AccurateRip Summary (DiscID: 002cb18b-02583c8c-00109012)
Track 01 : OK (v1+v2, confidence 2/3)
Track 02 : OK (v1, confidence 2/2)
Track 03 : OK (v1, confidence 2/2)
Track 04 : OK (v1, confidence 2/2)
Track 05 : OK (v1, confidence 2/2)
Track 06 : OK (v1, confidence 2/2)
Track 07 : OK (v1, confidence 2/2)
Track 08 : OK (v1, confidence 2/2)
Track 09 : OK (v1, confidence 2/2)
Track 10 : OK (v1, confidence 2/2)
Track 11 : OK (v1, confidence 2/2)
Track 12 : OK (v1, confidence 2/2)
Track 13 : OK (v1, confidence 2/2)
Track 14 : OK (v1, confidence 2/2)
Track 15 : OK (v1, confidence 2/2)
Track 16 : OK (v1, confidence 2/2)
Track 17 : OK (v1, confidence 2/2)
Track 18 : OK (v1, confidence 2/2)
->All tracks accurately ripped.

All Tracks
Statistics
Read error : 0
Jitter error (maybe fixed) : 0
Retry sector count : 0
Damaged sector count : 0

Track 01
Filename : /Volumes/Intenso 5to/01 Suite 4 In F BWV 809 - Prélude.flac
Pre-gap length : 00:02:00

CRC32 hash (test run) : 435CE887
CRC32 hash : 435CE887
CRC32 hash (skip zero) : FA7CE3AC
AccurateRip v1 signature : DBF20593
AccurateRip v2 signature : 522C4B2F
->Accurately ripped (v1+v2, confidence 1+1/3)
Statistics
Read error : 0
Jitter error (maybe fixed) : 0
Retry sector count : 0
Damaged sector count : 0

Track 02
Filename : /Volumes/Intenso 5to/02 Suite 4 In F BWV 809 - Allemande.flac

CRC32 hash (test run) : AE2E083A
CRC32 hash : AE2E083A
CRC32 hash (skip zero) : 0C1B2ECD
AccurateRip v1 signature : C162657A
AccurateRip v2 signature : 10D931B2
->Accurately ripped (v1, confidence 2/2)
Statistics
Read error : 0
Jitter error (maybe fixed) : 0
Retry sector count : 0
Damaged sector count : 0

Track 03
Filename : /Volumes/Intenso 5to/03 Suite 4 In F BWV 809 - Courante.flac

CRC32 hash (test run) : 4867A2F0
CRC32 hash : 4867A2F0
CRC32 hash (skip zero) : 4AF15162
AccurateRip v1 signature : 422AFDCA
AccurateRip v2 signature : 76F6B5F6
->Accurately ripped (v1, confidence 2/2)
Statistics
Read error : 0
Jitter error (maybe fixed) : 0
Retry sector count : 0
Damaged sector count : 0

Track 04
Filename : /Volumes/Intenso 5to/04 Suite 4 In F BWV 809 - Sarabande.flac

CRC32 hash (test run) : 424AA0DD
CRC32 hash : 424AA0DD
CRC32 hash (skip zero) : 2681D007
AccurateRip v1 signature : D6080867
AccurateRip v2 signature : D98B7A6A
->Accurately ripped (v1, confidence 2/2)
Statistics
Read error : 0
Jitter error (maybe fixed) : 0
Retry sector count : 0
Damaged sector count : 0

Track 05
Filename : /Volumes/Intenso 5to/05 Suite 4 In F BWV 809 - Menuets 1 & 2.flac

CRC32 hash (test run) : A699E52D
CRC32 hash : A699E52D
CRC32 hash (skip zero) : 7B9F0D37
AccurateRip v1 signature : C89F2EC3
AccurateRip v2 signature : 9D35E1B6
->Accurately ripped (v1, confidence 2/2)
Statistics
Read error : 0
Jitter error (maybe fixed) : 0
Retry sector count : 0
Damaged sector count : 0

Track 06
Filename : /Volumes/Intenso 5to/06 Suite 4 In F BWV 809 - Gigue.flac

CRC32 hash (test run) : FC991BF7
CRC32 hash : FC991BF7
CRC32 hash (skip zero) : FC80D4EC
AccurateRip v1 signature : 524A9CED
AccurateRip v2 signature : 1F2C9C05
->Accurately ripped (v1, confidence 2/2)
Statistics
Read error : 0
Jitter error (maybe fixed) : 0
Retry sector count : 0
Damaged sector count : 0

Track 07
Filename : /Volumes/Intenso 5to/07 Suite 5 In e BWV 810 - Prélude.flac

CRC32 hash (test run) : 7C800217
CRC32 hash : 7C800217
CRC32 hash (skip zero) : F221F816
AccurateRip v1 signature : 2DE6E876
AccurateRip v2 signature : 466DCB0D
->Accurately ripped (v1, confidence 2/2)
Statistics
Read error : 0
Jitter error (maybe fixed) : 0
Retry sector count : 0
Damaged sector count : 0

Track 08
Filename : /Volumes/Intenso 5to/08 Suite 5 In e BWV 810 - Allemande.flac

CRC32 hash (test run) : 51461272
CRC32 hash : 51461272
CRC32 hash (skip zero) : 87B326D0
AccurateRip v1 signature : E8CA7B5E
AccurateRip v2 signature : B1582580
->Accurately ripped (v1, confidence 2/2)
Statistics
Read error : 0
Jitter error (maybe fixed) : 0
Retry sector count : 0
Damaged sector count : 0

Track 09
Filename : /Volumes/Intenso 5to/09 Suite 5 In e BWV 810 - Courante.flac

CRC32 hash (test run) : E403443C
CRC32 hash : E403443C
CRC32 hash (skip zero) : 38265FA9
AccurateRip v1 signature : 826879F1
AccurateRip v2 signature : D1D51548
->Accurately ripped (v1, confidence 2/2)
Statistics
Read error : 0
Jitter error (maybe fixed) : 0
Retry sector count : 0
Damaged sector count : 0

Track 10
Filename : /Volumes/Intenso 5to/10 Suite 5 In e BWV 810 - Sarabande.flac

CRC32 hash (test run) : 20330628
CRC32 hash : 20330628
CRC32 hash (skip zero) : 4C4D755C
AccurateRip v1 signature : C2E6461D
AccurateRip v2 signature : EEF1DFDF
->Accurately ripped (v1, confidence 2/2)
Statistics
Read error : 0
Jitter error (maybe fixed) : 0
Retry sector count : 0
Damaged sector count : 0

Track 11
Filename : /Volumes/Intenso 5to/11 Suite 5 In e BWV 810 - Passepieds 1 & 2.flac

CRC32 hash (test run) : 29C3A147
CRC32 hash : 29C3A147
CRC32 hash (skip zero) : 132CE540
AccurateRip v1 signature : 28790DE2
AccurateRip v2 signature : 831478BA
->Accurately ripped (v1, confidence 2/2)
Statistics
Read error : 0
Jitter error (maybe fixed) : 0
Retry sector count : 0
Damaged sector count : 0

Track 12
Filename : /Volumes/Intenso 5to/12 Suite 5 In e BWV 810 - Gigue.flac

CRC32 hash (test run) : 3C3DAB79
CRC32 hash : 3C3DAB79
CRC32 hash (skip zero) : 7129D1CC
AccurateRip v1 signature : 46536429
AccurateRip v2 signature : 27D3A17B
->Accurately ripped (v1, confidence 2/2)
Statistics
Read error : 0
Jitter error (maybe fixed) : 0
Retry sector count : 0
Damaged sector count : 0

Track 13
Filename : /Volumes/Intenso 5to/13 Suite 6 In d BWV 811 - Prélude.flac

CRC32 hash (test run) : E2A71ACB
CRC32 hash : E2A71ACB
CRC32 hash (skip zero) : DFADBCC7
AccurateRip v1 signature : 4DEB95A2
AccurateRip v2 signature : CD079F20
->Accurately ripped (v1, confidence 2/2)
Statistics
Read error : 0
Jitter error (maybe fixed) : 0
Retry sector count : 0
Damaged sector count : 0

Track 14
Filename : /Volumes/Intenso 5to/14 Suite 6 In d BWV 811 - Allemande.flac

CRC32 hash (test run) : 1F31AE35
CRC32 hash : 1F31AE35
CRC32 hash (skip zero) : 369786E4
AccurateRip v1 signature : 9FA60066
AccurateRip v2 signature : 7FC3F267
->Accurately ripped (v1, confidence 2/2)
Statistics
Read error : 0
Jitter error (maybe fixed) : 0
Retry sector count : 0
Damaged sector count : 0

Track 15
Filename : /Volumes/Intenso 5to/15 Suite 6 In d BWV 811 - Courante.flac

CRC32 hash (test run) : E5961510
CRC32 hash : E5961510
CRC32 hash (skip zero) : CFF758C9
AccurateRip v1 signature : BED2BB34
AccurateRip v2 signature : 54380F20
->Accurately ripped (v1, confidence 2/2)
Statistics
Read error : 0
Jitter error (maybe fixed) : 0
Retry sector count : 0
Damaged sector count : 0

Track 16
Filename : /Volumes/Intenso 5to/16 Suite 6 In d BWV 811 - Sarabande & Double.flac

CRC32 hash (test run) : 9147918B
CRC32 hash : 9147918B
CRC32 hash (skip zero) : 45DABB9F
AccurateRip v1 signature : 16ECE331
AccurateRip v2 signature : 1606FEF1
->Accurately ripped (v1, confidence 2/2)
Statistics
Read error : 0
Jitter error (maybe fixed) : 0
Retry sector count : 0
Damaged sector count : 0

Track 17
Filename : /Volumes/Intenso 5to/17 Suite 6 In d BWV 811 - Gavottes 1 & 2.flac

CRC32 hash (test run) : 75EC9484
CRC32 hash : 75EC9484
CRC32 hash (skip zero) : F2EC59C3
AccurateRip v1 signature : CD8B3B6B
AccurateRip v2 signature : 476F7C40
->Accurately ripped (v1, confidence 2/2)
Statistics
Read error : 0
Jitter error (maybe fixed) : 0
Retry sector count : 0
Damaged sector count : 0

Track 18
Filename : /Volumes/Intenso 5to/18 Suite 6 In d BWV 811 - Gigue.flac

CRC32 hash (test run) : 6BE6ACF4
CRC32 hash : 6BE6ACF4
CRC32 hash (skip zero) : 2BBCFB0B
AccurateRip v1 signature : 96660B95
AccurateRip v2 signature : 4EEBC4D7
->Accurately ripped (v1, confidence 2/2)
Statistics
Read error : 0
Jitter error (maybe fixed) : 0
Retry sector count : 0
Damaged sector count : 0

No errors occurred

End of status report

––-BEGIN XLD SIGNATURE––-
TaaipCs580gQdKluxNp0EzvFQLgkPy3_rFxXKo7gtFVbB649tTeuv.ZaWjesgvrM_FDypBIcdxS87xYAPnDp6z91xCP3YAIWqrWrtR0
––-END XLD SIGNATURE––-


J.S. Bach - The English Suites - Carole Cerasi (2007) {2CD Set Metronome METCD 1078}

J.S. Bach - The English Suites - Carole Cerasi (2007) {2CD Set Metronome METCD 1078}

J.S. Bach - The English Suites - Carole Cerasi (2007) {2CD Set Metronome METCD 1078}


see more Carole Cerasi…


===