Subcategories

Bad Company - Live 1977 & 1979 (2016) {2CD Rhino-Swan Song 081227952334}

Posted By: ruskaval
Bad Company - Live 1977 & 1979 (2016) {2CD Rhino-Swan Song 081227952334}

Bad Company - Live 1977 & 1979 (2016) {2CD Rhino-Swan Song 081227952334}
EAC rip (secure mode) | FLAC (tracks)+CUE+LOG -> 1.05 Gb | MP3 @320 -> 369 Mb
Full Artwork @ 600 dpi (jpg) -> 326 Mb | 5% repair rar
© 2016 Rhino / Swan Song / Warner | 081227952334
Rock / Blues Rock / Classic Rock / Hard Rock

From the release of their first album in 1974, Bad Company were one of the biggest hard rock bands of the '70s. Featuring former members of Free (vocalist Paul Rodgers and drummer Simon Kirke), Mott the Hoople (guitarist Mick Ralphs), and King Crimson (bassist Boz Burrell), Bad Company's straightforward but swaggering attack earned them a steady run of hits. While Bad Company never released a live album with their classic lineup, Atlantic/Rhino Records has delivered something special for the group's fans.
Bad Company - Live 1977 & 1979 (2016) {2CD Rhino-Swan Song 081227952334}

Live: 1977 & 1979 features archival recordings of the Rodgers/Ralphs/Burrell/Kirke lineup, drawn from two different concerts, one in Houston, Texas in May 1977, and the other in London, England in March 1979. (The set also includes a bonus track recorded in Washington, D.C. in June 1979.) The set includes live performances of such favorites as "Feel Like Makin' Love," "Rock 'n' Roll Fantasy," "Shooting Star," "Movin' On," "Run with the Pack," and many more.
Bad Company - Live 1977 & 1979 (2016) {2CD Rhino-Swan Song 081227952334}

Bad Company - Live 1977 & 1979 (2016) {2CD Rhino-Swan Song 081227952334}


tracklist:
Disc 1 ~ Live at The Summit, Houston, Texas, U.S.A - May 23, 1977:
01 - Burnnin' Sky [04:49]
02 - Too Bad [05:17]
03 - Ready for Love [08:03]
04 - Heartbeat [04:38]
05 - Morning Sun [04:24]
06 - Man Needs Woman [04:16]
07 - Leaving You [04:28]
08 - Shooting Star [06:58]
09 - Simple Man [06:09]
10 - Movin' On [03:27]
11 - Like Water [05:34]
12 - Drum Solo [01:33]
13 - Live for the Music [06:31]
14 - Good Lovin' Gone Bad [05:28]
15 - Feel Like Makin' Love [06:40]

Bad Company - Live 1977 & 1979 (2016) {2CD Rhino-Swan Song 081227952334}


Disc 2 ~ Live at The Empire Pool, Wembley, London, England - March 9, 1979:
01 - Bad Company [07:53]
02 - Gone, Gone, Gone [04:57]
03 - Shooting Star [06:38]
04 - Rhythm Machine [05:01]
05 - Oh, Atlanta [05:01]
06 - She Brings Me Love [05:22]
07 - Run With the Pack [05:55]
08 - Evil Wind [04:35]
09 - Drum Solo [02:36]
10 - Honey Child [04:33]
11 - Rock Steady [03:47]
12 - Rock 'n' Roll Fantasy [03:26]
13 - Hey Joe (recorded at the Capitol Center, Washington, DC, June 26, 1979) [04:27]
14 - Feel Like Makin' Love [06:27]
15 - Can't Get Enough [06:01]

Bad Company - Live 1977 & 1979 (2016) {2CD Rhino-Swan Song 081227952334}


Exact Audio Copy V1.2 from 12. August 2016

EAC extraction logfile from 22. September 2016, 20:36

Bad Company / Live 1977 & 1979 (Disc 1)

Used drive : ASUS BW-12D1S-U Adapter: 1 ID: 1

Read mode : Secure
Utilize accurate stream : Yes
Defeat audio cache : Yes
Make use of C2 pointers : No

Read offset correction : 667
Overread into Lead-In and Lead-Out : No
Fill up missing offset samples with silence : Yes
Delete leading and trailing silent blocks : No
Null samples used in CRC calculations : Yes
Used interface : Native Win32 interface for Win NT & 2000
Gap handling : Appended to previous track

Used output format : User Defined Encoder
Selected bitrate : 1024 kBit/s
Quality : High
Add ID3 tag : No
Command line compressor : C:\Program Files (x86)\Music Codec\flac1.3.1\win64\flac.exe
Additional command line options : -8 -V -T "ARTIST=%artist%" -T "TITLE=%title%" -T "ALBUM=%albumtitle%" -T "DATE=%year%" -T "TRACKNUMBER=%tracknr%" -T "TOTALTRACKS=%numtracks%" -T "GENRE=%genre%" -T "ALBUMARTIST=%albumartist%" -T "ALBUM ARTIST=%albumartist%" -T "COMMENT=EAC Secure Mode, Test & Copy, AccurateRip, FLAC -8" %source%


TOC of the extracted CD

Track | Start | Length | Start sector | End sector
––––––––––––––––––––––––––––-
1 | 0:00.00 | 4:49.19 | 0 | 21693
2 | 4:49.19 | 5:17.53 | 21694 | 45521
3 | 10:06.72 | 8:03.30 | 45522 | 81776
4 | 18:10.27 | 4:38.73 | 81777 | 102699
5 | 22:49.25 | 4:24.47 | 102700 | 122546
6 | 27:13.72 | 4:16.33 | 122547 | 141779
7 | 31:30.30 | 4:28.09 | 141780 | 161888
8 | 35:58.39 | 6:58.08 | 161889 | 193246
9 | 42:56.47 | 6:09.51 | 193247 | 220972
10 | 49:06.23 | 3:27.62 | 220973 | 236559
11 | 52:34.10 | 5:34.05 | 236560 | 261614
12 | 58:08.15 | 1:33.63 | 261615 | 268652
13 | 59:42.03 | 6:31.51 | 268653 | 298028
14 | 66:13.54 | 5:28.56 | 298029 | 322684
15 | 71:42.35 | 6:40.53 | 322685 | 352737


Track 1

Filename H:\3. my rip in preparation\3 - in treatment\New\Tilzzy\CD1\01 - Burnnin' Sky.wav

Pre-gap length 0:00:02.00

Peak level 97.2 %
Extraction speed 5.1 X
Track quality 100.0 %
Test CRC 1A36F2A9
Copy CRC 1A36F2A9
Accurately ripped (confidence 16) [BA2A973C] (AR v2)
Copy OK

Track 2

Filename H:\3. my rip in preparation\3 - in treatment\New\Tilzzy\CD1\02 - Too Bad.wav

Peak level 94.1 %
Extraction speed 5.2 X
Track quality 99.9 %
Test CRC A0E3D169
Copy CRC A0E3D169
Accurately ripped (confidence 16) [81C2B466] (AR v2)
Copy OK

Track 3

Filename H:\3. my rip in preparation\3 - in treatment\New\Tilzzy\CD1\03 - Ready for Love.wav

Peak level 94.3 %
Extraction speed 6.2 X
Track quality 99.9 %
Test CRC F4B60476
Copy CRC F4B60476
Accurately ripped (confidence 16) [5EE24962] (AR v2)
Copy OK

Track 4

Filename H:\3. my rip in preparation\3 - in treatment\New\Tilzzy\CD1\04 - Heartbeat.wav

Peak level 94.5 %
Extraction speed 6.7 X
Track quality 100.0 %
Test CRC BB48362A
Copy CRC BB48362A
Accurately ripped (confidence 16) [2D19E440] (AR v2)
Copy OK

Track 5

Filename H:\3. my rip in preparation\3 - in treatment\New\Tilzzy\CD1\05 - Morning Sun.wav

Peak level 94.3 %
Extraction speed 6.3 X
Track quality 99.9 %
Test CRC 284BC574
Copy CRC 284BC574
Accurately ripped (confidence 16) [F3E5CFEC] (AR v2)
Copy OK

Track 6

Filename H:\3. my rip in preparation\3 - in treatment\New\Tilzzy\CD1\06 - Man Needs Woman.wav

Peak level 94.1 %
Extraction speed 7.3 X
Track quality 100.0 %
Test CRC B7F994D8
Copy CRC B7F994D8
Accurately ripped (confidence 16) [F653F4B5] (AR v2)
Copy OK

Track 7

Filename H:\3. my rip in preparation\3 - in treatment\New\Tilzzy\CD1\07 - Leaving You.wav

Peak level 93.1 %
Extraction speed 7.5 X
Track quality 100.0 %
Test CRC FA7BB35A
Copy CRC FA7BB35A
Accurately ripped (confidence 16) [4DFE3D05] (AR v2)
Copy OK

Track 8

Filename H:\3. my rip in preparation\3 - in treatment\New\Tilzzy\CD1\08 - Shooting Star.wav

Peak level 94.3 %
Extraction speed 8.3 X
Track quality 100.0 %
Test CRC AFC4CCB1
Copy CRC AFC4CCB1
Accurately ripped (confidence 16) [3AA4F5DC] (AR v2)
Copy OK

Track 9

Filename H:\3. my rip in preparation\3 - in treatment\New\Tilzzy\CD1\09 - Simple Man.wav

Peak level 94.2 %
Extraction speed 8.5 X
Track quality 100.0 %
Test CRC B755995A
Copy CRC B755995A
Accurately ripped (confidence 16) [9B787D9A] (AR v2)
Copy OK

Track 10

Filename H:\3. my rip in preparation\3 - in treatment\New\Tilzzy\CD1\10 - Movin' On.wav

Peak level 94.1 %
Extraction speed 7.1 X
Track quality 99.9 %
Test CRC 387D722F
Copy CRC 387D722F
Accurately ripped (confidence 16) [DAD65677] (AR v2)
Copy OK

Track 11

Filename H:\3. my rip in preparation\3 - in treatment\New\Tilzzy\CD1\11 - Like Water.wav

Peak level 94.5 %
Extraction speed 8.8 X
Track quality 100.0 %
Test CRC C50DBB14
Copy CRC C50DBB14
Accurately ripped (confidence 16) [9A7142A3] (AR v2)
Copy OK

Track 12

Filename H:\3. my rip in preparation\3 - in treatment\New\Tilzzy\CD1\12 - Drum Solo.wav

Peak level 94.5 %
Extraction speed 7.2 X
Track quality 100.0 %
Test CRC 53E034B2
Copy CRC 53E034B2
Accurately ripped (confidence 16) [813A090C] (AR v2)
Copy OK

Track 13

Filename H:\3. my rip in preparation\3 - in treatment\New\Tilzzy\CD1\13 - Live for the Music.wav

Peak level 95.0 %
Extraction speed 9.5 X
Track quality 100.0 %
Test CRC 9B807A13
Copy CRC 9B807A13
Accurately ripped (confidence 16) [46861B8F] (AR v2)
Copy OK

Track 14

Filename H:\3. my rip in preparation\3 - in treatment\New\Tilzzy\CD1\14 - Good Lovin' Gone Bad.wav

Peak level 94.8 %
Extraction speed 9.5 X
Track quality 100.0 %
Test CRC 81E57B6A
Copy CRC 81E57B6A
Accurately ripped (confidence 16) [DD65B05E] (AR v2)
Copy OK

Track 15

Filename H:\3. my rip in preparation\3 - in treatment\New\Tilzzy\CD1\15 - Feel Like Makin' Love.wav

Peak level 94.2 %
Extraction speed 9.2 X
Track quality 99.9 %
Test CRC 6F071752
Copy CRC 6F071752
Accurately ripped (confidence 16) [F6E93C59] (AR v2)
Copy OK


All tracks accurately ripped

No errors occurred

End of status report

–– CUETools DB Plugin V2.1.6

[CTDB TOCID: NqTVPO1xWJxHwdM0etAi.kcWT.E-] found
Submit result: NqTVPO1xWJxHwdM0etAi.kcWT.E- has been confirmed
Track | CTDB Status
1 | (51/51) Accurately ripped
2 | (51/51) Accurately ripped
3 | (51/51) Accurately ripped
4 | (51/51) Accurately ripped
5 | (51/51) Accurately ripped
6 | (51/51) Accurately ripped
7 | (51/51) Accurately ripped
8 | (51/51) Accurately ripped
9 | (51/51) Accurately ripped
10 | (51/51) Accurately ripped
11 | (51/51) Accurately ripped
12 | (51/51) Accurately ripped
13 | (51/51) Accurately ripped
14 | (51/51) Accurately ripped
15 | (51/51) Accurately ripped


==== Log checksum 35FD46EAB58FC95ED8C70AF9242845CA94F42D40ED1B7D614B878D163C732F15 ====

Exact Audio Copy V1.2 from 12. August 2016

EAC extraction logfile from 23. September 2016, 11:24

Bad Company / Live 1977 & 1979 (Disc 2)

Used drive : ASUS BW-12D1S-U Adapter: 1 ID: 1

Read mode : Secure
Utilize accurate stream : Yes
Defeat audio cache : Yes
Make use of C2 pointers : No

Read offset correction : 667
Overread into Lead-In and Lead-Out : No
Fill up missing offset samples with silence : Yes
Delete leading and trailing silent blocks : No
Null samples used in CRC calculations : Yes
Used interface : Native Win32 interface for Win NT & 2000
Gap handling : Appended to previous track

Used output format : User Defined Encoder
Selected bitrate : 1024 kBit/s
Quality : High
Add ID3 tag : No
Command line compressor : C:\Program Files (x86)\Music Codec\flac1.3.1\win64\flac.exe
Additional command line options : -8 -V -T "ARTIST=%artist%" -T "TITLE=%title%" -T "ALBUM=%albumtitle%" -T "DATE=%year%" -T "TRACKNUMBER=%tracknr%" -T "TOTALTRACKS=%numtracks%" -T "GENRE=%genre%" -T "ALBUMARTIST=%albumartist%" -T "ALBUM ARTIST=%albumartist%" -T "COMMENT=EAC Secure Mode, Test & Copy, AccurateRip, FLAC -8" %source%


TOC of the extracted CD

Track | Start | Length | Start sector | End sector
––––––––––––––––––––––––––––-
1 | 0:00.00 | 7:53.18 | 0 | 35492
2 | 7:53.18 | 4:57.37 | 35493 | 57804
3 | 12:50.55 | 6:38.52 | 57805 | 87706
4 | 19:29.32 | 5:01.49 | 87707 | 110330
5 | 24:31.06 | 5:01.07 | 110331 | 132912
6 | 29:32.13 | 5:22.37 | 132913 | 157099
7 | 34:54.50 | 5:55.20 | 157100 | 183744
8 | 40:49.70 | 4:35.58 | 183745 | 204427
9 | 45:25.53 | 2:36.45 | 204428 | 216172
10 | 48:02.23 | 4:33.40 | 216173 | 236687
11 | 52:35.63 | 3:47.34 | 236688 | 253746
12 | 56:23.22 | 3:26.16 | 253747 | 269212
13 | 59:49.38 | 4:27.68 | 269213 | 289305
14 | 64:17.31 | 6:27.23 | 289306 | 318353
15 | 70:44.54 | 6:01.15 | 318354 | 345443


Track 1

Filename H:\3. my rip in preparation\New\Tilzzy\CD2\01 - Bad Company.wav

Pre-gap length 0:00:02.00

Peak level 99.2 %
Extraction speed 5.5 X
Track quality 100.0 %
Test CRC E483FC2D
Copy CRC E483FC2D
Accurately ripped (confidence 16) [06DE59AF] (AR v2)
Copy OK

Track 2

Filename H:\3. my rip in preparation\New\Tilzzy\CD2\02 - Gone, Gone, Gone.wav

Peak level 97.5 %
Extraction speed 5.4 X
Track quality 99.9 %
Test CRC FB9648DE
Copy CRC FB9648DE
Accurately ripped (confidence 16) [BBA299D7] (AR v2)
Copy OK

Track 3

Filename H:\3. my rip in preparation\New\Tilzzy\CD2\03 - Shooting Star.wav

Peak level 97.0 %
Extraction speed 6.6 X
Track quality 100.0 %
Test CRC 4C20CC93
Copy CRC 4C20CC93
Accurately ripped (confidence 16) [C4821D01] (AR v2)
Copy OK

Track 4

Filename H:\3. my rip in preparation\New\Tilzzy\CD2\04 - Rhythm Machine.wav

Peak level 98.2 %
Extraction speed 6.9 X
Track quality 100.0 %
Test CRC 5BF3ED63
Copy CRC 5BF3ED63
Accurately ripped (confidence 16) [3451D3CF] (AR v2)
Copy OK

Track 5

Filename H:\3. my rip in preparation\New\Tilzzy\CD2\05 - Oh, Atlanta.wav

Peak level 96.6 %
Extraction speed 6.6 X
Track quality 99.9 %
Test CRC B9141886
Copy CRC B9141886
Accurately ripped (confidence 16) [AAD0CE7A] (AR v2)
Copy OK

Track 6

Filename H:\3. my rip in preparation\New\Tilzzy\CD2\06 - She Brings Me Love.wav

Peak level 96.8 %
Extraction speed 7.7 X
Track quality 100.0 %
Test CRC 714536D7
Copy CRC 714536D7
Accurately ripped (confidence 16) [61D09231] (AR v2)
Copy OK

Track 7

Filename H:\3. my rip in preparation\New\Tilzzy\CD2\07 - Run With the Pack.wav

Peak level 97.3 %
Extraction speed 8.0 X
Track quality 100.0 %
Test CRC D884F885
Copy CRC D884F885
Accurately ripped (confidence 16) [33F1DA05] (AR v2)
Copy OK

Track 8

Filename H:\3. my rip in preparation\New\Tilzzy\CD2\08 - Evil Wind.wav

Peak level 98.1 %
Extraction speed 8.0 X
Track quality 100.0 %
Test CRC DB0ED968
Copy CRC DB0ED968
Accurately ripped (confidence 16) [16B162A2] (AR v2)
Copy OK

Track 9

Filename H:\3. my rip in preparation\New\Tilzzy\CD2\09 - Drum Solo.wav

Peak level 96.1 %
Extraction speed 7.6 X
Track quality 100.0 %
Test CRC 8BAC6763
Copy CRC 8BAC6763
Accurately ripped (confidence 16) [CEB7F06E] (AR v2)
Copy OK

Track 10

Filename H:\3. my rip in preparation\New\Tilzzy\CD2\10 - Honey Child.wav

Peak level 99.7 %
Extraction speed 7.5 X
Track quality 99.9 %
Test CRC F6A85C94
Copy CRC F6A85C94
Accurately ripped (confidence 16) [BD192913] (AR v2)
Copy OK

Track 11

Filename H:\3. my rip in preparation\New\Tilzzy\CD2\11 - Rock Steady.wav

Peak level 97.8 %
Extraction speed 8.4 X
Track quality 100.0 %
Test CRC FBE21492
Copy CRC FBE21492
Accurately ripped (confidence 16) [69CD4B37] (AR v2)
Copy OK

Track 12

Filename H:\3. my rip in preparation\New\Tilzzy\CD2\12 - Rock 'n' Roll Fantasy.wav

Peak level 100.0 %
Extraction speed 8.5 X
Track quality 100.0 %
Test CRC A4D9A8EA
Copy CRC A4D9A8EA
Accurately ripped (confidence 16) [30C8AAF0] (AR v2)
Copy OK

Track 13

Filename H:\3. my rip in preparation\New\Tilzzy\CD2\13 - Hey Joe (recorded at the Capitol Center, Washington, DC, June 26, 1979).wav

Peak level 96.0 %
Extraction speed 8.0 X
Track quality 99.9 %
Test CRC 8BFC6C6C
Copy CRC 8BFC6C6C
Accurately ripped (confidence 16) [21EC8E8C] (AR v2)
Copy OK

Track 14

Filename H:\3. my rip in preparation\New\Tilzzy\CD2\14 - Feel Like Makin' Love.wav

Peak level 96.6 %
Extraction speed 9.6 X
Track quality 100.0 %
Test CRC 1CCCB148
Copy CRC 1CCCB148
Accurately ripped (confidence 16) [C3464323] (AR v2)
Copy OK

Track 15

Filename H:\3. my rip in preparation\New\Tilzzy\CD2\15 - Can't Get Enough.wav

Peak level 98.8 %
Extraction speed 9.0 X
Track quality 99.9 %
Test CRC C4F14B77
Copy CRC C4F14B77
Accurately ripped (confidence 16) [8648FA67] (AR v2)
Copy OK


All tracks accurately ripped

No errors occurred

End of status report

–– CUETools DB Plugin V2.1.6

[CTDB TOCID: Qi4BdgFowTxHjfu7GU2yqRL1NL4-] found
Submit result: already submitted
Track | CTDB Status
1 | (53/53) Accurately ripped
2 | (53/53) Accurately ripped
3 | (53/53) Accurately ripped
4 | (53/53) Accurately ripped
5 | (53/53) Accurately ripped
6 | (53/53) Accurately ripped
7 | (53/53) Accurately ripped
8 | (53/53) Accurately ripped
9 | (53/53) Accurately ripped
10 | (53/53) Accurately ripped
11 | (53/53) Accurately ripped
12 | (53/53) Accurately ripped
13 | (53/53) Accurately ripped
14 | (53/53) Accurately ripped
15 | (53/53) Accurately ripped


==== Log checksum F2C74C8A0962D489ADEFFEF1CF6CB38A1146AF03F878A757B8AB0ADB87368008 ====


Bad Company - Live 1977 & 1979 (2016) {2CD Rhino-Swan Song 081227952334}


All thanks goes to the original releaser!