Subcategories

Ballaké Sissoko & Ludovico Einaudi - Diario Mali (2003) [REPOST]

Posted By: Manavgat
Ballaké Sissoko & Ludovico Einaudi - Diario Mali (2003) [REPOST]

Ballaké Sissoko & Ludovico Einaudi - Diario Mali (2003)
EAC RIP | Flac (Tracks)+CUE+LOG ~ 270 MB | 10 Tracks | MP3 CBR 320 Kbps ~ 150 MB | ArtWork
Genre: Folk, World, & Country | Label: Ponderosa ‎| Release Date: October 13, 2009

Mali Diary (Diario Mali) is a studio recording of duets between the highly successful Italian classical-crossover pianist, Ludovico Einaudi, and Mali musician Ballake Sissoko - one of the most gifted ækoraÆ players in Africa. This unexpected collaboration was recorded in February 2003, less than a month after they had appeared together at the now famous Festival in the Desert. They had a track included on the best-selling CD of the event.

At this time, Einaudi was just beginning his breakthrough to a much wider UK public. His ôEchoesö Best-of collection was released in the September of that year and early in 2004, he had a track featured on Buddha Bar vol.6 - a sure sign of musical ælifestyle chicÆ.

Dismissed by large sections of the classical media, his accessible, melodic minimalism - compared by some to Philip Glass and Michael Nyman - has undeniably produced music of wide appeal, and championed by Classic FM in particular, the 8 CDs he has so far issued in the UK have all achieved substantial sales. Born in 1955, Einaudi was awarded a diploma in composition at the Milan Conservatory, and continued his studies with Luciano Berio. He has also composed chamber and orchestral compositions, music for dance and the stage, and film soundtracks, as well as a variety of multimedia works. He completed a sell-out 13-date tour of the UK in Feb 2005
– Discovery Records

Ballaké Sissoko & Ludovico Einaudi - Diario Mali (2003) [REPOST]


Tracklist:
01- Laissez Moi En Paix
02- Entre Nous
03- Soutoukou
04- Chanson D'Amour
05- Chameaux
06- Ma Mere
07- A L'Ombre
08- Niger Blues
09- Mali Sajio
10- Dessert Dans Le Desert



Exact Audio Copy V0.99 prebeta 4 from 23. January 2008

EAC extraction logfile from 16. June 2009, 1:10

Ludovico Einaudi & Ballaké Sissoko / Diario Mali

Used drive : TSSTcorpCDDVDW TS-H653N Adapter: 2 ID: 2

Read mode : Secure
Utilize accurate stream : Yes
Defeat audio cache : Yes
Make use of C2 pointers : No

Read offset correction : 6
Overread into Lead-In and Lead-Out : No
Fill up missing offset samples with silence : Yes
Delete leading and trailing silent blocks : No
Null samples used in CRC calculations : Yes
Used interface : Native Win32 interface for Win NT & 2000
Gap handling : Appended to previous track

Used output format : User Defined Encoder
Selected bitrate : 1024 kBit/s
Quality : High
Add ID3 tag : No
Command line compressor : C:\Program Files\FLAC -\flac.exe
Additional command line options : -5 -V -T "artist=%a" -T "title=%t" -T "album=%g" -T "date=%y" -T "tracknumber=%n" -T "genre=%m" -T comment="shared by pastafari cubensis" %s


TOC of the extracted CD

Track | Start | Length | Start sector | End sector
––––––––––––––––––––––––––––-
1 | 0:00.00 | 4:02.40 | 0 | 18189
2 | 4:02.40 | 9:32.67 | 18190 | 61156
3 | 13:35.32 | 7:17.33 | 61157 | 93964
4 | 20:52.65 | 8:11.10 | 93965 | 130799
5 | 29:04.00 | 5:04.30 | 130800 | 153629
6 | 34:08.30 | 6:03.57 | 153630 | 180911
7 | 40:12.12 | 8:24.05 | 180912 | 218716
8 | 48:36.17 | 5:38.60 | 218717 | 244126
9 | 54:15.02 | 8:00.00 | 244127 | 280126
10 | 62:15.02 | 5:49.08 | 280127 | 306309


Track 1

Filename C:\CD_buffer\Ludovico Einaudi & Ballaké Sissoko - Diario Mali [2003] [FLAC]\01- Laissez Moi En Paix.wav

Pre-gap length 0:00:02.00

Peak level 78.4 %
Track quality 100.0 %
Test CRC 67A74D61
Copy CRC 67A74D61
Cannot be verified as accurate (confidence 1) [B630FD96], AccurateRip returned [33597820]
Copy OK

Track 2

Filename C:\CD_buffer\Ludovico Einaudi & Ballaké Sissoko - Diario Mali [2003] [FLAC]\02- Entre Nous.wav

Peak level 61.5 %
Track quality 100.0 %
Test CRC 94962C11
Copy CRC 94962C11
Cannot be verified as accurate (confidence 1) [E5474B92], AccurateRip returned [3170BBC0]
Copy OK

Track 3

Filename C:\CD_buffer\Ludovico Einaudi & Ballaké Sissoko - Diario Mali [2003] [FLAC]\03- Soutoukou.wav

Peak level 67.5 %
Track quality 100.0 %
Test CRC 8C47CFD3
Copy CRC 8C47CFD3
Cannot be verified as accurate (confidence 1) [9D80033D], AccurateRip returned [EF601382]
Copy OK

Track 4

Filename C:\CD_buffer\Ludovico Einaudi & Ballaké Sissoko - Diario Mali [2003] [FLAC]\04- Chanson D´Amour.wav

Peak level 97.3 %
Track quality 99.9 %
Test CRC E4F2957E
Copy CRC E4F2957E
Cannot be verified as accurate (confidence 1) [1E6EC5DE], AccurateRip returned [8B886CB3]
Copy OK

Track 5

Filename C:\CD_buffer\Ludovico Einaudi & Ballaké Sissoko - Diario Mali [2003] [FLAC]\05- Chameaux.wav

Peak level 66.8 %
Track quality 100.0 %
Test CRC E6E6EBD5
Copy CRC E6E6EBD5
Cannot be verified as accurate (confidence 1) [FE726A5F], AccurateRip returned [24E387FF]
Copy OK

Track 6

Filename C:\CD_buffer\Ludovico Einaudi & Ballaké Sissoko - Diario Mali [2003] [FLAC]\06- Ma Mere.wav

Peak level 53.7 %
Track quality 100.0 %
Test CRC 0824621B
Copy CRC 0824621B
Cannot be verified as accurate (confidence 1) [B743F040], AccurateRip returned [26CD9FC8]
Copy OK

Track 7

Filename C:\CD_buffer\Ludovico Einaudi & Ballaké Sissoko - Diario Mali [2003] [FLAC]\07- A L´Ombre.wav

Peak level 49.1 %
Track quality 99.9 %
Test CRC 2804B41E
Copy CRC 2804B41E
Cannot be verified as accurate (confidence 1) [20C67482], AccurateRip returned [321DC447]
Copy OK

Track 8

Filename C:\CD_buffer\Ludovico Einaudi & Ballaké Sissoko - Diario Mali [2003] [FLAC]\08- Niger Blues.wav

Pre-gap length 0:00:00.01

Peak level 83.8 %
Track quality 100.0 %
Test CRC 2CDB4269
Copy CRC 2CDB4269
Cannot be verified as accurate (confidence 1) [785BC96A], AccurateRip returned [FC9E89FC]
Copy OK

Track 9

Filename C:\CD_buffer\Ludovico Einaudi & Ballaké Sissoko - Diario Mali [2003] [FLAC]\09- Mali Sajio.wav

Peak level 70.3 %
Track quality 100.0 %
Test CRC F463A05D
Copy CRC F463A05D
Cannot be verified as accurate (confidence 1) [157B854E], AccurateRip returned [226B60DB]
Copy OK

Track 10

Filename C:\CD_buffer\Ludovico Einaudi & Ballaké Sissoko - Diario Mali [2003] [FLAC]\10- Dessert Dans Le Desert.wav

Peak level 56.4 %
Track quality 100.0 %
Test CRC D880DE85
Copy CRC D880DE85
Cannot be verified as accurate (confidence 1) [B56EE7A2], AccurateRip returned [582525F0]
Copy OK


No tracks could be verified as accurate
You may have a different pressing from the one(s) in the database

No errors occurred

End of status report


Thanks to the Original ripper!
Download ~ Flac (Tracks)+CUE+LOG

Uploaded.to [Flac]

–––––––––––––––––

Download ~ CBR 320Kbps

Uploaded.to @ mp3