Barney Kessel - Feeling Free (1969) [Remastered 2000]

Posted By: Bezz
Barney Kessel - Feeling Free (1969) [Remastered 2000]

Barney Kessel - Feeling Free (1969) [Remastered 2000]
EAC rip | FLAC + CUE + LOG | Scans | 250 Mb (Incl. Recovery)
Genre ~ Bop, Cool, Guitar Jazz | Label ~ Contemporary OJCCD-1043-2

Guitarist Barney Kessel recorded regularly for the Contemporary label during 1953-1961, one gem after another. In 1969 he returned to Lester Koenig's label for this lone effort, a quartet set with vibraphonist Bobby Hutcherson, bassist Chuck Domanico, and drummer Elvin Jones. The music is fairly free, particularly Kessel's four originals (which include "Blues, Up, Down & All Around" and "Two Note Samba" ). Even Paul Simon's "The Sounds of Silence" and "This Guy's in Love With You" are turned into reasonably creative jazz by the all-star group. Although none of the musicians was associated exclusively with the avant-garde (Elvin Jones came the closest but never quite embraced free jazz), they show the influence of the explorations of the era, using aspects of the innovations as a logical way to stretch the jazz mainstream. Fascinating music. ~ AllMusic


Tracklist

01 - Moving Up (Kessel) 5:14
02 - Blue Grass (Kessel) 9:24
03 - This Guy's in Love With You (Bacharach, David) 5:14
04 - Blues up, Down and All Around (Kessel) 8:21
05 - The Sound of Silence (Simon) 7:39
06 - Two Note Samba (Kessel) 4:55


Personel

Barney Kessel (guitar);
Bobby Hutcherson (vibraphone);
Chuck Domanico (bass);
Elvin Jones (drums).


Exact Audio Copy V1.0 beta 1 from 15. November 2010

EAC extraction logfile from 29. April 2011, 15:13

Barney Kessel / Feeling Free

Used drive : TSSTcorpCDDVDW TS-L633A Adapter: 3 ID: 0

Read mode : Secure
Utilize accurate stream : Yes
Defeat audio cache : Yes
Make use of C2 pointers : No

Read offset correction : 6
Overread into Lead-In and Lead-Out : No
Fill up missing offset samples with silence : Yes
Delete leading and trailing silent blocks : No
Null samples used in CRC calculations : Yes
Used interface : Installed external ASPI interface
Gap handling : Appended to previous track

Used output format : User Defined Encoder
Selected bitrate : 896 kBit/s
Quality : High
Add ID3 tag : No
Command line compressor : C:\Program Files\Exact Audio Copy\FLAC\FLAC.EXE
Additional command line options : -8 -V -T "ARTIST=%a" -T "TITLE=%t" -T "ALBUM=%g" -T "DATE=%y" -T "TRACKNUMBER=%n" -T "TOTALTRACKS=%x" -T "GENRE=%m" -T "ALBUMARTIST=%v" -T "ALBUM ARTIST=%v" -T "COMMENT=EAC Secure Mode, Test & Copy, AccurateRip, FLAC -8" %s


TOC of the extracted CD

Track | Start | Length | Start sector | End sector
––––––––––––––––––––––––––––-
1 | 0:00.00 | 5:19.10 | 0 | 23934
2 | 5:19.10 | 9:29.20 | 23935 | 66629
3 | 14:48.30 | 5:19.17 | 66630 | 90571
4 | 20:07.47 | 8:27.05 | 90572 | 128601
5 | 28:34.52 | 7:42.20 | 128602 | 163271
6 | 36:16.72 | 4:59.43 | 163272 | 185739


Track 1

Filename C:\MY RIPS\01 - Moving Up.wav

Pre-gap length 0:00:02.00

Peak level 100.0 %
Extraction speed 1.1 X
Track quality 99.9 %
Test CRC BB246BD0
Copy CRC BB246BD0
Track not present in AccurateRip database
Copy OK

Track 2

Filename C:\MY RIPS\02 - Blue Grass.wav

Pre-gap length 0:00:01.63

Peak level 99.9 %
Extraction speed 1.5 X
Track quality 100.0 %
Test CRC 84D568A6
Copy CRC 84D568A6
Track not present in AccurateRip database
Copy OK

Track 3

Filename C:\MY RIPS\03 - This Guy's In Love With You.wav

Pre-gap length 0:00:02.30

Peak level 98.4 %
Extraction speed 1.6 X
Track quality 100.0 %
Test CRC 2337110A
Copy CRC 2337110A
Track not present in AccurateRip database
Copy OK

Track 4

Filename C:\MY RIPS\04 - Blues Up, Down And All Around.wav

Pre-gap length 0:00:03.40

Peak level 100.0 %
Extraction speed 1.6 X
Track quality 99.9 %
Test CRC 873FF037
Copy CRC 873FF037
Track not present in AccurateRip database
Copy OK

Track 5

Filename C:\MY RIPS\05 - The Sound Of Silence.wav

Pre-gap length 0:00:03.22

Peak level 99.9 %
Extraction speed 2.0 X
Track quality 100.0 %
Test CRC C69D89D2
Copy CRC C69D89D2
Track not present in AccurateRip database
Copy OK

Track 6

Filename C:\MY RIPS\06 - Two Note Samba.wav

Pre-gap length 0:00:02.07

Peak level 100.0 %
Extraction speed 2.0 X
Track quality 100.0 %
Test CRC 873F5FFF
Copy CRC 873F5FFF
Track not present in AccurateRip database
Copy OK


None of the tracks are present in the AccurateRip database

No errors occurred

End of status report

==== Log checksum F66440D9FB8C51BC33E9F3B6EB73BF767A95C088AA2203A20B225BFB0F5B4ACD ====



Barney Kessel - Feeling Free (1969) [Remastered 2000]



Special thanks to original uploader!


FILESONIC links

Part 1 | Part 2 | Part 3


FILESERVE links

Part 1 | Part 2 | Part 3


WUPLOAD links

Part 1 | Part 2 | Part 3


BITSHARE links

Part 1 | Part 2 | Part 3


Welcome to my blog for more wonderful music


PLEASE DO NOT PROVIDE MIRROR LINKS!