Subcategories

Be Bop Deluxe - Futurama (1975) {2008 Harvest Japan Mini LP TOCP-70359}

Posted By: ruskaval
Be Bop Deluxe - Futurama (1975) {2008 Harvest Japan Mini LP TOCP-70359}

Be Bop Deluxe - Futurama (1975) {2008 Harvest Japan Mini LP TOCP-70359}
EAC rip (secure mode) | FLAC (tracks)+CUE+LOG -> 299 Mb | MP3 @320 -> 108 Mb
Full Artwork @ 600 dpi (png) -> 23 Mb | 5% repair rar
© 1975, 2008 Harvest / EMI Music Japan / Toshiba | TOCP-70359 | Mini LP
Rock / Art Rock / Contemporary Pop / Prog Rock / Glam Rock

The original version of Futurama was a little weak on songwriting content, though long on virtuoso music passages. This expanded reissue is a partial improvement, though not because it addresses those problems; rather, it's just got more of something different, in this case the more commercial (and quite beautiful) single version of "Between the Worlds," plus a scintillating live version of "Maid in Heaven," and the achingly lyrical "Speed of the Wind" – the latter shows off the more reflective side of this band and progressive rock in general, of a piece with King Crimson's "Book of Saturday," and emphasizing their gentler approach to singing and playing. The sound throughout is excellent, and the annotation is reasonably thorough as well.
Be Bop Deluxe - Futurama (1975) {2008 Harvest Japan Mini LP TOCP-70359}

Be Bop Deluxe - Futurama (1975) {2008 Harvest Japan Mini LP TOCP-70359}


tracklist:
01 - Stage Whispers
02 - Love With The Madman
03 - Maid In Heaven
04 - Sister Seagull
05 - Sound Track
06 - Music In Dreamland
07 - Jean Cocteau
08 - Between The Worlds
09 - Swan Song
10 - Between The Worlds (original single version) (Bonus Track)
11 - Maid In Heaven (recorded live in 1977) (Bonus Track)
12 - Speed Of The Wind (Bonus Track)

EAC extraction logfile from 7. March 2009, 2:51 for CD
Be Bop Deluxe / Futurama

Used drive : TSSTcorpDVD-ROM SH-D162D Adapter: 0 ID: 1
Read mode : Secure with NO C2, accurate stream, disable cache
Read offset correction : 6
Overread into Lead-In and Lead-Out : No

Used output format : C:\Program Files\FLAC\flac.exe (User Defined Encoder)
128 kBit/s
Additional command line options : -8 -V -T "ARTIST=%a" -T "TITLE=%t" -T "ALBUM=%g" -T "DATE=%y" -T "TRACKNUMBER=%n" -T "GENRE=%m" -T "COMMENT=EAC FLAC -8" %s

Other options :
Fill up missing offset samples with silence : Yes
Delete leading and trailing silent blocks : No
Installed external ASPI interface


Track 1
Filename C:\[EAC rip]\Be-Bop Deluxe - Futurama (1975) [flac] {Japan MiniLP}\01 - Stage Whispers.wav

Pre-gap length 0:00:02.00

Peak level 99.1 %
Track quality 100.0 %
Test CRC D55B84BC
Copy CRC D55B84BC
Copy OK

Track 2
Filename C:\[EAC rip]\Be-Bop Deluxe - Futurama (1975) [flac] {Japan MiniLP}\02 - Love With The Madman.wav

Pre-gap length 0:00:00.26

Peak level 85.8 %
Track quality 100.0 %
Test CRC 68F1303B
Copy CRC 68F1303B
Copy OK

Track 3
Filename C:\[EAC rip]\Be-Bop Deluxe - Futurama (1975) [flac] {Japan MiniLP}\03 - Maid In Heaven.wav

Pre-gap length 0:00:01.04

Peak level 82.0 %
Track quality 100.0 %
Test CRC 04D0633D
Copy CRC 04D0633D
Copy OK

Track 4
Filename C:\[EAC rip]\Be-Bop Deluxe - Futurama (1975) [flac] {Japan MiniLP}\04 - Sister Seagull.wav

Pre-gap length 0:00:00.16

Peak level 93.2 %
Track quality 99.9 %
Test CRC 84FE38DE
Copy CRC 84FE38DE
Copy OK

Track 5
Filename C:\[EAC rip]\Be-Bop Deluxe - Futurama (1975) [flac] {Japan MiniLP}\05 - Sound Track.wav

Pre-gap length 0:00:00.02

Peak level 88.5 %
Track quality 100.0 %
Test CRC 79B1031E
Copy CRC 79B1031E
Copy OK

Track 6
Filename C:\[EAC rip]\Be-Bop Deluxe - Futurama (1975) [flac] {Japan MiniLP}\06 - Music In Dreamland.wav

Pre-gap length 0:00:00.04

Peak level 87.9 %
Track quality 100.0 %
Test CRC 3817450C
Copy CRC 3817450C
Copy OK

Track 7
Filename C:\[EAC rip]\Be-Bop Deluxe - Futurama (1975) [flac] {Japan MiniLP}\07 - Jean Cocteau.wav

Pre-gap length 0:00:00.04

Peak level 67.8 %
Track quality 100.0 %
Test CRC 06657885
Copy CRC 06657885
Copy OK

Track 8
Filename C:\[EAC rip]\Be-Bop Deluxe - Futurama (1975) [flac] {Japan MiniLP}\08 - Between The Worlds.wav

Pre-gap length 0:00:02.80

Peak level 84.7 %
Track quality 99.9 %
Test CRC 43789BF7
Copy CRC 43789BF7
Copy OK

Track 9
Filename C:\[EAC rip]\Be-Bop Deluxe - Futurama (1975) [flac] {Japan MiniLP}\09 - Swan Song.wav

Pre-gap length 0:00:00.04

Peak level 91.0 %
Track quality 100.0 %
Test CRC BAA7D8D2
Copy CRC BAA7D8D2
Copy OK

Track 10
Filename C:\[EAC rip]\Be-Bop Deluxe - Futurama (1975) [flac] {Japan MiniLP}\10 - Between The Worlds (original single version) (Bonus Track).wav

Pre-gap length 0:00:02.36

Peak level 100.0 %
Track quality 100.0 %
Test CRC 6F662ED9
Copy CRC 6F662ED9
Copy OK

Track 11
Filename C:\[EAC rip]\Be-Bop Deluxe - Futurama (1975) [flac] {Japan MiniLP}\11 - Maid In Heaven (recorded live in 1977) (Bonus Track).wav

Pre-gap length 0:00:01.90

Peak level 100.0 %
Track quality 99.9 %
Test CRC 6008706C
Copy CRC 6008706C
Copy OK

Track 12
Filename C:\[EAC rip]\Be-Bop Deluxe - Futurama (1975) [flac] {Japan MiniLP}\12 - Speed Of The Wind (Bonus Track).wav

Pre-gap length 0:00:01.09

Peak level 86.6 %
Track quality 100.0 %
Test CRC 01B1FFEE
Copy CRC 01B1FFEE
Copy OK

No errors occured


End of status report


Be Bop Deluxe - Futurama (1975) {2008 Harvest Japan Mini LP TOCP-70359}

Be Bop Deluxe - Futurama (1975) {2008 Harvest Japan Mini LP TOCP-70359}


More Bill Nelson…

NEXT - > Be Bop Deluxe - Sunburst Finish (1976) {Japan Mini LP TOCP-70360}