Subcategories

Various Artists - Beef Ball Baby! The New Orleans R&B Sessions (2015) {Ace Records CDTOP 1435 rec 1947-1949}

Posted By: ruskaval
Various Artists - Beef Ball Baby! The New Orleans R&B Sessions (2015) {Ace Records CDTOP 1435 rec 1947-1949}

Various Artists - Beef Ball Baby! The New Orleans R&B Sessions (2015) {Ace Records CDTOP 1435 rec 1947-1949}
EAC rip (secure mode) | FLAC (tracks)+CUE+LOG -> 197 Mb | MP3 @320 -> 155 Mb
Full Artwork @ 300 dpi (jpg) -> 42 Mb | 5% repair rar
© 1947-49, 2015 Ace Records | CDTOP 1435
Rhythm & Blues / Blues

Stupendously rare or unissued New Orleans R&B and blues in incomparable sound quality. Despite being based in Linden, New Jersey, DeLuxe recorded all across the USA in the company’s formative period in an attempt to score hits. DeLuxe was the first indie to tap into what was going on in the Crescent City in the years immediately following WWII. The label’s biggest find during that time was Roy Brown, the subject of two CDs in our “King & DeLuxe Acetates” series. In “Beef Ball Baby!” you can hear the surviving acetates of some of the other highly talented people DeLuxe recorded in New Orleans in the acetate era.
Various Artists - Beef Ball Baby! The New Orleans R&B Sessions (2015) {Ace Records CDTOP 1435 rec 1947-1949}

Long before Fats Domino took the city’s music to the masses, “Beef Ball Baby!” shows that the New Orleans R&B revolution was already under way. In this package we bring you Chubby “Hip Shakin’” Newsom and her husband-to-be Eddie Gorman, future hit-maker Jewel King and three all-time legends of New Orleans music: Cousin Joe, Smiling (Smiley) Lewis and Dave Bartholomew. In the case of Lewis and Bartholomew, the tracks mark their studio debuts as named artists. Their historical significance is just as significant as their musical value

For years a rumour circulated that the early DeLuxe acetate masters had perished in a warehouse fire. When Alec Palao and I painstakingly packed the surviving King acetates to be shipped to Ace, around a decade ago, we were delighted to find at least 80% of them were not only intact but, for the most part, in pristine condition. Just how clean most of them are can be judged from the sound of this CD – particularly in the four “Smiling” Lewis tracks, which sparkle with such clarity that listeners could almost have been in the room with him when he cut them at what was his first session. The quality of the shellac on which DeLuxe 78s were pressed being as poor as it was, we guarantee you will never have heard any of these tracks, eight of which are previously unissued, sound as good as they do here.
Various Artists - Beef Ball Baby! The New Orleans R&B Sessions (2015) {Ace Records CDTOP 1435 rec 1947-1949}


Track Listing:
1. Answer to Chubby's Bedroom Blues - Eddie Gorman
2. Beef Ball Baby - Eddie Gorman
3. Don't Worry 'Bout Nothin' - Paul Gayten and His Band (Vocal) Eddie Gorman
4. Hey Now - Eddie Gorman
5. Telephone Blues - Eddie Gorman
6. Worrying About My Love - Eddie Gorman
7. You Don't Move Me No More - Eddie Gorman
8. Swimming Blues - Smiling Lewis
9. Turn on Your Volume Baby - Smiling Lewis
10. Here Comes Smiley - Smiling Lewis
11. Love Is Like a Gamble - Smiling Lewis
12. Phoney Women Blues - Cousin Joe & His Sextette
13. Little Woman Blues - Cousin Joe & His Sextette
14. It's Dangerous to Be a Husband - Cousin Joe & His Sextette
15. Give Me a Cue Baby - Jewel King
16. Go Now - Jewel King
17. Passion Blues - Jewel King
18. She's Got Great Big Eyes (And Great Big Thighs) - Dave Bartholomew & His Sextette
19. Dave's Boogie Woogie - Dave Bartholomew & His Sextette
20. Chubby's Confession - Chubby "Hip Shakin"Newsome & Her Hip Shakers
21. Back Bitin' Woman - Chubby "Hip Shakin"Newsome & Her Hip Shakers
22. Bedroom Blues - Chubby "Hip Shakin"Newsome & Her Hip Shakers
23. Close to Train Time - Chubby "Hip Shakin"Newsome & Her Hip Shakers
24. New Orleans Lover Man - Chubby "Hip Shakin"Newsome & Her Hip Shakers

Exact Audio Copy V1.0 beta 6 from 9. April 2015

EAC extraction logfile from 7. May 2016, 17:52

Various Artists / Beef Ball Baby!: The New Orleans R&B Sessions

Used drive : TSSTcorpCDDVDW SH-224BB Adapter: 1 ID: 0

Read mode : Secure
Utilize accurate stream : Yes
Defeat audio cache : Yes
Make use of C2 pointers : No

Read offset correction : 6
Overread into Lead-In and Lead-Out : No
Fill up missing offset samples with silence : Yes
Delete leading and trailing silent blocks : No
Null samples used in CRC calculations : Yes
Used interface : Native Win32 interface for Win NT & 2000
Gap handling : Appended to previous track

Used output format : User Defined Encoder
Selected bitrate : 768 kBit/s
Quality : High
Add ID3 tag : No
Command line compressor : C:\Program Files (x86)\Exact Audio Copy\Flac\flac.exe
Additional command line options : -8 -V -T "ARTIST=%artist%" -T "TITLE=%title%" -T "ALBUM=%albumtitle%" -T "DATE=%year%" -T "TRACKNUMBER=%tracknr%" -T "TOTALTRACKS=%numtracks%" -T "GENRE=%genre%" -T "ALBUMARTIST=%albumartist%" -T "ALBUM ARTIST=%albumartist%" -T "COMMENT=EAC Secure Mode, Test & Copy, AccurateRip, FLAC -8" %source%


TOC of the extracted CD

Track | Start | Length | Start sector | End sector
––––––––––––––––––––––––––––-
1 | 0:00.00 | 2:54.32 | 0 | 13081
2 | 2:54.32 | 2:37.73 | 13082 | 24929
3 | 5:32.30 | 2:44.11 | 24930 | 37240
4 | 8:16.41 | 2:22.17 | 37241 | 47907
5 | 10:38.58 | 2:29.49 | 47908 | 59131
6 | 13:08.32 | 3:08.04 | 59132 | 73235
7 | 16:16.36 | 2:34.61 | 73236 | 84846
8 | 18:51.22 | 2:49.50 | 84847 | 97571
9 | 21:40.72 | 2:40.25 | 97572 | 109596
10 | 24:21.22 | 2:53.45 | 109597 | 122616
11 | 27:14.67 | 2:51.51 | 122617 | 135492
12 | 30:06.43 | 2:38.15 | 135493 | 147357
13 | 32:44.58 | 2:21.13 | 147358 | 157945
14 | 35:05.71 | 2:52.13 | 157946 | 170858
15 | 37:58.09 | 2:41.54 | 170859 | 182987
16 | 40:39.63 | 2:46.23 | 182988 | 195460
17 | 43:26.11 | 2:50.49 | 195461 | 208259
18 | 46:16.60 | 2:53.49 | 208260 | 221283
19 | 49:10.34 | 2:54.19 | 221284 | 234352
20 | 52:04.53 | 2:31.14 | 234353 | 245691
21 | 54:35.67 | 2:09.05 | 245692 | 255371
22 | 56:44.72 | 2:49.35 | 255372 | 268081
23 | 59:34.32 | 2:51.12 | 268082 | 280918
24 | 62:25.44 | 2:52.07 | 280919 | 293825


Track 1

Filename C:\Rips\Various Artists - Beef Ball Baby! The New Orleans R&B Sessions (2015) [FLAC]\01 - Eddie Gorman - Answer To Chubby's Bedroom Blues.wav

Pre-gap length 0:00:02.00

Peak level 95.3 %
Extraction speed 1.6 X
Track quality 100.0 %
Test CRC 5EDC8F8C
Copy CRC 5EDC8F8C
Accurately ripped (confidence 1) [DCAFAFAC] (AR v2)
Copy OK

Track 2

Filename C:\Rips\Various Artists - Beef Ball Baby! The New Orleans R&B Sessions (2015) [FLAC]\02 - Eddie Gorman - Beef Ball Baby.wav

Pre-gap length 0:00:02.06

Peak level 93.4 %
Extraction speed 1.7 X
Track quality 100.0 %
Test CRC 8B83AB65
Copy CRC 8B83AB65
Accurately ripped (confidence 1) [59FEB4FD] (AR v2)
Copy OK

Track 3

Filename C:\Rips\Various Artists - Beef Ball Baby! The New Orleans R&B Sessions (2015) [FLAC]\03 - Paul Gayten & His Band, vocal Eddie Gorman - Don't Worry 'Bout Nothin'.wav

Pre-gap length 0:00:01.74

Peak level 95.5 %
Extraction speed 1.8 X
Track quality 100.0 %
Test CRC 26D0CDAA
Copy CRC 26D0CDAA
Accurately ripped (confidence 1) [4CCB6BEA] (AR v2)
Copy OK

Track 4

Filename C:\Rips\Various Artists - Beef Ball Baby! The New Orleans R&B Sessions (2015) [FLAC]\04 - Eddie Gorman - Hey Now.wav

Pre-gap length 0:00:02.10

Peak level 85.6 %
Extraction speed 1.9 X
Track quality 100.0 %
Test CRC 3A482533
Copy CRC 3A482533
Accurately ripped (confidence 1) [066069F7] (AR v2)
Copy OK

Track 5

Filename C:\Rips\Various Artists - Beef Ball Baby! The New Orleans R&B Sessions (2015) [FLAC]\05 - Eddie Gorman - Telephone Blues.wav

Pre-gap length 0:00:02.14

Peak level 90.0 %
Extraction speed 2.0 X
Track quality 100.0 %
Test CRC 94670F39
Copy CRC 94670F39
Accurately ripped (confidence 1) [4689850B] (AR v2)
Copy OK

Track 6

Filename C:\Rips\Various Artists - Beef Ball Baby! The New Orleans R&B Sessions (2015) [FLAC]\06 - Eddie Gorman - Worrying About My Love.wav

Pre-gap length 0:00:02.19

Peak level 90.6 %
Extraction speed 2.1 X
Track quality 100.0 %
Test CRC F6ECCD51
Copy CRC F6ECCD51
Accurately ripped (confidence 1) [3C5B14CD] (AR v2)
Copy OK

Track 7

Filename C:\Rips\Various Artists - Beef Ball Baby! The New Orleans R&B Sessions (2015) [FLAC]\07 - Eddie Gorman - You Don't Move Me No More.wav

Pre-gap length 0:00:01.68

Peak level 88.7 %
Extraction speed 2.2 X
Track quality 100.0 %
Test CRC 6D34189A
Copy CRC 6D34189A
Accurately ripped (confidence 1) [B7CEA6FF] (AR v2)
Copy OK

Track 8

Filename C:\Rips\Various Artists - Beef Ball Baby! The New Orleans R&B Sessions (2015) [FLAC]\08 - Smiling Lewis - Swimming Blues.wav

Pre-gap length 0:00:02.15

Peak level 89.9 %
Extraction speed 1.8 X
Track quality 99.9 %
Test CRC 11C24D2A
Copy CRC 11C24D2A
Accurately ripped (confidence 1) [DFC9C2CF] (AR v2)
Copy OK

Track 9

Filename C:\Rips\Various Artists - Beef Ball Baby! The New Orleans R&B Sessions (2015) [FLAC]\09 - Smiling Lewis - Turn On Your Volume, Baby.wav

Pre-gap length 0:00:02.19

Peak level 94.1 %
Extraction speed 1.8 X
Track quality 99.9 %
Test CRC 764FC8C0
Copy CRC 764FC8C0
Accurately ripped (confidence 1) [CB02FF14] (AR v2)
Copy OK

Track 10

Filename C:\Rips\Various Artists - Beef Ball Baby! The New Orleans R&B Sessions (2015) [FLAC]\10 - Smiling Lewis - Here Comes Smiley.wav

Pre-gap length 0:00:02.17

Peak level 89.4 %
Extraction speed 1.9 X
Track quality 99.9 %
Test CRC 5A0B8C3E
Copy CRC 5A0B8C3E
Accurately ripped (confidence 1) [EFB238F8] (AR v2)
Copy OK

Track 11

Filename C:\Rips\Various Artists - Beef Ball Baby! The New Orleans R&B Sessions (2015) [FLAC]\11 - Smiling Lewis - Love Is Like A Gamble.wav

Pre-gap length 0:00:02.12

Peak level 89.4 %
Extraction speed 2.6 X
Track quality 100.0 %
Test CRC B890564A
Copy CRC B890564A
Accurately ripped (confidence 1) [E32D6EE7] (AR v2)
Copy OK

Track 12

Filename C:\Rips\Various Artists - Beef Ball Baby! The New Orleans R&B Sessions (2015) [FLAC]\12 - Cousin Joe & His Sextette - Phoney Woman Blues.wav

Pre-gap length 0:00:02.27

Peak level 95.5 %
Extraction speed 2.6 X
Track quality 100.0 %
Test CRC 7BA04DDE
Copy CRC 7BA04DDE
Accurately ripped (confidence 1) [B018944B] (AR v2)
Copy OK

Track 13

Filename C:\Rips\Various Artists - Beef Ball Baby! The New Orleans R&B Sessions (2015) [FLAC]\13 - Cousin Joe & His Sextette - Little Woman Blues.wav

Pre-gap length 0:00:02.19

Peak level 95.4 %
Extraction speed 2.6 X
Track quality 100.0 %
Test CRC B83CE93A
Copy CRC B83CE93A
Accurately ripped (confidence 1) [7963013E] (AR v2)
Copy OK

Track 14

Filename C:\Rips\Various Artists - Beef Ball Baby! The New Orleans R&B Sessions (2015) [FLAC]\14 - Cousin Joe & His Sextette - It's Dangerous To Be A Husband.wav

Pre-gap length 0:00:02.18

Peak level 95.5 %
Extraction speed 2.8 X
Track quality 100.0 %
Test CRC D76AB1B3
Copy CRC D76AB1B3
Accurately ripped (confidence 1) [8E88352E] (AR v2)
Copy OK

Track 15

Filename C:\Rips\Various Artists - Beef Ball Baby! The New Orleans R&B Sessions (2015) [FLAC]\15 - Jewel King - Give Me A Cue Baby.wav

Pre-gap length 0:00:02.03

Peak level 91.3 %
Extraction speed 2.8 X
Track quality 100.0 %
Test CRC F066F221
Copy CRC F066F221
Accurately ripped (confidence 1) [955ECD3D] (AR v2)
Copy OK

Track 16

Filename C:\Rips\Various Artists - Beef Ball Baby! The New Orleans R&B Sessions (2015) [FLAC]\16 - Jewel King - Go Now.wav

Pre-gap length 0:00:02.06

Peak level 95.5 %
Extraction speed 2.0 X
Track quality 99.9 %
Test CRC FC606104
Copy CRC FC606104
Accurately ripped (confidence 1) [F2691923] (AR v2)
Copy OK

Track 17

Filename C:\Rips\Various Artists - Beef Ball Baby! The New Orleans R&B Sessions (2015) [FLAC]\17 - Jewel King - Passion Blues.wav

Pre-gap length 0:00:02.12

Peak level 90.3 %
Extraction speed 2.0 X
Track quality 99.9 %
Test CRC 4F5D4BFC
Copy CRC 4F5D4BFC
Accurately ripped (confidence 1) [383454AA] (AR v2)
Copy OK

Track 18

Filename C:\Rips\Various Artists - Beef Ball Baby! The New Orleans R&B Sessions (2015) [FLAC]\18 - Dave Bartholomew & His Sextette - She's Got Great Big Eyes (And Great Big Thighs).wav

Pre-gap length 0:00:02.28

Peak level 85.2 %
Extraction speed 3.0 X
Track quality 100.0 %
Test CRC AEFCBB2E
Copy CRC AEFCBB2E
Accurately ripped (confidence 1) [5C2FA302] (AR v2)
Copy OK

Track 19

Filename C:\Rips\Various Artists - Beef Ball Baby! The New Orleans R&B Sessions (2015) [FLAC]\19 - Dave Bartholomew & His Sextette - Dave's Boogie Woogie.wav

Pre-gap length 0:00:01.67

Peak level 95.5 %
Extraction speed 2.2 X
Track quality 99.9 %
Test CRC 5ECF72FC
Copy CRC 5ECF72FC
Accurately ripped (confidence 1) [9AF1997F] (AR v2)
Copy OK

Track 20

Filename C:\Rips\Various Artists - Beef Ball Baby! The New Orleans R&B Sessions (2015) [FLAC]\20 - Chubby ''Hip Shakin'' Newsom & Her Hip Shakers - Chubby's Confession.wav

Pre-gap length 0:00:02.08

Peak level 90.5 %
Extraction speed 3.1 X
Track quality 100.0 %
Test CRC 1BB09570
Copy CRC 1BB09570
Accurately ripped (confidence 1) [96ADB31D] (AR v2)
Copy OK

Track 21

Filename C:\Rips\Various Artists - Beef Ball Baby! The New Orleans R&B Sessions (2015) [FLAC]\21 - Chubby ''Hip Shakin'' Newsom & Her Hip Shakers - Back Bitin' Woman.wav

Pre-gap length 0:00:02.19

Peak level 95.5 %
Extraction speed 3.0 X
Track quality 100.0 %
Test CRC 663908A2
Copy CRC 663908A2
Accurately ripped (confidence 1) [7A730364] (AR v2)
Copy OK

Track 22

Filename C:\Rips\Various Artists - Beef Ball Baby! The New Orleans R&B Sessions (2015) [FLAC]\22 - Chubby ''Hip Shakin'' Newsom & Her Hip Shakers - Bedroom Blues.wav

Pre-gap length 0:00:02.05

Peak level 95.4 %
Extraction speed 3.2 X
Track quality 100.0 %
Test CRC 9871863E
Copy CRC 9871863E
Accurately ripped (confidence 1) [0EAAB849] (AR v2)
Copy OK

Track 23

Filename C:\Rips\Various Artists - Beef Ball Baby! The New Orleans R&B Sessions (2015) [FLAC]\23 - Chubby ''Hip Shakin'' Newsom & Her Hip Shakers - Close To Train Time.wav

Pre-gap length 0:00:01.74

Peak level 95.5 %
Extraction speed 3.3 X
Track quality 100.0 %
Test CRC AB9B6AB8
Copy CRC AB9B6AB8
Accurately ripped (confidence 1) [60C172B9] (AR v2)
Copy OK

Track 24

Filename C:\Rips\Various Artists - Beef Ball Baby! The New Orleans R&B Sessions (2015) [FLAC]\24 - Chubby ''Hip Shakin'' Newsom & Her Hip Shakers - New Orleans Lover Man.wav

Pre-gap length 0:00:01.68

Peak level 95.5 %
Extraction speed 3.4 X
Track quality 100.0 %
Test CRC 8F9BE1B3
Copy CRC 8F9BE1B3
Accurately ripped (confidence 1) [89D58D94] (AR v2)
Copy OK


All tracks accurately ripped

No errors occurred

End of status report

–– CUETools DB Plugin V2.1.6

[CTDB TOCID: RbH1ggIZcct3st3N3e.IMzSlPNY-] found
Submit result: RbH1ggIZcct3st3N3e.IMzSlPNY- has been confirmed
Track | CTDB Status
1 | (1/1) Accurately ripped
2 | (1/1) Accurately ripped
3 | (1/1) Accurately ripped
4 | (1/1) Accurately ripped
5 | (1/1) Accurately ripped
6 | (1/1) Accurately ripped
7 | (1/1) Accurately ripped
8 | (1/1) Accurately ripped
9 | (1/1) Accurately ripped
10 | (1/1) Accurately ripped
11 | (1/1) Accurately ripped
12 | (1/1) Accurately ripped
13 | (1/1) Accurately ripped
14 | (1/1) Accurately ripped
15 | (1/1) Accurately ripped
16 | (1/1) Accurately ripped
17 | (1/1) Accurately ripped
18 | (1/1) Accurately ripped
19 | (1/1) Accurately ripped
20 | (1/1) Accurately ripped
21 | (1/1) Accurately ripped
22 | (1/1) Accurately ripped
23 | (1/1) Accurately ripped
24 | (1/1) Accurately ripped


==== Log checksum 358C9B8214455DC3CF784A5FCF0047E3FF76BC82595CE25CB02CE4FCE63335E0 ====


Various Artists - Beef Ball Baby! The New Orleans R&B Sessions (2015) {Ace Records CDTOP 1435 rec 1947-1949}

Various Artists - Beef Ball Baby! The New Orleans R&B Sessions (2015) {Ace Records CDTOP 1435 rec 1947-1949}



===