Subcategories

Berry Sakharof - All Or Nothing (1991)

Posted By: Domestos
Berry Sakharof - All Or Nothing (1991)

Berry Sakharof - All Or Nothing (1991)
EAC Rip | FLAC (tracks+.cue, log) ~ 357.30 Mb | 54:59 | Covers
Pop Rock, Alternative Rock, Post-Punk | Country: Israel | Label: Nana Disc - CD 2001

Berry Sakharof (born 7 July 1957) is an Israeli rock guitarist, songwriter and singer. Sakharof is one of Israel's most popular and critically acclaimed rock musicians, and is often referred to as "the prince of Israeli rock".

===
Discogs | Amazon | Wiki
===


Track List:
1. Pressure = לחץ 04:46 (Berry Sakharof, Rami Fortis, Samy Birnbach)
2. The Man In The Wall = האיש שבקיר 03:39 (Yehuda Faradis - Meir Harnik)
3. Blind Faith = אמונה עיוורת 04:53 (Rami Fortis - Berry Sakharof)
4. Sick Evening = ערב חולה 04:06 (Eran Zur - Berry Sakharof)
5. The Garden's Keeper = השומר של הגן 03:51 (Dan Toren - Berry Sakharof)
6. There There Is = שם יש 02:47 (Yona Wallach - Berry Sakharof)
7. Spaceships = חלליות 04:25 (Rami Fortis - Berry Sakharof)
8. I Don't Love Her = אינני אוהב אותה 04:30 (Shaul Tchernichovsky - Berry Sakharof)
9. Nymph = נימפה 04:07 (Eran Zur - Berry Sakharof)
10. An Invitation For A Daily Show = הזמנה להצגה יומית 04:18 (David Avidan - Berry Sakharof)
11. Cats = חתולים 04:22 (Berry Sakharof)
12. Up = למעלה 03:46 (Berry Sakharof, Rami Fortis - Berry Sakharof)
13. All Or Nothing = הכל או כלום 05:28 ()

Berry Sakharof - All Or Nothing (1991)

Exact Audio Copy V0.99 prebeta 4 from 23. January 2008

EAC extraction logfile from 4. January 2009, 9:26

??? ????? / ??? ?? ????

Used drive : ATAPI CDRW 5232X Adapter: 1 ID: 1

Read mode : Secure
Utilize accurate stream : Yes
Defeat audio cache : Yes
Make use of C2 pointers : No

Read offset correction : 738
Overread into Lead-In and Lead-Out : No
Fill up missing offset samples with silence : Yes
Delete leading and trailing silent blocks : No
Null samples used in CRC calculations : Yes
Used interface : Installed external ASPI interface
Gap handling : Appended to previous track

Used output format : User Defined Encoder
Selected bitrate : 128 kBit/s
Quality : High
Add ID3 tag : No
Command line compressor : C:\Program Files\FLAC\flac.exe
Additional command line options : -8 -V -T "ARTIST=%a" -T "TITLE=%t" -T "ALBUM=%g" -T "DATE=%y" -T "TRACKNUMBER=%n" -T "GENRE=%m" -T "COMMENT=EAC FLAC -8" %s


TOC of the extracted CD

Track | Start | Length | Start sector | End sector
––––––––––––––––––––––––––––-
1 | 0:00.00 | 4:46.62 | 0 | 21511
2 | 4:46.62 | 3:39.00 | 21512 | 37936
3 | 8:25.62 | 4:53.00 | 37937 | 59911
4 | 13:18.62 | 4:06.00 | 59912 | 78361
5 | 17:24.62 | 3:51.00 | 78362 | 95686
6 | 21:15.62 | 2:47.00 | 95687 | 108211
7 | 24:02.62 | 4:25.00 | 108212 | 128086
8 | 28:27.62 | 4:30.00 | 128087 | 148336
9 | 32:57.62 | 4:07.00 | 148337 | 166861
10 | 37:04.62 | 4:18.00 | 166862 | 186211
11 | 41:22.62 | 4:22.00 | 186212 | 205861
12 | 45:44.62 | 3:46.00 | 205862 | 222811
13 | 49:30.62 | 5:28.13 | 222812 | 247424


Track 1

Filename C:\Documents and Settings\Administrator.CROW2004\My Documents\01 - .wav

Pre-gap length 0:00:02.00

Peak level 94.6 %
Track quality 100.0 %
Test CRC 0982CFE6
Copy CRC 0982CFE6
Track not present in AccurateRip database
Copy OK

Track 2

Filename C:\Documents and Settings\Administrator.CROW2004\My Documents\02 - .wav

Pre-gap length 0:00:00.68

Peak level 64.0 %
Track quality 100.0 %
Test CRC 8DA9FC53
Copy CRC 8DA9FC53
Track not present in AccurateRip database
Copy OK

Track 3

Filename C:\Documents and Settings\Administrator.CROW2004\My Documents\03 - .wav

Pre-gap length 0:00:00.84

Peak level 81.9 %
Track quality 100.0 %
Test CRC CF301772
Copy CRC CF301772
Track not present in AccurateRip database
Copy OK

Track 4

Filename C:\Documents and Settings\Administrator.CROW2004\My Documents\04 - .wav

Pre-gap length 0:00:00.77

Peak level 93.6 %
Track quality 100.0 %
Test CRC D3AF8854
Copy CRC D3AF8854
Track not present in AccurateRip database
Copy OK

Track 5

Filename C:\Documents and Settings\Administrator.CROW2004\My Documents\05 - .wav

Pre-gap length 0:00:00.81

Peak level 99.0 %
Track quality 100.0 %
Test CRC 115DD9A5
Copy CRC 115DD9A5
Track not present in AccurateRip database
Copy OK

Track 6

Filename C:\Documents and Settings\Administrator.CROW2004\My Documents\06 - .wav

Pre-gap length 0:00:00.01

Peak level 72.4 %
Track quality 100.0 %
Test CRC 3C5FB1BA
Copy CRC 3C5FB1BA
Track not present in AccurateRip database
Copy OK

Track 7

Filename C:\Documents and Settings\Administrator.CROW2004\My Documents\07 - .wav

Pre-gap length 0:00:01.84

Peak level 98.9 %
Track quality 99.9 %
Test CRC 5EF5EA44
Copy CRC 5EF5EA44
Track not present in AccurateRip database
Copy OK

Track 8

Filename C:\Documents and Settings\Administrator.CROW2004\My Documents\08 - .wav

Pre-gap length 0:00:00.01

Peak level 99.0 %
Track quality 100.0 %
Test CRC E34C79A9
Copy CRC E34C79A9
Track not present in AccurateRip database
Copy OK

Track 9

Filename C:\Documents and Settings\Administrator.CROW2004\My Documents\09 - .wav

Pre-gap length 0:00:00.74

Peak level 92.3 %
Track quality 100.0 %
Test CRC 73C32FC4
Copy CRC 73C32FC4
Track not present in AccurateRip database
Copy OK

Track 10

Filename C:\Documents and Settings\Administrator.CROW2004\My Documents\10 - .wav

Pre-gap length 0:00:00.82

Peak level 99.0 %
Track quality 99.9 %
Test CRC 88A5D4A5
Copy CRC 88A5D4A5
Track not present in AccurateRip database
Copy OK

Track 11

Filename C:\Documents and Settings\Administrator.CROW2004\My Documents\11 - .wav

Pre-gap length 0:00:00.84

Peak level 98.4 %
Track quality 99.9 %
Test CRC F81BAC9B
Copy CRC F81BAC9B
Track not present in AccurateRip database
Copy OK

Track 12

Filename C:\Documents and Settings\Administrator.CROW2004\My Documents\12 - .wav

Pre-gap length 0:00:01.85

Peak level 89.6 %
Track quality 100.0 %
Test CRC 72D0F730
Copy CRC 72D0F730
Track not present in AccurateRip database
Copy OK

Track 13

Filename C:\Documents and Settings\Administrator.CROW2004\My Documents\13 - .wav

Pre-gap length 0:00:00.04

Peak level 87.8 %
Track quality 100.0 %
Test CRC 8401FDE5
Copy CRC 8401FDE5
Track not present in AccurateRip database
Copy OK


None of the tracks are present in the AccurateRip database

No errors occurred

End of status report

All thanks go to the RED

More Music in My Blog
Follow My RSS Channel