Bessie Smith - The Essential Bessie Smith (1997)

Posted By: thingska
Bessie Smith - The Essential Bessie Smith (1997)

Bessie Smith - The Essential Bessie Smith (1997)
2CD | EAC-Rip | FLAC-image +cue +log +Booklet/SCANS | September 23, 1997 | 457 Mb
Genre: Blues | RAR 3% Rec. | Label: Sony | Hotfile, Fileserve

Bessie Smith was crowned the Empress of the Blues, and, while this moniker was well deserved, she was much more. A prolific recording artist, Smith was quite an eclectic performer. In fact, she may have been one of the first true crossover artists. This neat two-disc set gives the listener a good sampling of her wide repertoire. Smith is backed up by some of the best jazz musicians of her era. Her rendition of "St Louis Blues" for example, features the horn work of a young Louis Armstrong. Smith was not above doing such suggestive material as "Kitchen Man" or "Need a Little Sugar in My Bowl" and could breath new life into a pop chestnut like "Alexander's Ragtime Band." And when Smith sang "Nobody Knows You When You're Down and Out," she knew what she was talking about. The title of this album says it all.
Bessie Smith - The Essential Bessie Smith (1997)
Tracklist:

CD 1
01. Aggravatin' Papa
02. Baby Won't You Please Come Home
03. 'Taint Nobody's Bizness If I Do
04. Jail-House Blues
05. Graveyard Dream Blues
06. Ticket Agent, Ease Your Window Down
07. Boweavil Blues
08. Weeping Willow Blues
09. Dying Gambler's Blues
10. St. Louis Blues
11. You've Been A Good Ole Wagon
12. Cake Walkin' Babies From Home
13. Careless Love Blues
14. I Ain't Goin' To Play Second Fiddle
15. At The Christmas Ball
16. Jazzbo Brown From Memphis Town
17. Backwater Blues
18. After You've Gone

Exact Audio Copy V0.99 prebeta 4 from 23. January 2008

Отчёт EAC об извлечении, выполненном 3. сентября 2010, 20:54

Bessie Smith / The Essential Bessie Smith - Disc 1

Дисковод: PIONEER DVD-RW DVR-110D Adapter: 1 ID: 1

Режим чтения : Достоверность
Использование точного потока : Да
Отключение кэша аудио : Да
Использование указателей C2 : Нет

Коррекция смещения при чтении : 48
Способность читать области Lead-in и Lead-out : Нет
Заполнение пропущенных сэмплов тишиной : Да
Удаление блоков с тишиной в начале и конце : Нет
При вычислениях CRC использовались нулевые сэмплы : Да
Интерфейс : Встроенный Win32-интерфейс для Win NT/2000

Выходной формат : Пользовательский кодировщик
Выбранный битрейт : 896 kBit/s
Качество : Высокий
Добавление ID3-тэга : Нет
Утилита сжатия : C:\Program Files\Exact Audio Copy\FLAC\FLAC.EXE
Дополнительные параметры : -6 -V -T "ARTIST=%a" -T "TITLE=%t" -T "ALBUM=%g" -T "DATE=%y" -T "TRACKNUMBER=%n" -T "GENRE=%m" -T "COMMENT=%e" %s -o %d

TOC извлечённого CD

Трек | Старт | Длительность | Начальный сектор | Конечный сектор
––––––––––––––––––––––––––––––––––-
1 | 0:00.00 | 3:18.57 | 0 | 14906
2 | 3:18.57 | 2:57.15 | 14907 | 28196
3 | 6:15.72 | 3:27.73 | 28197 | 43794
4 | 9:43.70 | 3:15.12 | 43795 | 58431
5 | 12:59.07 | 2:45.15 | 58432 | 70821
6 | 15:44.22 | 3:19.60 | 70822 | 85806
7 | 19:04.07 | 2:53.33 | 85807 | 98814
8 | 21:57.40 | 3:11.20 | 98815 | 113159
9 | 25:08.60 | 2:59.17 | 113160 | 126601
10 | 28:08.02 | 3:11.43 | 126602 | 140969
11 | 31:19.45 | 3:28.50 | 140970 | 156619
12 | 34:48.20 | 3:10.65 | 156620 | 170934
13 | 37:59.10 | 3:26.52 | 170935 | 186436
14 | 41:25.62 | 3:22.68 | 186437 | 201654
15 | 44:48.55 | 3:25.52 | 201655 | 217081
16 | 48:14.32 | 3:20.53 | 217082 | 232134
17 | 51:35.10 | 3:19.17 | 232135 | 247076
18 | 54:54.27 | 2:55.73 | 247077 | 260274

Характеристики диапазона извлечения и сообщения об ошибках

Выбранный диапазон

Имя файла G:\Torrents\The Essential Bessie Smith\CD 1\The Essential Bessie Smith - Disc 1.wav

Пиковый уровень 99.9 %
Качество диапазона 100.0 %
CRC теста 90D535BD
CRC копии 90D535BD
Копирование… OK

Ошибок не произошло

AccurateRip: сводка

Трек 1 точное извлечение (доверие 2) [ECEAE88F]
Трек 2 точное извлечение (доверие 2) [F277EA31]
Трек 3 точное извлечение (доверие 2) [514C4A00]
Трек 4 точное извлечение (доверие 2) [95392DB1]
Трек 5 точное извлечение (доверие 2) [9755B2F7]
Трек 6 точное извлечение (доверие 2) [DC04D5C5]
Трек 7 точное извлечение (доверие 2) [7CC19B57]
Трек 8 точное извлечение (доверие 2) [2F9AA9EF]
Трек 9 точное извлечение (доверие 2) [82AC2C63]
Трек 10 точное извлечение (доверие 2) [12D717C9]
Трек 11 точное извлечение (доверие 2) [7362B6A1]
Трек 12 точное извлечение (доверие 2) [092A5E1E]
Трек 13 точное извлечение (доверие 2) [5222822D]
Трек 14 точное извлечение (доверие 2) [89FE4948]
Трек 15 точное извлечение (доверие 2) [DE889286]
Трек 16 точное извлечение (доверие 2) [5C1567A8]
Трек 17 точное извлечение (доверие 2) [F035A4BD]
Трек 18 точное извлечение (доверие 2) [37509F9D]

Все треки извлечены точно

Конец отчёта


CD 2
01. Alexander's Ragtime Band
02. There'll Be A Hot Time In The Old Town Tonight
03. Trombone Cholly
04. Send Me To The 'Lectric Chair
05. A Good Man Is Hard To Find
06. Dyin' By The Hour
07. Me And My Gin
08. Kitchen Man
09. Nobody Knows You When You're Down And Out
10. On Revival Day (A Rhythmic Spiritual)
11. Moan, You Moaners
12. Black Mountain Blues
13. Shipwreck Blues
14. Need A Little Sugar In My Bowl
15. Do Your Duty
16. Gimme A Pigfoot And A Bottle Of Beer
17. Take Me For A Buggy Ride
18. Down In The Dumps

Exact Audio Copy V0.99 prebeta 4 from 23. January 2008

Отчёт EAC об извлечении, выполненном 3. сентября 2010, 21:14

Bessie Smith / The Essential Bessie Smith - Disc 2

Дисковод: PIONEER DVD-RW DVR-110D Adapter: 1 ID: 1

Режим чтения : Достоверность
Использование точного потока : Да
Отключение кэша аудио : Да
Использование указателей C2 : Нет

Коррекция смещения при чтении : 48
Способность читать области Lead-in и Lead-out : Нет
Заполнение пропущенных сэмплов тишиной : Да
Удаление блоков с тишиной в начале и конце : Нет
При вычислениях CRC использовались нулевые сэмплы : Да
Интерфейс : Встроенный Win32-интерфейс для Win NT/2000

Выходной формат : Пользовательский кодировщик
Выбранный битрейт : 896 kBit/s
Качество : Высокий
Добавление ID3-тэга : Нет
Утилита сжатия : C:\Program Files\Exact Audio Copy\FLAC\FLAC.EXE
Дополнительные параметры : -6 -V -T "ARTIST=%a" -T "TITLE=%t" -T "ALBUM=%g" -T "DATE=%y" -T "TRACKNUMBER=%n" -T "GENRE=%m" -T "COMMENT=%e" %s -o %d

TOC извлечённого CD

Трек | Старт | Длительность | Начальный сектор | Конечный сектор
––––––––––––––––––––––––––––––––––-
1 | 0:00.00 | 3:00.62 | 0 | 13561
2 | 3:00.62 | 3:20.10 | 13562 | 28571
3 | 6:20.72 | 3:11.53 | 28572 | 42949
4 | 9:32.50 | 3:22.47 | 42950 | 58146
5 | 12:55.22 | 2:59.55 | 58147 | 71626
6 | 15:55.02 | 2:59.50 | 71627 | 85101
7 | 18:54.52 | 2:50.55 | 85102 | 97906
8 | 21:45.32 | 2:56.68 | 97907 | 111174
9 | 24:42.25 | 2:58.25 | 111175 | 124549
10 | 27:40.50 | 2:56.45 | 124550 | 137794
11 | 30:37.20 | 3:12.72 | 137795 | 152266
12 | 33:50.17 | 3:08.43 | 152267 | 166409
13 | 36:58.60 | 3:21.57 | 166410 | 181541
14 | 40:20.42 | 2:48.40 | 181542 | 194181
15 | 43:09.07 | 3:26.35 | 194182 | 209666
16 | 46:35.42 | 3:30.43 | 209667 | 225459
17 | 50:06.10 | 2:37.00 | 225460 | 237234
18 | 52:43.10 | 3:09.35 | 237235 | 251444

Характеристики диапазона извлечения и сообщения об ошибках

Выбранный диапазон

Имя файла G:\Torrents\The Essential Bessie Smith\CD 2\The Essential Bessie Smith - Disc 2.wav

Пиковый уровень 99.9 %
Качество диапазона 100.0 %
CRC теста 4839FA48
CRC копии 4839FA48
Копирование… OK

Ошибок не произошло

AccurateRip: сводка

Трек 1 точное извлечение (доверие 3) [D3B5AE4A]
Трек 2 точное извлечение (доверие 3) [A99B89C4]
Трек 3 точное извлечение (доверие 3) [E3B4CFEB]
Трек 4 точное извлечение (доверие 3) [01B47FAC]
Трек 5 точное извлечение (доверие 3) [32B192B7]
Трек 6 точное извлечение (доверие 3) [5A1DE230]
Трек 7 точное извлечение (доверие 3) [21C98CC6]
Трек 8 точное извлечение (доверие 3) [483FCB31]
Трек 9 точное извлечение (доверие 3) [E73BAE22]
Трек 10 точное извлечение (доверие 3) [C5FC28DE]
Трек 11 точное извлечение (доверие 3) [7EDAFFCD]
Трек 12 точное извлечение (доверие 3) [7463753F]
Трек 13 точное извлечение (доверие 3) [09711E3E]
Трек 14 точное извлечение (доверие 2) [172AA423]
Трек 15 точное извлечение (доверие 3) [BC23E81E]
Трек 16 точное извлечение (доверие 3) [1289D0C2]
Трек 17 точное извлечение (доверие 3) [931FF1F2]
Трек 18 точное извлечение (доверие 2) [01E0BDBD]

Все треки извлечены точно

Конец отчёта

Bessie Smith - The Essential Bessie Smith (1997)

Personnel: Bessie Smith (vocals); The Bessemer Singers (vocals); Bobby Johnson, Jr., Eddie Lang, Lincoln M. Conaway (guitar); Buddy Christian , Charlie Dixon (banjo); Robert Robbins (violin); Coleman Hawkins (clarinet, tenor saxophone); Ernest Elliott, Benny Goodman, Buster Bailey (clarinet); Garvin Bushell (alto saxophone); Chu Berry, Greely Walton (tenor saxophone); Frankie Newton (trumpet); Louisa Metcalfe, Ed Allen, Joe Smith , Joe "Fox" Smith , Louis Armstrong, Tommy Ladnier (cornet); Jack Teagarden, Jimmy Harrison, Charlie Green (trombone); June Cole Orchestra, Cyrus St. Clair, June Cole, Bob Escudero (tuba); Fred Longshaw (piano, reed organ); Clarence Williams, Fletcher Henderson, Irving Johns, James P. Johnson, Jimmy Jones , Steve Stevens , Porter Grainger, Buck Washington (piano); Floyd Casey (drums).

Download Bessie Smith - The Essential Bessie Smith (1997):


Thanks to the original Publicist "zhconst"

Please DO NOT MIRROR