Subcategories

Big Band Collector's Series - 5 Releases (1997-1998)

Posted By: Domestos
Big Band Collector's Series - 5 Releases (1997-1998)

Big Band Collector's Series - 5 Releases (1997-1998)
EAC Rip | FLAC (image+.cue, log) ~ 1,25 Gb | 02:36:21 | Scans included
Jazz, Swing | Label: Green Hill

Original Big Band recordings digitally re-mastered for high quality sound while preserving the authenticity of the timeless recordings. Five volumes of the successful Big Band Collector's Series together. Over 45 songs total!

Big Band Collector's Series - 5 Releases (1997-1998)

Members of the Artie Shaw Orchestra - A Tribute To Artie Shaw (1997)
EAC Rip | FLAC (image+.cue, log) ~ 190.88 Mb + 45.96 Mb (Scans) | 30:53
Big Band, Swing | Label: Green Hill (GHD5054)

Artie Shaw (born Arthur Jacob Arshawsky; May 23, 1910 – December 30, 2004) was an American clarinetist, composer, bandleader, and actor. Also an author, Shaw wrote both fiction and non-fiction.

Widely regarded as "one of jazz's finest clarinetists," Shaw led one of the United States' most popular big bands in the late 1930s through the early 1940s. Though he had numerous hit records, he was perhaps best known for his 1938 recording of Cole Porter's "Begin the Beguine." Prior to the release of "Beguine," Shaw and his fledgling band had languished in relative obscurity for over two years and, after its release, he became a major pop artist within short order. The record eventually became one of the era's defining recordings. Musically restless, Shaw was also an early proponent of what became known much later as Third Stream music, which blended elements of classical and jazz forms and traditions. His music influenced other musicians, such as Monty Norman in England, with the vamp of the James Bond Theme, possibly influenced by "Nightmare," which also has a similar vamp to Kurt Weill's "Lonely House."

Shaw also recorded with small jazz groups drawn from within the ranks of the various big bands he led. He served in the US Navy from 1942 to 1944, (during which time he led a morale-building band that toured the South Pacific amidst the chaos of World War II) and, following his discharge in 1944, he returned to lead a band through 1945. Following the breakup of that band, he began to focus on other interests and gradually withdrew from the world of being a professional musician and major celebrity, although he remained a force in popular music and jazz before retiring from music completely in 1954.

Track List:
01. Stardust (3:28)
02. Frenesi (3:21)
03. Temptation (3:03)
04. Moon Glow (3:14)
05. Nightmare (2:37)
06. Ziguener (2:35)
07. Really The Blues (9:31)
08. La Paloma (3:06)

Exact Audio Copy V1.0 beta 3 from 29. August 2011

EAC extraction logfile from 10. July 2017, 0:26

Artie Shaw / A Tribute to Artie Shaw

Used drive : PIONEER BD-RW BDR-TD03 Adapter: 0 ID: 1

Read mode : Secure
Utilize accurate stream : Yes
Defeat audio cache : Yes
Make use of C2 pointers : No

Read offset correction : 667
Overread into Lead-In and Lead-Out : No
Fill up missing offset samples with silence : Yes
Delete leading and trailing silent blocks : No
Null samples used in CRC calculations : Yes
Used interface : Native Win32 interface for Win NT & 2000

Used output format : User Defined Encoder
Selected bitrate : 768 kBit/s
Quality : High
Add ID3 tag : No
Command line compressor : C:\Program Files (x86)\Exact Audio Copy\FLAC\FLAC.EXE
Additional command line options : -6 -V -T "ARTIST=%artist%" -T "TITLE=%title%" -T "ALBUM=%albumtitle%" -T "DATE=%year%" -T "TRACKNUMBER=%tracknr%" -T "GENRE=%genre%" -T "COMMENT=%comment%" -T "BAND=%albuminterpret%" -T "ALBUMARTIST=%albuminterpret%" -T "COMPOSER=%composer%" %haslyrics%–tag-from-file=LYRICS="%lyricsfile%"%haslyrics% -T "DISCNUMBER=%cdnumber%" -T "TOTALDISCS=%totalcds%" -T "TOTALTRACKS=%numtracks%" %hascover%–picture="%coverfile%"%hascover% %source% -o %dest%

TOC of the extracted CD

Track | Start | Length | Start sector | End sector
––––––––––––––––––––––––––––-
1 | 0:00.00 | 3:27.55 | 0 | 15579
2 | 3:27.55 | 3:20.62 | 15580 | 30641
3 | 6:48.42 | 3:02.40 | 30642 | 44331
4 | 9:51.07 | 3:14.30 | 44332 | 58911
5 | 13:05.37 | 2:37.30 | 58912 | 70716
6 | 15:42.67 | 2:34.40 | 70717 | 82306
7 | 18:17.32 | 9:30.40 | 82307 | 125096
8 | 27:47.72 | 3:05.40 | 125097 | 139011

Range status and errors

Selected range

Filename C:\Users\Deris\Desktop\kpnemo.eu\BigBanShaw\Artie Shaw - A Tribute to Artie Shaw.wav

Peak level 90.8 %
Extraction speed 1.5 X
Range quality 100.0 %
Test CRC 78B88ACA
Copy CRC 78B88ACA
Copy OK

No errors occurred

AccurateRip summary

Track 1 accurately ripped (confidence 4) [05DF6BA0] (AR v2)
Track 2 accurately ripped (confidence 4) [4227450F] (AR v2)
Track 3 accurately ripped (confidence 4) [6D6A33EA] (AR v2)
Track 4 accurately ripped (confidence 4) [61C26C04] (AR v2)
Track 5 accurately ripped (confidence 4) [8BA51F8D] (AR v2)
Track 6 accurately ripped (confidence 4) [BC231E11] (AR v2)
Track 7 accurately ripped (confidence 4) [15720D3C] (AR v2)
Track 8 accurately ripped (confidence 4) [85EF6B26] (AR v2)

All tracks accurately ripped

End of status report

–– CUETools DB Plugin V2.1.3

[CTDB TOCID: UIz3DB6jyLMHT5uD4wNQiosgJzk-] found, Submit result: UIz3DB6jyLMHT5uD4wNQiosgJzk- has been confirmed
[fa309421] (9/9) Accurately ripped

==== Log checksum E4A1B36E45E16EE25469B3827F8EC00E48F9151CBC9E527226653AE7D42E4ECF ====


Big Band Collector's Series - 5 Releases (1997-1998)

Members Of The Tommy Dorsey Orchestra - A Tribute To Tommy Dorsey (1997)
EAC Rip | FLAC (image+.cue, log) ~ 197.07 Mb + 63.35 Mb (Scans) | 31:46
Jazz, Swing | Label: Green Hill (GHD5052)

Thomas Francis "Tommy" Dorsey Jr. (November 19, 1905 – November 26, 1956) was an American jazz trombonist, composer, conductor and bandleader of the Big Band era. He was known as the "Sentimental Gentleman of Swing", because of his smooth-toned trombone playing. His technical skill on the trombone gave him renown among other musicians. He was the younger brother of bandleader Jimmy Dorsey. After Dorsey broke with his brother in the mid-1930s, he led an extremely popular and highly successful band from the late 1930s into the 1950s. He is best remembered for standards such as "Opus One," "Song of India," "Marie," "On Treasure Island," and his biggest hit single "I'll Never Smile Again."

Track List:
01. Opus One (3:02)
02. I'll Never Smile Again (3:50)
03. We'll Git It (2:57)
04. Swing Low, Sweet Chariot (2:23)
05. I'm Getting Sentimental Over You (3:45)
06. Every Time I Feel The Spirit (3:20)
07. Wade In The Water (3:24)
08. Somebody's Knockin' At Your Door (3:12)
09. Deep River (3:13)
10. Dry Bones (2:40)

Exact Audio Copy V1.0 beta 3 from 29. August 2011

EAC extraction logfile from 1. July 2017, 15:38

Tommy Dorsey / A Tribute To Tommy Dorsey

Used drive : PIONEER BD-RW BDR-TD03 Adapter: 0 ID: 1

Read mode : Secure
Utilize accurate stream : Yes
Defeat audio cache : Yes
Make use of C2 pointers : No

Read offset correction : 667
Overread into Lead-In and Lead-Out : No
Fill up missing offset samples with silence : Yes
Delete leading and trailing silent blocks : No
Null samples used in CRC calculations : Yes
Used interface : Native Win32 interface for Win NT & 2000

Used output format : User Defined Encoder
Selected bitrate : 768 kBit/s
Quality : High
Add ID3 tag : No
Command line compressor : C:\Program Files (x86)\Exact Audio Copy\FLAC\FLAC.EXE
Additional command line options : -6 -V -T "ARTIST=%artist%" -T "TITLE=%title%" -T "ALBUM=%albumtitle%" -T "DATE=%year%" -T "TRACKNUMBER=%tracknr%" -T "GENRE=%genre%" -T "COMMENT=%comment%" -T "BAND=%albuminterpret%" -T "ALBUMARTIST=%albuminterpret%" -T "COMPOSER=%composer%" %haslyrics%–tag-from-file=LYRICS="%lyricsfile%"%haslyrics% -T "DISCNUMBER=%cdnumber%" -T "TOTALDISCS=%totalcds%" -T "TOTALTRACKS=%numtracks%" %hascover%–picture="%coverfile%"%hascover% %source% -o %dest%

TOC of the extracted CD

Track | Start | Length | Start sector | End sector
––––––––––––––––––––––––––––-
1 | 0:00.00 | 3:02.20 | 0 | 13669
2 | 3:02.20 | 3:50.47 | 13670 | 30966
3 | 6:52.67 | 2:57.05 | 30967 | 44246
4 | 9:49.72 | 2:23.63 | 44247 | 55034
5 | 12:13.60 | 3:45.57 | 55035 | 71966
6 | 15:59.42 | 3:20.18 | 71967 | 86984
7 | 19:19.60 | 3:24.69 | 86985 | 102353
8 | 22:44.54 | 3:12.13 | 102354 | 116766
9 | 25:56.67 | 3:13.25 | 116767 | 131266
10 | 29:10.17 | 2:40.43 | 131267 | 143309

Range status and errors

Selected range

Filename C:\Users\Deris\Desktop\kpnemo.eu\BigBanDors\Tommy Dorsey - A Tribute To Tommy Dorsey.wav

Peak level 92.3 %
Extraction speed 3.8 X
Range quality 100.0 %
Test CRC 726D4B92
Copy CRC 726D4B92
Copy OK

No errors occurred

AccurateRip summary

Track 1 accurately ripped (confidence 3) [8C363CDD] (AR v2)
Track 2 accurately ripped (confidence 3) [0C8420C2] (AR v2)
Track 3 accurately ripped (confidence 3) [00E4C356] (AR v2)
Track 4 accurately ripped (confidence 3) [91E3E560] (AR v2)
Track 5 accurately ripped (confidence 3) [8CEF32C4] (AR v2)
Track 6 accurately ripped (confidence 3) [4626BA54] (AR v2)
Track 7 accurately ripped (confidence 3) [430D48EB] (AR v2)
Track 8 accurately ripped (confidence 3) [E8ABC25A] (AR v2)
Track 9 accurately ripped (confidence 3) [AEF4A39E] (AR v2)
Track 10 accurately ripped (confidence 2) [42CCB097] (AR v2)

All tracks accurately ripped

End of status report

–– CUETools DB Plugin V2.1.3

[CTDB TOCID: zHp8YuZFp0D7zdZM27ohXYrdYDw-] found, Submit result: zHp8YuZFp0D7zdZM27ohXYrdYDw- has been confirmed
[f24dc865] (7/7) Accurately ripped

==== Log checksum E3F0713C4443CDFAFC8D359737036AFC7E4728C5A5418349F418F90DD5D22F16 ====


Big Band Collector's Series - 5 Releases (1997-1998)

Members Of The Woody Herman Orchestra - A Tribute To Woody Herman (1997)
EAC Rip | FLAC (image+.cue, log) ~ 210.34 Mb + 63.32 Mb (Scans) | 31:46
Jazz, Swing | Label: Green Hill (GHD5053)

Woodrow Charles Herman (May 16, 1913 – October 29, 1987) was an American jazz clarinetist, saxophonist, singer, and big band leader. Leading various groups called "The Herd", Herman came to prominence the late 1930s and was active until his death in 1987. His bands often played music that was cutting edge and experimental for its time; they received numerous Grammy nominations and awards. Herman and his big band were the featured halftime performers for Super Bowl VII.

Track List:
1. Four Brothers (3:22)
2. Woodchopper's Ball (4:52)
3. Apple Honey (3:33)
4. Goosey Gander (3:41)
5. Northwest Passage (3:07)
6. Blowing Up A Storm (2:53)
7. Wildroot (3:20)
8. Blue Flame (2:57)
9. Bijou (3:07)

Exact Audio Copy V1.0 beta 3 from 29. August 2011

EAC extraction logfile from 22. July 2017, 9:53

Woody Herman / A Tribute To Woody Herman

Used drive : PIONEER BD-RW BDR-TD03 Adapter: 0 ID: 1

Read mode : Secure
Utilize accurate stream : Yes
Defeat audio cache : Yes
Make use of C2 pointers : No

Read offset correction : 667
Overread into Lead-In and Lead-Out : No
Fill up missing offset samples with silence : Yes
Delete leading and trailing silent blocks : No
Null samples used in CRC calculations : Yes
Used interface : Native Win32 interface for Win NT & 2000

Used output format : User Defined Encoder
Selected bitrate : 768 kBit/s
Quality : High
Add ID3 tag : No
Command line compressor : C:\Program Files (x86)\Exact Audio Copy\FLAC\FLAC.EXE
Additional command line options : -6 -V -T "ARTIST=%artist%" -T "TITLE=%title%" -T "ALBUM=%albumtitle%" -T "DATE=%year%" -T "TRACKNUMBER=%tracknr%" -T "GENRE=%genre%" -T "COMMENT=%comment%" -T "BAND=%albuminterpret%" -T "ALBUMARTIST=%albuminterpret%" -T "COMPOSER=%composer%" %haslyrics%–tag-from-file=LYRICS="%lyricsfile%"%haslyrics% -T "DISCNUMBER=%cdnumber%" -T "TOTALDISCS=%totalcds%" -T "TOTALTRACKS=%numtracks%" %hascover%–picture="%coverfile%"%hascover% %source% -o %dest%

TOC of the extracted CD

Track | Start | Length | Start sector | End sector
––––––––––––––––––––––––––––-
1 | 0:00.00 | 3:22.17 | 0 | 15166
2 | 3:22.17 | 4:52.25 | 15167 | 37091
3 | 8:14.42 | 3:33.18 | 37092 | 53084
4 | 11:47.60 | 3:41.00 | 53085 | 69659
5 | 15:28.60 | 3:07.07 | 69660 | 83691
6 | 18:35.67 | 2:53.30 | 83692 | 96696
7 | 21:29.22 | 3:20.30 | 96697 | 111726
8 | 24:49.52 | 2:57.00 | 111727 | 125001
9 | 27:46.52 | 3:07.70 | 125002 | 139096

Range status and errors

Selected range

Filename C:\Users\Deris\Desktop\kpnemo.eu\BigBanHerm\Woody Herman - A Tribute To Woody Herman.wav

Peak level 89.9 %
Extraction speed 3.8 X
Range quality 100.0 %
Test CRC B74D2A0C
Copy CRC B74D2A0C
Copy OK

No errors occurred

AccurateRip summary

Track 1 accurately ripped (confidence 2) [1CD319A6] (AR v2)
Track 2 accurately ripped (confidence 2) [D83869D6] (AR v2)
Track 3 accurately ripped (confidence 2) [E1D7240F] (AR v2)
Track 4 accurately ripped (confidence 2) [4CF7217B] (AR v2)
Track 5 accurately ripped (confidence 2) [F0AC9118] (AR v2)
Track 6 accurately ripped (confidence 2) [1E098166] (AR v2)
Track 7 accurately ripped (confidence 2) [F68E5928] (AR v2)
Track 8 accurately ripped (confidence 2) [F2CE37C9] (AR v2)
Track 9 accurately ripped (confidence 2) [5D7D4F14] (AR v2)

All tracks accurately ripped

End of status report

–– CUETools DB Plugin V2.1.3

[CTDB TOCID: UOyMNKpTQPr6Fl7frwgucOpinBo-] found, Submit result: UOyMNKpTQPr6Fl7frwgucOpinBo- has been confirmed
[8c795031] (7/7) Accurately ripped

==== Log checksum EA4EBF4E45280448541113DE08CB100BF5E1F55B353699991CB80C1E10022A1A ====


Big Band Collector's Series - 5 Releases (1997-1998)

Members Of The Benny Goodman Orchestra - A Tribute To Benny Goodman (1998)
EAC Rip | FLAC (image+.cue, log) ~ 191.03 Mb + 63.37 Mb (Scans) | 30:44
Jazz, Swing | Label: Green Hill (GHD5050)

Benjamin David Goodman (May 30, 1909 – June 13, 1986) was an American jazz clarinetist and bandleader known as the "King of Swing".

In the mid-1930s, Goodman led one of the most popular musical groups in the United States. His concert at Carnegie Hall in New York City on January 16, 1938 is described by critic Bruce Eder as "the single most important jazz or popular music concert in history: jazz's 'coming out' party to the world of 'respectable' music."

Goodman's bands launched the careers of many major jazz artists. During an era of racial segregation, he led one of the first well-known integrated jazz groups. Goodman performed nearly to the end of his life while exploring an interest in classical music.

Track List:
01. Sing, Sing, Sing (4:23)
02. In The Shade Of The Old Apple Tree (2:49)
03. My Wild Irish Rose (2:39)
04. When The Saints Go Marching In (3:05)
05. School Days (2:23)
06. Careless Love (3:17)
07. Stompin' At The Savoy (2:27)
08. Cuddle Up A Little Closer (3:07)
09. Bring Back My Bonnie To Me (3:20)
10. Hand Me Down My Walkin' Cane (3:08)

Exact Audio Copy V1.0 beta 3 from 29. August 2011

EAC extraction logfile from 17. June 2017, 12:00

Benny Goodman & Orchestra / A Tribute to Benny Goodman

Used drive : PIONEER BD-RW BDR-TD03 Adapter: 0 ID: 1

Read mode : Secure
Utilize accurate stream : Yes
Defeat audio cache : Yes
Make use of C2 pointers : No

Read offset correction : 667
Overread into Lead-In and Lead-Out : No
Fill up missing offset samples with silence : Yes
Delete leading and trailing silent blocks : No
Null samples used in CRC calculations : Yes
Used interface : Native Win32 interface for Win NT & 2000

Used output format : User Defined Encoder
Selected bitrate : 768 kBit/s
Quality : High
Add ID3 tag : No
Command line compressor : C:\Program Files (x86)\Exact Audio Copy\FLAC\FLAC.EXE
Additional command line options : -6 -V -T "ARTIST=%artist%" -T "TITLE=%title%" -T "ALBUM=%albumtitle%" -T "DATE=%year%" -T "TRACKNUMBER=%tracknr%" -T "GENRE=%genre%" -T "COMMENT=%comment%" -T "BAND=%albuminterpret%" -T "ALBUMARTIST=%albuminterpret%" -T "COMPOSER=%composer%" %haslyrics%–tag-from-file=LYRICS="%lyricsfile%"%haslyrics% -T "DISCNUMBER=%cdnumber%" -T "TOTALDISCS=%totalcds%" -T "TOTALTRACKS=%numtracks%" %hascover%–picture="%coverfile%"%hascover% %source% -o %dest%

TOC of the extracted CD

Track | Start | Length | Start sector | End sector
––––––––––––––––––––––––––––-
1 | 0:00.00 | 4:23.50 | 0 | 19774
2 | 4:23.50 | 2:49.57 | 19775 | 32506
3 | 7:13.32 | 2:39.10 | 32507 | 44441
4 | 9:52.42 | 3:05.73 | 44442 | 58389
5 | 12:58.40 | 2:23.45 | 58390 | 69159
6 | 15:22.10 | 3:17.37 | 69160 | 83971
7 | 18:39.47 | 2:27.48 | 83972 | 95044
8 | 21:07.20 | 3:07.62 | 95045 | 109131
9 | 24:15.07 | 3:20.23 | 109132 | 124154
10 | 27:35.30 | 3:08.65 | 124155 | 138319

Range status and errors

Selected range

Filename C:\Users\Deris\Desktop\kpnemo.eu\BigBanGood\Benny Goodman & Orchestra - A Tribute to Benny Goodman.wav

Peak level 100.0 %
Extraction speed 3.7 X
Range quality 99.9 %
Test CRC E5862606
Copy CRC E5862606
Copy OK

No errors occurred

AccurateRip summary

Track 1 accurately ripped (confidence 4) [A7F334F9] (AR v1)
Track 2 accurately ripped (confidence 4) [C1C72AD7] (AR v1)
Track 3 accurately ripped (confidence 4) [035B1F64] (AR v1)
Track 4 accurately ripped (confidence 4) [4BCF274A] (AR v1)
Track 5 accurately ripped (confidence 4) [FA9D9EE4] (AR v1)
Track 6 accurately ripped (confidence 4) [F29BC6E1] (AR v1)
Track 7 accurately ripped (confidence 4) [8CBC2468] (AR v1)
Track 8 accurately ripped (confidence 4) [2F4D92BF] (AR v1)
Track 9 accurately ripped (confidence 4) [232CB568] (AR v1)
Track 10 accurately ripped (confidence 4) [71711548] (AR v1)

All tracks accurately ripped

End of status report

–– CUETools DB Plugin V2.1.3

[CTDB TOCID: rmxeqAntMQ_OUPMvL_w17BfrsiI-] found, Submit result: rmxeqAntMQ_OUPMvL_w17BfrsiI- has been confirmed
[4540e12e] (7/8) Accurately ripped
[0d98a409] (1/8) No match

==== Log checksum 9A12A67F587DC24486436D233E56FE2BF6E8BC5AEE2ABE2ECD9790FE57C8FA40 ====


Big Band Collector's Series - 5 Releases (1997-1998)

Members Of The Glenn Miller Orchestra - A Tribute To Glenn Miller (1998)
EAC Rip | FLAC (image+.cue, log) ~ 201.68 Mb + 63.15 Mb (Scans) | 31:53
Jazz, Swing | Label: Green Hill (GHD5049)

Alton Glenn Miller (March 1, 1904 – missing in action December 15, 1944) was an American big band musician, arranger, composer, and bandleader in the swing era. He was the best-selling recording artist from 1939 to 1943, leading one of the best known big bands. Miller's recordings include "In the Mood", "Moonlight Serenade", "Pennsylvania 6-5000", "Chattanooga Choo Choo", "A String of Pearls", "At Last", "(I've Got a Gal In) Kalamazoo", "American Patrol", "Tuxedo Junction", "Elmer's Tune", and "Little Brown Jug". In just four years Glenn Miller scored 23 number one hits - more than Elvis Presley (18 No. 1s, 38 top 10s) and The Beatles (20 No. 1s, 33 top 10s) had in their careers. While he was traveling to entertain U.S. troops in France during World War II, Miller's aircraft disappeared in bad weather over the English Channel.

Track List:
01. Tuxedo Junction (3:50)
02. American Patrol (3:33)
03. Lover's Serenade (2:34)
04. Londonderry Air (2:25)
05. In the Mood (3:33)
06. Pennsylvania 6-5000 (2:56)
07. Chattanooga Choo Choo (3:00)
08. Moonlight Serenade (4:17)
09. Swinging at the Ritz (2:43)
10. A String of Pearls (3:02)

Exact Audio Copy V1.0 beta 3 from 29. August 2011

EAC extraction logfile from 15. June 2017, 13:53

Glenn Miller Orchestra / A Tribute to Glenn Miller

Used drive : PIONEER BD-RW BDR-TD03 Adapter: 0 ID: 1

Read mode : Secure
Utilize accurate stream : Yes
Defeat audio cache : Yes
Make use of C2 pointers : No

Read offset correction : 667
Overread into Lead-In and Lead-Out : No
Fill up missing offset samples with silence : Yes
Delete leading and trailing silent blocks : No
Null samples used in CRC calculations : Yes
Used interface : Native Win32 interface for Win NT & 2000

Used output format : User Defined Encoder
Selected bitrate : 768 kBit/s
Quality : High
Add ID3 tag : No
Command line compressor : C:\Program Files (x86)\Exact Audio Copy\FLAC\FLAC.EXE
Additional command line options : -6 -V -T "ARTIST=%artist%" -T "TITLE=%title%" -T "ALBUM=%albumtitle%" -T "DATE=%year%" -T "TRACKNUMBER=%tracknr%" -T "GENRE=%genre%" -T "COMMENT=%comment%" -T "BAND=%albuminterpret%" -T "ALBUMARTIST=%albuminterpret%" -T "COMPOSER=%composer%" %haslyrics%–tag-from-file=LYRICS="%lyricsfile%"%haslyrics% -T "DISCNUMBER=%cdnumber%" -T "TOTALDISCS=%totalcds%" -T "TOTALTRACKS=%numtracks%" %hascover%–picture="%coverfile%"%hascover% %source% -o %dest%

TOC of the extracted CD

Track | Start | Length | Start sector | End sector
––––––––––––––––––––––––––––-
1 | 0:00.00 | 3:50.45 | 0 | 17294
2 | 3:50.45 | 3:33.50 | 17295 | 33319
3 | 7:24.20 | 2:34.00 | 33320 | 44869
4 | 9:58.20 | 2:25.72 | 44870 | 55816
5 | 12:24.17 | 3:33.43 | 55817 | 71834
6 | 15:57.60 | 2:56.67 | 71835 | 85101
7 | 18:54.52 | 3:00.18 | 85102 | 98619
8 | 21:54.70 | 4:17.59 | 98620 | 117953
9 | 26:12.54 | 2:43.00 | 117954 | 130178
10 | 28:55.54 | 3:02.36 | 130179 | 143864

Range status and errors

Selected range

Filename C:\Users\Deris\Desktop\kpnemo.eu\BigBanMil\Glenn Miller Orchestra - A Tribute to Glenn Miller.wav

Peak level 93.7 %
Extraction speed 3.8 X
Range quality 100.0 %
Test CRC 42F7F3C9
Copy CRC 42F7F3C9
Copy OK

No errors occurred

AccurateRip summary

Track 1 accurately ripped (confidence 2) [85DB15AA] (AR v1)
Track 2 accurately ripped (confidence 2) [C2353059] (AR v1)
Track 3 accurately ripped (confidence 2) [5B283EC4] (AR v1)
Track 4 accurately ripped (confidence 2) [010C0FA9] (AR v1)
Track 5 accurately ripped (confidence 2) [45D6C0D3] (AR v1)
Track 6 accurately ripped (confidence 2) [C3F67189] (AR v1)
Track 7 accurately ripped (confidence 2) [1D755911] (AR v1)
Track 8 accurately ripped (confidence 2) [C8053266] (AR v1)
Track 9 accurately ripped (confidence 2) [AD596918] (AR v1)
Track 10 accurately ripped (confidence 2) [73DAD8BC] (AR v1)

All tracks accurately ripped

End of status report

–– CUETools DB Plugin V2.1.3

[CTDB TOCID: HwfvUn1XGPVI7R4YUfWK9HmtIJM-] found, Submit result: HwfvUn1XGPVI7R4YUfWK9HmtIJM- has been confirmed
[ecc3c4d1] (5/5) Accurately ripped

==== Log checksum DD226942A43E05BE6389250E5E7F37BE5B055890EA37E51F626664EE44259C6C ====


All thanks go to the Boris1

More Music in My Blog
Follow My RSS Channel