Subcategories

Bill Bruford - An Introduction to Winterfold Records (2005) {Winterfold BBFW 007CD}

Posted By: ruskaval
Bill Bruford - An Introduction to Winterfold Records (2005) {Winterfold BBFW 007CD}

Bill Bruford - An Introduction to Winterfold Records (2005) {Winterfold BBFW 007CD}
EAC rip (secure mode) | FLAC (tracks)+CUE+LOG -> 298 Mb | MP3 @320 -> 107 Mb
Full Artwork @ 300 dpi (png) -> 29 Mb | 5% repair rar
© 2005 Winterfold Records | BBFW 007CD
Rock / Jazz / Jazz Rock / Fusion

Many people will know the name Bill Bruford and it isn’t just restricted to those of us in their middle forties or early fifties who remember him as a member of Yes or King Crimson, or perhaps many of the sessions Bill has managed to notch up over the years, most notably for Genesis for whom he briefly drummed alongside Phil Collins when Phil took over the vocalists spot vacated by Peter Gabriel. These days Bill fronts the jazz quartet Earthworks and in addition to playing the odd session Bill seems more than happy playing dates as far afield as Japan and South America to enthusiastic jazz audiences and music lovers in general.

Like most artists of his generation Bill Bruford has reached the point where he can keep most aspects of his career both past and present under his control and with that in mind he has recently launched two record label imprints: Summerfold Records and Winterfold Records.

If Summerfold covers the material recorded by Bill’s current band Earthworks, Winterfold will address the material recorded by the Band Bruford and Bill’s collaboration with another former Yes man Patrick Moraz. The label has re-issued the three studio albums recorded by Bruford (Feels Good To Me, One Of A Kind and Gradually Going Tornado) and the live album The Bruford Tapes. The two albums Bill recorded with Patrick Moraz (Music For Piano And Drums and Flags) have also been re issued through Winterfold.

Again, as Bill Bruford said in 2003 at the launch of the label: “Winterfold is going to do the colder guitar music that I did generally from 1977 when I started releasing records of my own through to Earthworks in about 1985/6. That comprises two groups primarily that I ran in those days one was under my own name called Bruford and the second was a duo with a Swiss pianist called Patrick Moraz. The group was Moraz Bruford and we released a couple of CDs then too. The Bruford group really started with what we thought was fancy instrumental rock. We thought we could take the power of rock music further with some more interesting harmony. So that is what Winterfold is for, primarily the Bruford music and the Moraz Bruford music.“

As with the Introduction To Summerfold release this album will act as a primer for the Winterfold catalogue and presents the other side of the coin as it were to Bill Bruford's musical achievements over the last twenty-eight years.
Bill Bruford - An Introduction to Winterfold Records (2005) {Winterfold BBFW 007CD}


tracklist:
01 - Hell's Bells
02 - Beelzebub
03 - One Of A Kind
04 - Joe Frazier
05 - Living Space
06 - The Drum
07 - Fainting

Exact Audio Copy V1.0 beta 3 from 29. August 2011

EAC extraction logfile from 12. January 2012, 22:26

Bill Bruford / An Introduction to Winterfold Records

Used drive : MATSHITAUJ-850D Adapter: 0 ID: 0

Read mode : Secure
Utilize accurate stream : Yes
Defeat audio cache : Yes
Make use of C2 pointers : No

Read offset correction : 102
Overread into Lead-In and Lead-Out : No
Fill up missing offset samples with silence : Yes
Delete leading and trailing silent blocks : No
Null samples used in CRC calculations : Yes
Used interface : Native Win32 interface for Win NT & 2000
Gap handling : Appended to previous track

Used output format : User Defined Encoder
Selected bitrate : 896 kBit/s
Quality : High
Add ID3 tag : No
Command line compressor : C:\Program Files\Exact Audio Copy\FLAC\FLAC.EXE
Additional command line options : -8 -V -T "ARTIST=%artist%" -T "TITLE=%title%" -T "ALBUM=%albumtitle%" -T "DATE=%year%" -T "TRACKNUMBER=%tracknr%" -T "TOTALTRACKS=%numtracks%" -T "GENRE=%genre%" -T "ALBUMARTIST=%albumartist%" -T "ALBUM ARTIST=%albumartist%" -T "COMMENT=EAC Secure Mode, Test & Copy, AccurateRip, FLAC -8" %source%


TOC of the extracted CD

Track | Start | Length | Start sector | End sector
––––––––––––––––––––––––––––-
1 | 0:00.00 | 5:39.19 | 0 | 25443
2 | 5:39.19 | 6:01.63 | 25444 | 52581
3 | 11:41.07 | 7:44.03 | 52582 | 87384
4 | 19:25.10 | 11:17.57 | 87385 | 138216
5 | 30:42.67 | 6:03.05 | 138217 | 165446
6 | 36:45.72 | 2:17.30 | 165447 | 175751
7 | 39:03.27 | 6:26.70 | 175752 | 204771


Track 1

Filename E:\EACrips\Bill Bruford - An Introduction to Winterfold Records (2005) [FLAC]\01 - Hell's Bells.wav

Pre-gap length 0:00:02.00

Peak level 82.1 %
Extraction speed 1.4 X
Track quality 99.9 %
Test CRC 2D83DB5B
Copy CRC 2D83DB5B
Accurately ripped (confidence 2) [4E89DDE1] (AR v1)
Copy OK

Track 2

Filename E:\EACrips\Bill Bruford - An Introduction to Winterfold Records (2005) [FLAC]\02 - Beelzebub.wav

Peak level 100.0 %
Extraction speed 1.6 X
Track quality 99.9 %
Test CRC 870FC8B0
Copy CRC 870FC8B0
Accurately ripped (confidence 2) [50FC7E4A] (AR v1)
Copy OK

Track 3

Filename E:\EACrips\Bill Bruford - An Introduction to Winterfold Records (2005) [FLAC]\03 - One Of A Kind.wav

Peak level 90.2 %
Extraction speed 2.1 X
Track quality 100.0 %
Test CRC C92C38EC
Copy CRC C92C38EC
Accurately ripped (confidence 2) [D02BE2E7] (AR v1)
Copy OK

Track 4

Filename E:\EACrips\Bill Bruford - An Introduction to Winterfold Records (2005) [FLAC]\04 - Joe Frazier.wav

Peak level 91.8 %
Extraction speed 2.4 X
Track quality 100.0 %
Test CRC B7FD25FA
Copy CRC B7FD25FA
Accurately ripped (confidence 2) [36070A27] (AR v1)
Copy OK

Track 5

Filename E:\EACrips\Bill Bruford - An Introduction to Winterfold Records (2005) [FLAC]\05 - Living Space.wav

Peak level 100.0 %
Extraction speed 2.5 X
Track quality 100.0 %
Test CRC 020771B3
Copy CRC 020771B3
Accurately ripped (confidence 2) [99072F15] (AR v1)
Copy OK

Track 6

Filename E:\EACrips\Bill Bruford - An Introduction to Winterfold Records (2005) [FLAC]\06 - The Drum.wav

Peak level 100.0 %
Extraction speed 2.2 X
Track quality 100.0 %
Test CRC 17171416
Copy CRC 17171416
Accurately ripped (confidence 2) [265F3D5F] (AR v1)
Copy OK

Track 7

Filename E:\EACrips\Bill Bruford - An Introduction to Winterfold Records (2005) [FLAC]\07 - Fainting.wav

Peak level 100.0 %
Extraction speed 2.8 X
Track quality 100.0 %
Test CRC FC6F8756
Copy CRC FC6F8756
Accurately ripped (confidence 2) [6678276F] (AR v1)
Copy OK


All tracks accurately ripped

No errors occurred

End of status report

==== Log checksum F9500F59AABD53E73538CD60D40F1CD8AFDF68899DBDFD5F0D56D57261B8EFDD ====


Bill Bruford - An Introduction to Winterfold Records (2005) {Winterfold BBFW 007CD}

Bill Bruford - An Introduction to Winterfold Records (2005) {Winterfold BBFW 007CD}



===