Subcategories

Bill Evans & Toots Thielemans - Affinity (1978) {Warner 7599-27387-2 rel 1989}

Posted By: ruskaval
Bill Evans & Toots Thielemans - Affinity (1978) {Warner 7599-27387-2 rel 1989}

Bill Evans & Toots Thielemans - Affinity (1978) {Warner 7599-27387-2 rel 1989}
EAC rip (secure mode) | FLAC (tracks)+CUE+LOG -> 273 Mb | MP3 @320 -> 115 Mb
Full Artwork @ 600 dpi (png) -> 103 Mb | 5% repair rar
© 1978, 1989 Warner Bros. Records | 7599-27387-2
Jazz / Modal Music / Post-Bop / Piano

A beautiful pairing – the keyboards of Bill Evans and harmonica of Toots Thielemans – presented here in a space that marks the record as one of the best from both players in the 70s! Some tunes are sad and blue, and very spare – others a bit more upbeat and lyrical, almost taking us back to Bill's more sprightly modes of the early 60s – and the clear, clean sound offers up the best tones from both players in a perfect space. Other musicians include Marc Johnson on bass, Eliot Zigmund on drums, and Larry Schneider on flute, tenor, and soprano sax – and Evans plays a bit of electric piano in addition to acoustic, something we always love!
Bill Evans & Toots Thielemans - Affinity (1978) {Warner 7599-27387-2 rel 1989}


Personnel:

Bill Evans / acoustic and electric keyboards
Toots Thielemans / harmonica
Marc Johnson / acoustic bass
Eliot Zigmund / drums
Larry Schneider / tenor and soprano sax, alto flute

Recorded at Columbia Studios, 30th Street, N.Y.C.
October 30 & 31; November 1 & 2, 1978


Tracklist:

01. I Do It For Your Love
02. Sno' Peas
03. This Is All I Ask
04. The Days Of Wine And Roses
05. Jesus' Last Ballad
06. Tomato Kiss
07. The Other Side Of Midnight (Noelle's Theme)
08. Blue And Green
09. Body & Soul

Exact Audio Copy V1.3 from 2. September 2016

EAC extraction logfile from 14. February 2018, 12:50

Bill Evans & Toots Thielemans / Affinity

Used drive : ATAPI iHAS122 F Adapter: 1 ID: 0

Read mode : Secure
Utilize accurate stream : Yes
Defeat audio cache : Yes
Make use of C2 pointers : No

Read offset correction : 6
Overread into Lead-In and Lead-Out : No
Fill up missing offset samples with silence : Yes
Delete leading and trailing silent blocks : No
Null samples used in CRC calculations : Yes
Used interface : Native Win32 interface for Win NT & 2000
Gap handling : Appended to previous track

Used output format : User Defined Encoder
Selected bitrate : 1024 kBit/s
Quality : High
Add ID3 tag : No
Command line compressor : C:\Program Files (x86)\Exact Audio Copy_v1.3\Flac\flac.exe
Additional command line options : -8 -V -T "ARTIST=%artist%" -T "TITLE=%title%" -T "ALBUM=%albumtitle%" -T "DATE=%year%" -T "TRACKNUMBER=%tracknr%" -T "TOTALTRACKS=%numtracks%" -T "GENRE=%genre%" -T "ALBUMARTIST=%albumartist%" -T "ALBUM ARTIST=%albumartist%" -T "COMMENT=EAC Secure Mode, Test & Copy, AccurateRip, FLAC -8" %source%


TOC of the extracted CD

Track | Start | Length | Start sector | End sector
––––––––––––––––––––––––––––-
1 | 0:00.00 | 7:22.42 | 0 | 33191
2 | 7:22.42 | 5:55.63 | 33192 | 59879
3 | 13:18.30 | 4:18.02 | 59880 | 79231
4 | 17:36.32 | 6:43.30 | 79232 | 109486
5 | 24:19.62 | 5:59.08 | 109487 | 136419
6 | 30:18.70 | 5:24.47 | 136420 | 160766
7 | 35:43.42 | 3:23.03 | 160767 | 175994
8 | 39:06.45 | 4:15.57 | 175995 | 195176
9 | 43:22.27 | 6:16.60 | 195177 | 223436


Track 1

Filename E:\Rips\Bill Evans & Toots Thielemans - Affinity (1978) [FLAC]\01 - I Do It For Your Love.wav

Pre-gap length 0:00:02.00

Peak level 77.6 %
Extraction speed 5.0 X
Track quality 99.9 %
Test CRC 0481CF09
Copy CRC 0481CF09
Accurately ripped (confidence 10) [A5A08B5D] (AR v2)
Copy OK

Track 2

Filename E:\Rips\Bill Evans & Toots Thielemans - Affinity (1978) [FLAC]\02 - Sno' Peas.wav

Pre-gap length 0:00:04.02

Peak level 73.6 %
Extraction speed 6.3 X
Track quality 100.0 %
Test CRC 5A7C0943
Copy CRC 5A7C0943
Accurately ripped (confidence 10) [62246745] (AR v2)
Copy OK

Track 3

Filename E:\Rips\Bill Evans & Toots Thielemans - Affinity (1978) [FLAC]\03 - This Is All I Ask.wav

Pre-gap length 0:00:03.38

Peak level 50.8 %
Extraction speed 6.7 X
Track quality 100.0 %
Test CRC ACFEFD19
Copy CRC ACFEFD19
Accurately ripped (confidence 10) [C190617C] (AR v2)
Copy OK

Track 4

Filename E:\Rips\Bill Evans & Toots Thielemans - Affinity (1978) [FLAC]\04 - The Days Of Wine And Roses.wav

Pre-gap length 0:00:03.70

Peak level 95.8 %
Extraction speed 6.7 X
Track quality 99.9 %
Test CRC D333AB37
Copy CRC D333AB37
Accurately ripped (confidence 10) [6E28AC11] (AR v2)
Copy OK

Track 5

Filename E:\Rips\Bill Evans & Toots Thielemans - Affinity (1978) [FLAC]\05 - Jesus' Last Ballad.wav

Pre-gap length 0:00:03.17

Peak level 74.8 %
Extraction speed 8.1 X
Track quality 100.0 %
Test CRC 36178084
Copy CRC 36178084
Accurately ripped (confidence 10) [77A11881] (AR v2)
Copy OK

Track 6

Filename E:\Rips\Bill Evans & Toots Thielemans - Affinity (1978) [FLAC]\06 - Tomato Kiss.wav

Pre-gap length 0:00:05.13

Peak level 68.8 %
Extraction speed 8.5 X
Track quality 100.0 %
Test CRC E77E011F
Copy CRC E77E011F
Accurately ripped (confidence 10) [256383AB] (AR v2)
Copy OK

Track 7

Filename E:\Rips\Bill Evans & Toots Thielemans - Affinity (1978) [FLAC]\07 - The Other Side Of Midnight (Noelle's Theme).wav

Pre-gap length 0:00:05.72

Peak level 52.1 %
Extraction speed 8.4 X
Track quality 100.0 %
Test CRC 899753BD
Copy CRC 899753BD
Accurately ripped (confidence 10) [1F5D5FE6] (AR v2)
Copy OK

Track 8

Filename E:\Rips\Bill Evans & Toots Thielemans - Affinity (1978) [FLAC]\08 - Blue And Green.wav

Pre-gap length 0:00:05.28

Peak level 90.5 %
Extraction speed 8.9 X
Track quality 100.0 %
Test CRC 354D0451
Copy CRC 354D0451
Accurately ripped (confidence 10) [F64C8482] (AR v2)
Copy OK

Track 9

Filename E:\Rips\Bill Evans & Toots Thielemans - Affinity (1978) [FLAC]\09 - Body & Soul.wav

Pre-gap length 0:00:03.57

Peak level 71.0 %
Extraction speed 8.3 X
Track quality 99.9 %
Test CRC 03458AEE
Copy CRC 03458AEE
Accurately ripped (confidence 10) [D9753641] (AR v2)
Copy OK


All tracks accurately ripped

No errors occurred

End of status report

–– CUETools DB Plugin V2.1.6

[CTDB TOCID: kCN1KWq2uDfizOOK3u_nAFvIHmY-] found
Submit result: kCN1KWq2uDfizOOK3u_nAFvIHmY- has been confirmed
Track | CTDB Status
1 | (62/63) Accurately ripped
2 | (63/63) Accurately ripped
3 | (63/63) Accurately ripped
4 | (63/63) Accurately ripped
5 | (63/63) Accurately ripped
6 | (62/63) Accurately ripped
7 | (62/63) Accurately ripped
8 | (63/63) Accurately ripped
9 | (62/63) Accurately ripped


==== Log checksum 813DA598359578E346C0C5582650CA7BCB55C11981BB606AFF59912DDFEFA941 ====


Bill Evans & Toots Thielemans - Affinity (1978) {Warner 7599-27387-2 rel 1989}

Bill Evans & Toots Thielemans - Affinity (1978) {Warner 7599-27387-2 rel 1989}



===