Subcategories

Bill Evans - Jazzhouse (1969) {2012 Japan SHM-CD Mini LP 24-96 Remaster UCCO-90135}

Posted By: ruskaval
Bill Evans - Jazzhouse (1969) {2012 Japan SHM-CD Mini LP 24-96 Remaster UCCO-90135}

Bill Evans - Jazzhouse (1969) {2012 Japan SHM-CD Mini LP 24-96 Remaster UCCO-90135}
EAC rip (secure mode) | FLAC (tracks)+CUE+LOG -> 209 Mb | MP3 @320 -> 93 Mb
Full Artwork @ 600 dpi (png) -> 163 Mb | 5% repair rar | 24-96 remaster
© 1969, 2012 Milestone / Fantasy / Concord / Universal Japan | UCCO-90135
Jazz / Post Bop / Modal Music / Piano

Cardboard sleeve (mini LP) reissue from Bill Evans featuring the high-fidelity SHM-CD format (compatible with standard CD players) and the latest 24bit/96kHz digital remastering. Part of a 5-album Bill Evans SHM-CD cardboard sleeve reissue series featuring albums "I Will Say Goodbye," "Alone (Again)," "Intuition," "Re: Person I Knew," and "Jazzhouse." This set is one of two albums (both reissued on CD) recorded by the Bill Evans Trio (with bassist Eddie Gomez and drummer Marty Morell) at Copenhagen's Montmartre on one night in 1969 but not released initially until the late '80s. Evans sounds relaxed and swinging playing his usual repertoire. All of the songs (mostly standards) have been recorded by Evans at other times but the pianist's many fans certainly will not mind hearing these "alternate" versions of such tunes as "How Deep Is the Ocean," "How My Heart Sings," "Sleepin' Bee" and a light-hearted "California Here I Come."
Bill Evans - Jazzhouse (1969) {2012 Japan SHM-CD Mini LP 24-96 Remaster UCCO-90135}


Personnel:
Bill Evans - piano
Eddie Gomez - bass
Marty Morell - drums

tracklist:
01 - How Deep Is The Ocean
02 - How My Heart Sings
03 - Good Bye
04 - Autumn Leaves
05 - California, Here I Come
06 - Sleepin' Bee
07 - Polka Dots And Moonbeams
08 - Stella By Starlight
09 - Five (Theme)

Exact Audio Copy V1.1 from 23. June 2015

EAC extraction logfile from 10. October 2015, 17:58

Bill Evans / Jazzhouse

Used drive : TSSTcorpCDDVDW SE-208DB Adapter: 7 ID: 0

Read mode : Secure
Utilize accurate stream : Yes
Defeat audio cache : Yes
Make use of C2 pointers : No

Read offset correction : 6
Overread into Lead-In and Lead-Out : No
Fill up missing offset samples with silence : Yes
Delete leading and trailing silent blocks : No
Null samples used in CRC calculations : Yes
Used interface : Installed external ASPI interface
Gap handling : Appended to previous track

Used output format : User Defined Encoder
Selected bitrate : 1024 kBit/s
Quality : High
Add ID3 tag : No
Command line compressor : C:\Program Files (x86)\FLAC Frontend\tools\flac.exe
Additional command line options : -8 -V -T "ARTIST=%artist%" -T "TITLE=%title%" -T "ALBUM=%albumtitle%" -T "DATE=%year%" -T "TRACKNUMBER=%tracknr%" -T "TOTALTRACKS=%numtracks%" -T "GENRE=%genre%" -T "ALBUMARTIST=%albumartist%" -T "ALBUM ARTIST=%albumartist%" -T "COMMENT=EAC Secure Mode, Test & Copy, AccurateRip, FLAC -8" %source%


TOC of the extracted CD

Track | Start | Length | Start sector | End sector
––––––––––––––––––––––––––––-
1 | 0:00.00 | 6:01.00 | 0 | 27074
2 | 6:01.00 | 4:05.30 | 27075 | 45479
3 | 10:06.30 | 3:52.42 | 45480 | 62921
4 | 13:58.72 | 5:48.45 | 62922 | 89066
5 | 19:47.42 | 3:14.45 | 89067 | 103661
6 | 23:02.12 | 4:33.10 | 103662 | 124146
7 | 27:35.22 | 3:51.40 | 124147 | 141511
8 | 31:26.62 | 5:46.03 | 141512 | 167464
9 | 37:12.65 | 2:27.32 | 167465 | 178521


Track 1

Filename M:\_EAC\Bill Evans - Jazzhouse (1969) [FLAC] {2012 Japan SHM-CD Mini LP 24-96 Remaster}\01 - How Deep Is The Ocean.wav

Pre-gap length 0:00:02.00

Peak level 76.1 %
Extraction speed 1.1 X
Track quality 100.0 %
Test CRC 5348F6A4
Copy CRC 5348F6A4
Track not present in AccurateRip database
Copy OK

Track 2

Filename M:\_EAC\Bill Evans - Jazzhouse (1969) [FLAC] {2012 Japan SHM-CD Mini LP 24-96 Remaster}\02 - How My Heart Sings.wav

Pre-gap length 0:00:00.30

Peak level 71.3 %
Extraction speed 1.1 X
Track quality 100.0 %
Test CRC 7FB243DF
Copy CRC 7FB243DF
Track not present in AccurateRip database
Copy OK

Track 3

Filename M:\_EAC\Bill Evans - Jazzhouse (1969) [FLAC] {2012 Japan SHM-CD Mini LP 24-96 Remaster}\03 - Good Bye.wav

Pre-gap length 0:00:00.49

Peak level 95.5 %
Extraction speed 1.2 X
Track quality 100.0 %
Test CRC 4862E714
Copy CRC 4862E714
Track not present in AccurateRip database
Copy OK

Track 4

Filename M:\_EAC\Bill Evans - Jazzhouse (1969) [FLAC] {2012 Japan SHM-CD Mini LP 24-96 Remaster}\04 - Autumn Leaves.wav

Pre-gap length 0:00:00.45

Peak level 87.6 %
Extraction speed 1.2 X
Track quality 99.9 %
Test CRC CF1A4AC4
Copy CRC CF1A4AC4
Track not present in AccurateRip database
Copy OK

Track 5

Filename M:\_EAC\Bill Evans - Jazzhouse (1969) [FLAC] {2012 Japan SHM-CD Mini LP 24-96 Remaster}\05 - California, Here I Come.wav

Pre-gap length 0:00:00.42

Peak level 81.9 %
Extraction speed 1.3 X
Track quality 100.0 %
Test CRC 52AF4B45
Copy CRC 52AF4B45
Track not present in AccurateRip database
Copy OK

Track 6

Filename M:\_EAC\Bill Evans - Jazzhouse (1969) [FLAC] {2012 Japan SHM-CD Mini LP 24-96 Remaster}\06 - Sleepin' Bee.wav

Pre-gap length 0:00:00.65

Peak level 99.8 %
Extraction speed 1.4 X
Track quality 100.0 %
Test CRC 9E4CA500
Copy CRC 9E4CA500
Track not present in AccurateRip database
Copy OK

Track 7

Filename M:\_EAC\Bill Evans - Jazzhouse (1969) [FLAC] {2012 Japan SHM-CD Mini LP 24-96 Remaster}\07 - Polka Dots And Moonbeams.wav

Pre-gap length 0:00:00.55

Peak level 53.9 %
Extraction speed 1.5 X
Track quality 100.0 %
Test CRC D1A669D7
Copy CRC D1A669D7
Track not present in AccurateRip database
Copy OK

Track 8

Filename M:\_EAC\Bill Evans - Jazzhouse (1969) [FLAC] {2012 Japan SHM-CD Mini LP 24-96 Remaster}\08 - Stella By Starlight.wav

Pre-gap length 0:00:00.47

Peak level 86.1 %
Extraction speed 1.6 X
Track quality 100.0 %
Test CRC D553995D
Copy CRC D553995D
Track not present in AccurateRip database
Copy OK

Track 9

Filename M:\_EAC\Bill Evans - Jazzhouse (1969) [FLAC] {2012 Japan SHM-CD Mini LP 24-96 Remaster}\09 - Five (Theme).wav

Peak level 94.0 %
Extraction speed 1.2 X
Track quality 99.9 %
Test CRC 4AAF5616
Copy CRC 4AAF5616
Track not present in AccurateRip database
Copy OK


None of the tracks are present in the AccurateRip database

No errors occurred

End of status report

==== Log checksum 0BD221E0D575958EB9EA3734F26C9C784FB71D8BF28EE7BF49AA40400CA1BE85 ====


Bill Evans - Jazzhouse (1969) {2012 Japan SHM-CD Mini LP 24-96 Remaster UCCO-90135}

Bill Evans - Jazzhouse (1969) {2012 Japan SHM-CD Mini LP 24-96 Remaster UCCO-90135}





===