Subcategories

Bill Evans Trio - Waltz For Debby (1961) {2010 Riverside} [OJC Remasters Complete Series] (Item #12)

Posted By: ruskaval
Bill Evans Trio - Waltz For Debby (1961) {2010 Riverside} [OJC Remasters Complete Series] (Item #12)

Bill Evans Trio - Waltz For Debby (1961) {2010 Riverside} [OJC Remasters Complete Series] (Item #12)
EAC rip (secure mode) | FLAC (tracks)+CUE+LOG -> 426 Mb | MP3 @320 -> 158 Mb
Full Artwork @ 600 dpi (tiff) -> 132 Mb | 5% repair rar | 24-bit remaster
© 2010 Riverside / Concord | 0888072323261
Jazz / Modal Music / Post Bop / Piano

An extension of the popular Original Jazz Classics series (est. 1982), the new OJC Remasters releases reveal the sonic benefits of 24-bit remastering-a technology that didn't exist when these titles were originally issued on compact disc. The addition of newly-written liner notes further enhances the illuminating quality of the OJC Remasters reissues. "Each of the recordings in this series is an all-time jazz classic," says Nick Phillips, Vice President of Jazz and Catalog A&R at Concord Music Group and producer of the series.

"With these reissues, we get a fresh look and a new perspective on these artists and some of their most important work-not only from the meticulous 24-bit remastering by Joe Tarantino, but also from the insights we glean from the new liner notes that have been written for each title in the series." The best modern jazz classics are revisited in the Original Jazz Classics Remasters series. Each title in the series features 24-bit remastering, original AND new liner notes, fully restored artwork, and bonus tracks (when available).
Bill Evans Trio - Waltz For Debby (1961) {2010 Riverside} [OJC Remasters Complete Series] (Item #12)

Bill Evans Trio - Waltz For Debby (1961) {2010 Riverside} [OJC Remasters Complete Series] (Item #12)

This is the fourth and final album by one of the most influential groups in jazz history, a unit that redefined the notion of the piano trio. Recorded (like its companion volume Sunday at the Village Vanguard) just days before the highway accident that took bassist Scott LaFaro's life, it summarizes the level of creative interaction that made the Bill Evans Trio a harbinger of jazz possibilities in the coming decades. Evans, LaFaro, and Paul Motian play with astounding freedom in these performances, maintaining all the while a keen balance and a pervasive sense of beauty. The flow of tempos and moods underscores the depth of the trio's concept, casting a spell that remains undimmed some 50 years later.
Bill Evans Trio - Waltz For Debby (1961) {2010 Riverside} [OJC Remasters Complete Series] (Item #12)


Personnel:
Bill Evans - piano
Scott LaFaro - bass
Paul Motian - drums

tracklist:
01 - My Foolish Heart
02 - Waltz For Debby (Take 2)
03 - Detour Ahead (Take 2)
04 - My Romance (Take 1)
05 - Some Other Time
06 - Milestones
07 - Porgy (I Loves You, Porgy) (Bonus Track)
08 - discussing repertoire (Bonus Track)
09 - Waltz For Debby (Take 1) (Bonus Track)
10 - Detour Ahead (Take 1) (Bonus Track)
11 - My Romance (Take 2) (Bonus Track)

Exact Audio Copy V1.0 beta 3 from 29. August 2011

EAC extraction logfile from 16. March 2014, 12:36

Bill Evans Trio / Waltz For Debby

Used drive : ATAPI iHAS124 B Adapter: 2 ID: 1

Read mode : Secure
Utilize accurate stream : Yes
Defeat audio cache : Yes
Make use of C2 pointers : No

Read offset correction : 6
Overread into Lead-In and Lead-Out : No
Fill up missing offset samples with silence : Yes
Delete leading and trailing silent blocks : No
Null samples used in CRC calculations : Yes
Used interface : Native Win32 interface for Win NT & 2000
Gap handling : Appended to previous track

Used output format : User Defined Encoder
Selected bitrate : 1024 kBit/s
Quality : High
Add ID3 tag : No
Command line compressor : C:\Program Files (x86)\FLAC Frontend\tools\flac.exe
Additional command line options : -8 -V -T "ARTIST=%artist%" -T "TITLE=%title%" -T "ALBUM=%albumtitle%" -T "DATE=%year%" -T "TRACKNUMBER=%tracknr%" -T "TOTALTRACKS=%numtracks%" -T "GENRE=%genre%" -T "ALBUMARTIST=%albumartist%" -T "ALBUM ARTIST=%albumartist%" -T "COMMENT=EAC Secure Mode, Test & Copy, AccurateRip, FLAC -8" %source%


TOC of the extracted CD

Track | Start | Length | Start sector | End sector
––––––––––––––––––––––––––––-
1 | 0:00.00 | 4:57.24 | 0 | 22298
2 | 4:57.24 | 7:00.17 | 22299 | 53815
3 | 11:57.41 | 7:36.64 | 53816 | 88079
4 | 19:34.30 | 7:11.16 | 88080 | 120420
5 | 26:45.46 | 4:59.63 | 120421 | 142908
6 | 31:45.34 | 6:32.63 | 142909 | 172371
7 | 38:18.22 | 6:00.23 | 172372 | 199394
8 | 44:18.45 | 0:30.57 | 199395 | 201701
9 | 44:49.27 | 6:49.57 | 201702 | 232433
10 | 51:39.09 | 7:15.13 | 232434 | 265071
11 | 58:54.22 | 7:12.03 | 265072 | 297474


Track 1

Filename C:\Bill Evans Trio - Waltz For Debby (1961) {2010 Riverside} [OJC Remasters Complete Series]\01 - My Foolish Heart.wav

Pre-gap length 0:00:02.00

Peak level 95.2 %
Extraction speed 1.9 X
Track quality 100.0 %
Test CRC 24AFF121
Copy CRC 24AFF121
Accurately ripped (confidence 45) [1E5F8721] (AR v2)
Copy OK

Track 2

Filename C:\Bill Evans Trio - Waltz For Debby (1961) {2010 Riverside} [OJC Remasters Complete Series]\02 - Waltz For Debby (Take 2).wav

Peak level 79.9 %
Extraction speed 2.3 X
Track quality 100.0 %
Test CRC 602044B7
Copy CRC 602044B7
Accurately ripped (confidence 46) [9642E7B1] (AR v2)
Copy OK

Track 3

Filename C:\Bill Evans Trio - Waltz For Debby (1961) {2010 Riverside} [OJC Remasters Complete Series]\03 - Detour Ahead (Take 2).wav

Peak level 80.8 %
Extraction speed 2.2 X
Track quality 99.9 %
Test CRC C758B747
Copy CRC C758B747
Accurately ripped (confidence 46) [16F19B0B] (AR v2)
Copy OK

Track 4

Filename C:\Bill Evans Trio - Waltz For Debby (1961) {2010 Riverside} [OJC Remasters Complete Series]\04 - My Romance (Take 1).wav

Peak level 98.1 %
Extraction speed 2.9 X
Track quality 100.0 %
Test CRC D42C1B9C
Copy CRC D42C1B9C
Accurately ripped (confidence 46) [5306920F] (AR v2)
Copy OK

Track 5

Filename C:\Bill Evans Trio - Waltz For Debby (1961) {2010 Riverside} [OJC Remasters Complete Series]\05 - Some Other Time.wav

Peak level 64.8 %
Extraction speed 3.0 X
Track quality 100.0 %
Test CRC 592AD0D3
Copy CRC 592AD0D3
Accurately ripped (confidence 46) [1D8761CD] (AR v2)
Copy OK

Track 6

Filename C:\Bill Evans Trio - Waltz For Debby (1961) {2010 Riverside} [OJC Remasters Complete Series]\06 - Milestones.wav

Peak level 98.2 %
Extraction speed 3.3 X
Track quality 100.0 %
Test CRC 35DD97D0
Copy CRC 35DD97D0
Accurately ripped (confidence 46) [E6B88DB8] (AR v2)
Copy OK

Track 7

Filename C:\Bill Evans Trio - Waltz For Debby (1961) {2010 Riverside} [OJC Remasters Complete Series]\07 - Porgy (I Loves You, Porgy) (Bonus Track).wav

Peak level 98.0 %
Extraction speed 3.5 X
Track quality 100.0 %
Test CRC C0AFBFBE
Copy CRC C0AFBFBE
Accurately ripped (confidence 46) [5521A6B7] (AR v2)
Copy OK

Track 8

Filename C:\Bill Evans Trio - Waltz For Debby (1961) {2010 Riverside} [OJC Remasters Complete Series]\08 - discussing repertoire (Bonus Track).wav

Peak level 29.6 %
Extraction speed 1.7 X
Track quality 100.0 %
Test CRC F5FAC21B
Copy CRC F5FAC21B
Accurately ripped (confidence 46) [CF8E87B1] (AR v2)
Copy OK

Track 9

Filename C:\Bill Evans Trio - Waltz For Debby (1961) {2010 Riverside} [OJC Remasters Complete Series]\09 - Waltz For Debby (Take 1) (Bonus Track).wav

Peak level 98.1 %
Extraction speed 3.8 X
Track quality 100.0 %
Test CRC EF6AC980
Copy CRC EF6AC980
Accurately ripped (confidence 46) [48DD851F] (AR v2)
Copy OK

Track 10

Filename C:\Bill Evans Trio - Waltz For Debby (1961) {2010 Riverside} [OJC Remasters Complete Series]\10 - Detour Ahead (Take 1) (Bonus Track).wav

Peak level 98.0 %
Extraction speed 4.0 X
Track quality 100.0 %
Test CRC 3979C909
Copy CRC 3979C909
Accurately ripped (confidence 45) [44BE9992] (AR v2)
Copy OK

Track 11

Filename C:\Bill Evans Trio - Waltz For Debby (1961) {2010 Riverside} [OJC Remasters Complete Series]\11 - My Romance (Take 2) (Bonus Track).wav

Peak level 79.8 %
Extraction speed 4.1 X
Track quality 100.0 %
Test CRC 7E4213DD
Copy CRC 7E4213DD
Accurately ripped (confidence 47) [E70270CE] (AR v2)
Copy OK


All tracks accurately ripped

No errors occurred

End of status report

==== Log checksum 54C1BC62160722555995CFD633066E405A8BAEA73B9D5E92A2CC45E5DF0F565F ====


Bill Evans Trio - Waltz For Debby (1961) {2010 Riverside} [OJC Remasters Complete Series] (Item #12)

Bill Evans Trio - Waltz For Debby (1961) {2010 Riverside} [OJC Remasters Complete Series] (Item #12)




NEXT -> Chet Baker - Chet Baker Sings (1958) {2010 Riverside} [OJC Remasters Complete Series] (Item #13)