Subcategories

Bill Nelson and The Gentlemen Rocketeers - Recorded Live In Concert At Metropolis Studios, London {2CD+DVD9 PAL Salvo}

Posted By: ruskaval
Bill Nelson and The Gentlemen Rocketeers - Recorded Live In Concert At Metropolis Studios, London {2CD+DVD9 PAL Salvo}

Bill Nelson and The Gentlemen Rocketeers - Recorded Live In Concert At Metropolis Studios, London {2CD+DVD9 PAL Salvo}
EAC rip (secure mode) | FLAC (tracks)+CUE+LOG -> 708 Mb | MP3 @320 -> 227 Mb
DVD9 -> 7.37 Gb | All Regions | PAL 16:9 | English (LinearPCM, 2 ch / DTS, 6 ch) | ~ 2h | ISO Image
Full Artwork @ 300 dpi (png) -> 107 Mb | 5% repair rar
© 2012 Salvo / Union Square | SALVOSVX001
Rock / Art Rock / Experimental Rock

At the end of March 2011, Bill Nelson and the Gentlemen Rocketeers, along with one hundred plus guests, populated Studio A at Metropolis, West London, for a dynamite concert reminiscent of the Marquee club in its heyday. A blistering fourteen song set from the band, which covers much of Bill’s career to date, was the result. We’re delighted to present that set here on both CD and DVD, together with an interview with Bill and a sublime four track solo set as DVD extras.

Wielding an array of gorgeous-looking guitars, Bill and his cohorts treated those present to a fantastic show, notable particularly for the fact that they performed a number of rarely heard Bebop Deluxe numbers - classics such as Night Creatures, Maid In Heaven, Adventures In A Yorkshire Landscape and Ships In the Night.
Bill Nelson and The Gentlemen Rocketeers - Recorded Live In Concert At Metropolis Studios, London {2CD+DVD9 PAL Salvo}

Part of a series of Sound & Vision packages from the ever reliable Salvo – also including sets by Van Der Graaf Generator, Roy Harper, Caravan, Barclay James Harvest and more – wherein the artists in question are put in front of an intimate audience of real fans (and by intimate we mean real up close and personal, whites of their eyes stuff), prompting them to deliver some spectacular performances. This one, a 3 disc set By Bill Nelson and his Gentlemen Rocketeers, is particularly good touching as it does on most parts of his career from Be Bop Deluxe (‘Maid In Heaven’, ‘Ships In The Night’, ‘Panic In The World’) through Red Noise (‘Furniture Music’), solo new wave hits (‘Do You Dream In Colour’) and beyond to the more experimental solo material he is known for today, mostly found on a second CD of instrumental tracks, all of which are also found on the DVD, alongside a short but revealing interview. Fans who couldn’t attend will love this whilst being insanely jealous they weren’t there to pat the reclusive Mr N heartily on the back as he timidly makes his way to the stage.
Bill Nelson and The Gentlemen Rocketeers - Recorded Live In Concert At Metropolis Studios, London {2CD+DVD9 PAL Salvo}


INFO

tracklist:
Disc 1

01. The October Man
02. Night Creatures
03. God Man Slain
04. Contemplation
05. Lady You're a Strange Girl
06. Adventures In a Yorkshire Landscape
07. Furniture Music
08. Do You Dream In Colour
09. Ships In the Night
10. Lovers Are Mortal
11. Maid In Heaven
12. Sister Seagull
13. Wonder of the Moment
14. Panic In the World

Disc 2
01. Beyond These Clouds the Sweetest Dream
02. Golden Dream of Circus Horses
03. A Dream For Ian
04. For Stuart

Disc 3 (DVD)
01. The October Man
02. Night Creatures
03. God Man Slain
04. Contemplation
05. Lady You're a Strange Girl
06. Adventures In a Yorkshire Landscape
07. Furniture Music
08. Do You Dream In Colour
09. Ships In the Night
10. Lovers Are Mortal
11. Maid In Heaven
12. Sister Seagull
13. Wonder of the Moment
14. Panic In the World
15. Beyond These Clouds the Sweetest Dream
16. Golden Dream of Circus Horses
17. A Dream For Ian
18. For Stuart
19. Interview With Bill Nelson

Exact Audio Copy V1.0 beta 3 from 29. August 2011

EAC extraction logfile from 6. October 2012, 14:53

Bill Nelson and the Gentlemen Rocketeers / Recorded Live In Concert At Metropolis Studios, London (Disc 1)

Used drive : TSSTcorpCDDVDW SH-S223C Adapter: 1 ID: 0

Read mode : Secure
Utilize accurate stream : Yes
Defeat audio cache : Yes
Make use of C2 pointers : No

Read offset correction : 697
Overread into Lead-In and Lead-Out : No
Fill up missing offset samples with silence : Yes
Delete leading and trailing silent blocks : No
Null samples used in CRC calculations : Yes
Used interface : Native Win32 interface for Win NT & 2000
Gap handling : Appended to previous track

Used output format : User Defined Encoder
Selected bitrate : 1024 kBit/s
Quality : High
Add ID3 tag : No
Command line compressor : C:\Program Files (x86)\Exact Audio Copy\FLAC\FLAC.EXE
Additional command line options : -8 -V -T "ARTIST=%artist%" -T "TITLE=%title%" -T "ALBUM=%albumtitle%" -T "DATE=%year%" -T "TRACKNUMBER=%tracknr%" -T "TOTALTRACKS=%numtracks%" -T "GENRE=%genre%" -T "ALBUMARTIST=%albumartist%" -T "ALBUM ARTIST=%albumartist%" -T "COMMENT=EAC Secure Mode, Test & Copy, AccurateRip, FLAC -8" %source%


TOC of the extracted CD

Track | Start | Length | Start sector | End sector
––––––––––––––––––––––––––––-
1 | 0:00.00 | 5:46.01 | 0 | 25950
2 | 5:46.01 | 4:24.15 | 25951 | 45765
3 | 10:10.16 | 4:25.08 | 45766 | 65648
4 | 14:35.24 | 9:48.62 | 65649 | 109810
5 | 24:24.11 | 3:12.52 | 109811 | 124262
6 | 27:36.63 | 9:50.59 | 124263 | 168571
7 | 37:27.47 | 3:17.58 | 168572 | 183404
8 | 40:45.30 | 3:34.31 | 183405 | 199485
9 | 44:19.61 | 4:31.27 | 199486 | 219837
10 | 48:51.13 | 6:38.39 | 219838 | 249726
11 | 55:29.52 | 2:30.63 | 249727 | 261039
12 | 58:00.40 | 3:31.62 | 261040 | 276926
13 | 61:32.27 | 4:04.53 | 276927 | 295279
14 | 65:37.05 | 6:50.60 | 295280 | 326089


Track 1

Filename C:\Bill Nelson - Recorded Live In Concert At Metropolis Studios, London\Disc 1of2\01 - The October Man.wav

Pre-gap length 0:00:02.00

Peak level 99.8 %
Extraction speed 2.1 X
Track quality 100.0 %
Test CRC 2D37C901
Copy CRC 2D37C901
Track not present in AccurateRip database
Copy OK

Track 2

Filename C:\Bill Nelson - Recorded Live In Concert At Metropolis Studios, London\Disc 1of2\02 - Night Creatures.wav

Peak level 99.8 %
Extraction speed 2.3 X
Track quality 100.0 %
Test CRC E883702D
Copy CRC E883702D
Track not present in AccurateRip database
Copy OK

Track 3

Filename C:\Bill Nelson - Recorded Live In Concert At Metropolis Studios, London\Disc 1of2\03 - God Man Slain.wav

Peak level 99.8 %
Extraction speed 2.5 X
Track quality 100.0 %
Test CRC 16CF46BC
Copy CRC 16CF46BC
Track not present in AccurateRip database
Copy OK

Track 4

Filename C:\Bill Nelson - Recorded Live In Concert At Metropolis Studios, London\Disc 1of2\04 - Contemplation.wav

Peak level 99.8 %
Extraction speed 3.0 X
Track quality 100.0 %
Test CRC EBBB1A16
Copy CRC EBBB1A16
Track not present in AccurateRip database
Copy OK

Track 5

Filename C:\Bill Nelson - Recorded Live In Concert At Metropolis Studios, London\Disc 1of2\05 - Lady You're A Strange Girl.wav

Peak level 99.8 %
Extraction speed 2.9 X
Track quality 100.0 %
Test CRC 30D8BA5B
Copy CRC 30D8BA5B
Track not present in AccurateRip database
Copy OK

Track 6

Filename C:\Bill Nelson - Recorded Live In Concert At Metropolis Studios, London\Disc 1of2\06 - Adventures In A Yorkshire Landscape.wav

Peak level 99.8 %
Extraction speed 3.5 X
Track quality 100.0 %
Test CRC 34F40B28
Copy CRC 34F40B28
Track not present in AccurateRip database
Copy OK

Track 7

Filename C:\Bill Nelson - Recorded Live In Concert At Metropolis Studios, London\Disc 1of2\07 - Furniture Music.wav

Peak level 99.8 %
Extraction speed 3.3 X
Track quality 100.0 %
Test CRC 164C0F5F
Copy CRC 164C0F5F
Track not present in AccurateRip database
Copy OK

Track 8

Filename C:\Bill Nelson - Recorded Live In Concert At Metropolis Studios, London\Disc 1of2\08 - Do You Dream In Colour.wav

Peak level 99.8 %
Extraction speed 3.4 X
Track quality 100.0 %
Test CRC 5277C846
Copy CRC 5277C846
Track not present in AccurateRip database
Copy OK

Track 9

Filename C:\Bill Nelson - Recorded Live In Concert At Metropolis Studios, London\Disc 1of2\09 - Ships In The Night.wav

Peak level 99.8 %
Extraction speed 3.6 X
Track quality 100.0 %
Test CRC D5E6EA70
Copy CRC D5E6EA70
Track not present in AccurateRip database
Copy OK

Track 10

Filename C:\Bill Nelson - Recorded Live In Concert At Metropolis Studios, London\Disc 1of2\10 - Lovers Are Mortal.wav

Peak level 99.8 %
Extraction speed 3.9 X
Track quality 100.0 %
Test CRC 57C0EEC1
Copy CRC 57C0EEC1
Track not present in AccurateRip database
Copy OK

Track 11

Filename C:\Bill Nelson - Recorded Live In Concert At Metropolis Studios, London\Disc 1of2\11 - Maid In Heaven.wav

Peak level 99.8 %
Extraction speed 3.5 X
Track quality 100.0 %
Test CRC 3E4A0D5E
Copy CRC 3E4A0D5E
Track not present in AccurateRip database
Copy OK

Track 12

Filename C:\Bill Nelson - Recorded Live In Concert At Metropolis Studios, London\Disc 1of2\12 - Sister Seagull.wav

Peak level 99.8 %
Extraction speed 0.4 X
Track quality 99.9 %
Test CRC 49715FA9
Copy CRC 49715FA9
Track not present in AccurateRip database
Copy OK

Track 13

Filename C:\Bill Nelson - Recorded Live In Concert At Metropolis Studios, London\Disc 1of2\13 - Wonder Of The Moment.wav

Peak level 99.8 %
Extraction speed 0.5 X
Track quality 99.9 %
Test CRC 21DA4A68
Copy CRC 21DA4A68
Track not present in AccurateRip database
Copy OK

Track 14

Filename C:\Bill Nelson - Recorded Live In Concert At Metropolis Studios, London\Disc 1of2\14 - Panic In The World.wav

Peak level 99.8 %
Extraction speed 4.3 X
Track quality 100.0 %
Test CRC 23F2E325
Copy CRC 23F2E325
Track not present in AccurateRip database
Copy OK


None of the tracks are present in the AccurateRip database

No errors occurred

End of status report

==== Log checksum C3D9A9057C236997FB06CC2D68F1121E401B4A456A135A275C5E8286ED64BA81 ====

Exact Audio Copy V1.0 beta 3 from 29. August 2011

EAC extraction logfile from 6. October 2012, 16:34

Bill Nelson and the Gentlemen Rocketeers / Recorded Live In Concert At Metropolis Studios, London (Disc 2)

Used drive : TSSTcorpCDDVDW SH-S223C Adapter: 1 ID: 0

Read mode : Secure
Utilize accurate stream : Yes
Defeat audio cache : Yes
Make use of C2 pointers : No

Read offset correction : 697
Overread into Lead-In and Lead-Out : No
Fill up missing offset samples with silence : Yes
Delete leading and trailing silent blocks : No
Null samples used in CRC calculations : Yes
Used interface : Native Win32 interface for Win NT & 2000
Gap handling : Appended to previous track

Used output format : User Defined Encoder
Selected bitrate : 1024 kBit/s
Quality : High
Add ID3 tag : No
Command line compressor : C:\Program Files (x86)\Exact Audio Copy\FLAC\FLAC.EXE
Additional command line options : -8 -V -T "ARTIST=%artist%" -T "TITLE=%title%" -T "ALBUM=%albumtitle%" -T "DATE=%year%" -T "TRACKNUMBER=%tracknr%" -T "TOTALTRACKS=%numtracks%" -T "GENRE=%genre%" -T "ALBUMARTIST=%albumartist%" -T "ALBUM ARTIST=%albumartist%" -T "COMMENT=EAC Secure Mode, Test & Copy, AccurateRip, FLAC -8" %source%


TOC of the extracted CD

Track | Start | Length | Start sector | End sector
––––––––––––––––––––––––––––-
1 | 0:00.00 | 3:53.58 | 0 | 17532
2 | 3:53.58 | 7:35.24 | 17533 | 51681
3 | 11:29.07 | 4:29.56 | 51682 | 71912
4 | 15:58.63 | 7:37.21 | 71913 | 106208


Track 1

Filename C:\Bill Nelson - Recorded Live In Concert At Metropolis Studios, London\Disc 2of2\01 - Beyond These Clouds The Sweetest Dreams.wav

Pre-gap length 0:00:02.00

Peak level 97.6 %
Extraction speed 2.0 X
Track quality 100.0 %
Test CRC 855FEA35
Copy CRC 855FEA35
Accurately ripped (confidence 1) [67F6703C] (AR v2)
Copy OK

Track 2

Filename C:\Bill Nelson - Recorded Live In Concert At Metropolis Studios, London\Disc 2of2\02 - Golden Dream Of Circus Horses.wav

Peak level 99.8 %
Extraction speed 2.4 X
Track quality 100.0 %
Test CRC E29D335D
Copy CRC E29D335D
Accurately ripped (confidence 1) [68B54BC1] (AR v2)
Copy OK

Track 3

Filename C:\Bill Nelson - Recorded Live In Concert At Metropolis Studios, London\Disc 2of2\03 - A Dream For Ian.wav

Peak level 98.5 %
Extraction speed 2.6 X
Track quality 100.0 %
Test CRC 359CC363
Copy CRC 359CC363
Track not present in AccurateRip database
Copy OK

Track 4

Filename C:\Bill Nelson - Recorded Live In Concert At Metropolis Studios, London\Disc 2of2\04 - For Stuart.wav

Peak level 99.8 %
Extraction speed 3.0 X
Track quality 100.0 %
Test CRC 66B90A80
Copy CRC 66B90A80
Track not present in AccurateRip database
Copy OK


2 track(s) accurately ripped
2 track(s) not present in the AccurateRip database

Some tracks could not be verified as accurate

No errors occurred

End of status report

==== Log checksum 1DB893F9F635A9F4496EAEB574F8097D628DAC1D73D75FC03E00FFC1DC154A13 ====

I 11:20:30 DVD Decrypter Version 3.5.4.0 started!
I 11:20:30 Home Edition (6.1, Build 7601 : Service Pack 1)
I 11:20:30 Initialising SPTI…
I 11:20:30 Searching for SCSI / ATAPI devices…
I 11:20:30 Found 1 DVD-RAM/±RW!
I 11:21:31 Operation Started!
I 11:21:31 Source Device: [1:0:0] TSSTcorp CDDVDW SH-S223C SB02 (D:) (ATA)
I 11:21:31 Source Media Type: DVD-ROM
I 11:21:31 Source Media Region Code: 1, 2, 3, 4, 5, 6, 7, 8
I 11:21:31 Source Media Copyright Protection System Type: None
I 11:21:31 Source Media Implementation Identifier: ROM Formatter 3.1
I 11:21:31 Destination File: C:\Bill Nelson - Recorded Live In Concert At Metropolis Studios, London\Image\LEGENDS_BILL_NELSON.ISO
I 11:21:31 File Splitting: None
I 11:21:31 Hardware Read Error Retries: 20
I 11:21:31 Detect Mastering Errors: No
I 11:21:31 Remove Macrovision Protection: Yes
I 11:21:31 Extracting Sectors… (LBA: 0 - 3926592)
I 11:21:31 Found IFO File: VIDEO_TS.IFO - (LBA: 296 - 302)
I 11:21:31 Found VOB File: VIDEO_TS.VOB - (LBA: 303 - 85511) - KEY: N/A
I 11:21:55 Found BUP File: VIDEO_TS.BUP - (LBA: 85528 - 85534)
I 11:21:55 Found IFO File: VTS_01_0.IFO - (LBA: 85535 - 85576)
I 11:21:55 Found VOB File: VTS_01_0.VOB - (LBA: 85577 - 247088) - KEY: N/A
I 11:22:35 Found VOB File: VTS_01_1.VOB - (LBA: 247089 - 771207) - KEY: N/A
I 11:24:19 Found VOB File: VTS_01_2.VOB - (LBA: 771208 - 1295292) - KEY: N/A
I 11:25:43 Found VOB File: VTS_01_3.VOB - (LBA: 1295293 - 1819523) - KEY: N/A
I 11:26:54 Found VOB File: VTS_01_4.VOB - (LBA: 1819524 - 2343564) - KEY: N/A
I 11:28:00 Found VOB File: VTS_01_5.VOB - (LBA: 2343565 - 2867814) - KEY: N/A
I 11:29:14 Found VOB File: VTS_01_6.VOB - (LBA: 2867815 - 3392040) - KEY: N/A
I 11:30:42 Found VOB File: VTS_01_7.VOB - (LBA: 3392041 - 3584958) - KEY: N/A
I 11:31:20 Found BUP File: VTS_01_0.BUP - (LBA: 3584975 - 3585016)
I 11:31:20 Found IFO File: VTS_02_0.IFO - (LBA: 3585017 - 3585030)
I 11:31:20 Found VOB File: VTS_02_0.VOB - (LBA: 3585031 - 3585043) - KEY: N/A
I 11:31:20 Found VOB File: VTS_02_1.VOB - (LBA: 3585044 - 3926561) - KEY: N/A
I 11:32:39 Found BUP File: VTS_02_0.BUP - (LBA: 3926578 - 3926591)
I 11:32:39 Operation Successfully Completed! - Duration: 00:11:08
I 11:32:39 Average Read Rate: 11,756 KB/s (8.5x) - Maximum Read Rate: 16,646 KB/s (12.0x)


Bill Nelson and The Gentlemen Rocketeers - Recorded Live In Concert At Metropolis Studios, London {2CD+DVD9 PAL Salvo}

Bill Nelson and The Gentlemen Rocketeers - Recorded Live In Concert At Metropolis Studios, London {2CD+DVD9 PAL Salvo}

Bill Nelson and The Gentlemen Rocketeers - Recorded Live In Concert At Metropolis Studios, London {2CD+DVD9 PAL Salvo}

Bill Nelson and The Gentlemen Rocketeers - Recorded Live In Concert At Metropolis Studios, London {2CD+DVD9 PAL Salvo}

Bill Nelson and The Gentlemen Rocketeers - Recorded Live In Concert At Metropolis Studios, London {2CD+DVD9 PAL Salvo}


see more Bill Nelson…


===