Subcategories

Bill Nelson - Noise Candy (2015) {6CD Box Set Cocteau Discs Exclusive Limited Edition COCD 61011}

Posted By: ruskaval
Bill Nelson - Noise Candy (2015) {6CD Box Set Cocteau Discs Exclusive Limited Edition COCD 61011}

Bill Nelson - Noise Candy (2015) {6CD Box Set Cocteau Discs Exclusive Limited Edition COCD 61011}
EAC rip (secure mode) | FLAC (tracks)+CUE+LOG -> 2.44 Gb | MP3 @320 -> 948 Mb
Full Artwork @ 600 dpi (jpg) -> 667 Mb | 5% repair rar
© 2002, 2015 Esoteric / Cocteau Discs / Cherry Red | COCD 61011
Rock / Alternative / Art Rock / New Wave / Experimental / Guitar

Official reissue of Bill Nelson’s classic & long deleted six cd boxed set originally released in 2002. Eestores the original boxed set artwork & book. Esoteric Recordings’ imprint Cocteau Discs are very pleased to announce the re-release of one of the most sought after titles in BILL NELSON’s extensive solo catalogue, the boxed set "NOISE CANDY”. Originally released in 2002 on the Tone Swoon imprint, the set was available for a matter of months before the distributors ceased to exist. "NOISE CANDY” was a fascinating project that gathered together a host of recordings made by Bill at his various home studios between 1990 and 2000. Featuring 121 tracks, the set comprised 6 CDs of songs and instrumental music, each CD an album in their own right and entitled variously "Old Man Future Blows the Blues”, "Stargazing With Ranger Bill”, "Sunflower Dairy Product”, "King Frankenstein”, "Console” and "Playtime”.
Bill Nelson - Noise Candy (2015) {6CD Box Set Cocteau Discs Exclusive Limited Edition COCD 61011}

Beautifully designed, "Noise Candy” was one of Bill Nelson’s most involved projects and one of his most memorable. With copies extremely difficult to find, "Noise Candy” has since gained a legendary status amongst Bill Nelson fans. This Cocteau Discs limited edition reissue restores the album artwork and is presented in the same box format as the original 2002 release.
Bill Nelson - Noise Candy (2015) {6CD Box Set Cocteau Discs Exclusive Limited Edition COCD 61011}

If you're unfamiliar with Bill Nelson, this is a difficult start.

With six (count 'em: 6!) CDs in the box, one is offered a wealth of excess.
The music was recorded over a period of ten years, during what must have been Bill's biggest creative period. He release quite a number of albums through the 1990s. These tunes just didn't fit in to some of themes of those records. Uh… CDs.
But don't think this is a bunch of outtakes or tunes best left for the dustbin. All are first rate pieces of music.

Bill Nelson - Noise Candy (2015) {6CD Box Set Cocteau Discs Exclusive Limited Edition COCD 61011}


The six CDs each have a different name & theme:
1). Old Man Future Blows the Blues
2). Stargazing with Ranger Bill
3). Sunflower Dairy Product
4). King Frankenstein
5). Console
6). Playtime
And each CD is at least an hour or more long, so we're talking one heady bit of output here.
The big number some may have heard on alternative or college radio is "Big Yellow Moon" on disc 2. Great stuff. But then there are many standout cuts, such as "Dreamland Avenue", "All This & A Girl Like You", "Existentialism", and more.

Music features Nelson's love affair with retro-1940s science fiction and technology. Less focus on pure guitar & more on flowing, lilting tunes. And his signature "found sound" vocals are evident on a few tracks (Bill will record voices from movies & TV, loop them, and use them in segments of his music).
Add to that, an extensive booklet of notes & lyrics, bound into a beautiful box to hold all six CDs, make this a must-have for any Nelson fan out there.
Bill Nelson - Noise Candy (2015) {6CD Box Set Cocteau Discs Exclusive Limited Edition COCD 61011}

Ten years in the making, two years overdue after its original announcement, Noise Candy obsessed me in theory for at least a year and half and gave me a headache during the year following its final belated release. Yes it's an album of songs that "did not make the cut," but that does not mean it's a b-side or outtake collection: Nelson's muse is a voracious and ever-changing dame, and so the albums he assembled out of the sessions that produced these tracks–namely After the Satellite Sings, Weird Critters, Magnificent Dream People, and Atom Shop–are all self-contained works, just like each of the six discs that make up Noise Candy, and yet all the material in question is of top quality, more or less straight across the board. What's more, Nelson reworked, remixed, overdubbed and reshaped all of these tracks during a long incubation period–1990-2000–in order to produce a 6-part work of astounding cohesion. The resulting sound is a bubbling, airy, layered, and candy-colored swirl, with healthy doses of After the Satellite Sing's Eastern glow and Atom Shop's bluesy techno throb. The thing gave me a headache because it arrived in my life at the very apex of a several-year obsession with Nelson's work, and so I could not play the thing without worrying that I was not listening closely enough, or that the tracks I was listening to weren't the ones I wanted to hear–there were just so many (over 120!)–and I kept hearing tracks I thought I knew and that sounded odd to me: when would I ever absorb this thing!
Bill Nelson - Noise Candy (2015) {6CD Box Set Cocteau Discs Exclusive Limited Edition COCD 61011}


INFO

tracklist:
CD 1 - Old Man Future Blows the Blues:


Bill Nelson - Noise Candy (2015) {6CD Box Set Cocteau Discs Exclusive Limited Edition COCD 61011}

01. Humming in the Void/Girl with the Thousand-Watt Smile (5:21)
02. Vista-Dome-Railcar (3:41)
03. Behold Dumb Wonders (2:06)
04. Dreamland Avenue (4:11)
05. Jet Town (4:00)
06. Atom Blasted Cadillac (4:29)
07. Rocket Science Ranchboy (3:43)
08. No Meaning (3:39)
09. Whatever I Do (2:59)
10. Emerald City (2:16)
11. One Way Track (3:50)
12. Nowhere Fast (3:13)
13. Real Thing This Time (2:02)
14. Buddha's Eyes Are Everywhere (2:46)
15. Rockarolla (4:20)
16. Swing Song (2:16)
17. Edge of Recall (3:09)
18. My Paranoia (2:44)
19. Tomorrow's World (4:18)
20. Blowin' the Dust off the Book of the Future (3:21)
Bill Nelson - Noise Candy (2015) {6CD Box Set Cocteau Discs Exclusive Limited Edition COCD 61011}


Disc 2 - Stargazing With Ranger Bill:

Bill Nelson - Noise Candy (2015) {6CD Box Set Cocteau Discs Exclusive Limited Edition COCD 61011}

21. Great Plains (2:50)
22. Big Yellow Moon (4:10)
23. Hot-Rod Racer (2:51)
24. That Was Then (3:43)
25. Space-Ranch (3:27)
26. Monorail (2:15)
27. Ghost Train (2:09)
28. All This and a Girl Like You (3:07)
29. More Rain (3:27)
30. The Lonesome Cowboy Radio Show (2:43)
31. Sleepy Snakes (1:51)
32. Wild Lilac (3:36)
33. Perdita Rose (2:19)
34. World of Dreams (2:48)
35. Real Gone (3:24)
36. Time Today (2:37)
37. The Cowboy Club (6:50)
38. High and Mighty (1:16)
Bill Nelson - Noise Candy (2015) {6CD Box Set Cocteau Discs Exclusive Limited Edition COCD 61011}


Disc 3 - Sunflower Dairy Product:

Bill Nelson - Noise Candy (2015) {6CD Box Set Cocteau Discs Exclusive Limited Edition COCD 61011}

39. Baby Ruth's Big Special (1:26)
40. First Boy on the Moon (3:56)
41. Down Comes the Rain (1:43)
42. Don't Cry, Space-Guy (4:29)
43. Peppermint Flower (3:52)
44. Magic Hill (3:26)
45. The World Wakes Up (3:01)
46. Dumb-World (3:11)
47. Lay-Zee Boy Receiver (3:18)
48. Nevertheless (2:56)
49. Bright 'N Breezy (4:03)
50. The Hipseter Gimmick (2:40)
51. Dreamgirl (3:21)
52. Soakin' in the Bathtub (2:58)
53. Star Sufar Sky (3:03)
54. Dreamboat Situation (2:48)
55. God's Own Neighbourhood (3:51)
56. Existentialism (3:44)
57.. Stars Will Shine (3:42)
Bill Nelson - Noise Candy (2015) {6CD Box Set Cocteau Discs Exclusive Limited Edition COCD 61011}


Disc 4 - King Frankenstein:

Bill Nelson - Noise Candy (2015) {6CD Box Set Cocteau Discs Exclusive Limited Edition COCD 61011}

58 Planet of Guitars (3:32 )
59. Half-Man, Half-Static (3:15)
60. Monster Over the Fence (3:11)
61. Buddha Smoked My Cigarettes (3:56)
62 . The Invisible Venus of New York City (3:45)
63. Sunny Bungalows (2:52)
64. Glittering Star (3:08)
65. Elevated Railway (3:29)
66. Luminuos Intelligent Sexy Adults (3:53)
67. Sweet Little Dreamer (1:37)
68. My Luminous Planet (3:23)
69. Zip, Boom, Bang (3:16)
70. Reality Check (3:59)
71. Somewhere, Nowhere, Everywhere (3:51)
72. The Flower Thief (3:10)
73. Art for Art's Sake (2:00)
74. A Hat Like This (2:11)
75. Blink of an Eye (4:06)
76. When Accident Became My Bride (3:26)
77. Horse Eats Hat (3:16)
78. King Frankenstien (6:08)
79. Hello Children (3:28)
Bill Nelson - Noise Candy (2015) {6CD Box Set Cocteau Discs Exclusive Limited Edition COCD 61011}


Disc 5 - Console:

Bill Nelson - Noise Candy (2015) {6CD Box Set Cocteau Discs Exclusive Limited Edition COCD 61011}

80. Quiety Now (Manipulating the Phonograph No. 2) (2:51)
81. Ethel's Attic (2:48)
82. Clouds Above the Corn (2:57)
83. Wonderful Weather in Woodgates Lane (3:18)
84. Filligree (1:12)
85. Memo Recorder Dream Narative No. 1 (3:36)
86. Pink Poodle Parade (1:26)
87. The Clock That Time Forgot (3:02)
88. Holiday Express (4:08)
89. No Bee in His Bonnet (4:52)
90. Dust and Sunbeams and the Ticking of a Clock (3:11)
91. Adventure Annual (3:58)
92. Dreamstate USA (Memo Recorder Dream Narrative No. 2) (4:43)
93. Boy with Bubblepipe (3:05)
94. American Moderne (1:30)
95. Fuzzy Dux (3:56)
96. Rain of a Caravan Roof (3:55)
97. A Short History of the Future (1:18)
98. Ectoplasm Turbine (7:23)
99. Painted Boats on Still Waters (3:05)
Bill Nelson - Noise Candy (2015) {6CD Box Set Cocteau Discs Exclusive Limited Edition COCD 61011}


Disc 6 - Playtime:

Bill Nelson - Noise Candy (2015) {6CD Box Set Cocteau Discs Exclusive Limited Edition COCD 61011}

100. Futura (3:10)
101. Bakelite (2:35)
102. Lucky Sometimes (2:04)
103. Life Is Like This (3:21)
104. The Astral Tramways of England (5:06)
105. Be Here Now (2:19)
106. Aloha Niagra (4:30)
107. My Elevated Sweetheart (4:56)
108. Ladders Leading Nowhere (2:45)
109. The Now That Never Was (2:58)
110. Enigmatron (3:48)
111. Bamboozled (2:53)
112. Hieronymous Bosch Beyond (1:28)
113. Being and Nothingness Land (3:16)
114. Light's of Kingdom Come (3:57)
115. Before We Fall (3:20)
116. World Still Turns (3:21)
117. Dreaming of a Girl (4:00)
118. What We Wish For (3:55)
119. Big Empty Sky (3:57)
120. Endless Autumn (3:54)
Bill Nelson - Noise Candy (2015) {6CD Box Set Cocteau Discs Exclusive Limited Edition COCD 61011}


Exact Audio Copy V1.0 beta 4 from 7. December 2014

EAC extraction logfile from 8. February 2015, 0:50

Bill Nelson / Noise Candy (CD1) - Old Man Future Blows The Blues

Used drive : TSSTcorpCDDVDW SE-208DB Adapter: 1 ID: 1

Read mode : Secure
Utilize accurate stream : Yes
Defeat audio cache : Yes
Make use of C2 pointers : No

Read offset correction : 6
Overread into Lead-In and Lead-Out : No
Fill up missing offset samples with silence : Yes
Delete leading and trailing silent blocks : No
Null samples used in CRC calculations : Yes
Used interface : Native Win32 interface for Win NT & 2000
Gap handling : Appended to previous track

Used output format : User Defined Encoder
Selected bitrate : 1024 kBit/s
Quality : High
Add ID3 tag : No
Command line compressor : C:\Program Files (x86)\FLAC Frontend\tools\flac.exe
Additional command line options : -8 -V -T "ARTIST=%artist%" -T "TITLE=%title%" -T "ALBUM=%albumtitle%" -T "DATE=%year%" -T "TRACKNUMBER=%tracknr%" -T "TOTALTRACKS=%numtracks%" -T "GENRE=%genre%" -T "ALBUMARTIST=%albumartist%" -T "ALBUM ARTIST=%albumartist%" -T "COMMENT=EAC Secure Mode, Test & Copy, AccurateRip, FLAC -8" %source%


TOC of the extracted CD

Track | Start | Length | Start sector | End sector
––––––––––––––––––––––––––––-
1 | 0:00.00 | 5:21.67 | 0 | 24141
2 | 5:21.67 | 3:41.21 | 24142 | 40737
3 | 9:03.13 | 2:06.62 | 40738 | 50249
4 | 11:10.00 | 4:11.43 | 50250 | 69117
5 | 15:21.43 | 4:00.53 | 69118 | 87170
6 | 19:22.21 | 4:29.72 | 87171 | 107417
7 | 23:52.18 | 3:42.56 | 107418 | 124123
8 | 27:34.74 | 3:39.74 | 124124 | 140622
9 | 31:14.73 | 2:58.43 | 140623 | 154015
10 | 34:13.41 | 2:16.24 | 154016 | 164239
11 | 36:29.65 | 3:50.73 | 164240 | 181562
12 | 40:20.63 | 3:13.66 | 181563 | 196103
13 | 43:34.54 | 2:02.37 | 196104 | 205290
14 | 45:37.16 | 2:46.21 | 205291 | 217761
15 | 48:23.37 | 4:20.27 | 217762 | 237288
16 | 52:43.64 | 2:16.46 | 237289 | 247534
17 | 55:00.35 | 3:09.61 | 247535 | 261770
18 | 58:10.21 | 2:44.48 | 261771 | 274118
19 | 60:54.69 | 4:18.32 | 274119 | 293500
20 | 65:13.26 | 3:23.57 | 293501 | 308782


Track 1

Filename C:\Bill Nelson - Noise Candy (2015) [6CD Box Set] {Cocteau Discs}\CD1 - Old Man Future Blows The Blues\01 - Humming In The Void - Girl With The Thousand Watt Smile.wav

Pre-gap length 0:00:02.00

Peak level 99.4 %
Extraction speed 1.0 X
Track quality 100.0 %
Test CRC 5CE23A90
Copy CRC 5CE23A90
Track not present in AccurateRip database
Copy OK

Track 2

Filename C:\Bill Nelson - Noise Candy (2015) [6CD Box Set] {Cocteau Discs}\CD1 - Old Man Future Blows The Blues\02 - Vista-Dome-Railcar.wav

Peak level 99.4 %
Extraction speed 1.1 X
Track quality 100.0 %
Test CRC 7146A618
Copy CRC 7146A618
Track not present in AccurateRip database
Copy OK

Track 3

Filename C:\Bill Nelson - Noise Candy (2015) [6CD Box Set] {Cocteau Discs}\CD1 - Old Man Future Blows The Blues\03 - Behold Dumb Wonders.wav

Peak level 98.4 %
Extraction speed 0.8 X
Track quality 99.9 %
Test CRC 961B505B
Copy CRC 961B505B
Track not present in AccurateRip database
Copy OK

Track 4

Filename C:\Bill Nelson - Noise Candy (2015) [6CD Box Set] {Cocteau Discs}\CD1 - Old Man Future Blows The Blues\04 - Dreamland Avenue.wav

Peak level 91.1 %
Extraction speed 1.2 X
Track quality 100.0 %
Test CRC 71319EA8
Copy CRC 71319EA8
Track not present in AccurateRip database
Copy OK

Track 5

Filename C:\Bill Nelson - Noise Candy (2015) [6CD Box Set] {Cocteau Discs}\CD1 - Old Man Future Blows The Blues\05 - Jet Town.wav

Peak level 99.4 %
Extraction speed 1.1 X
Track quality 99.9 %
Test CRC 97FA6697
Copy CRC 97FA6697
Track not present in AccurateRip database
Copy OK

Track 6

Filename C:\Bill Nelson - Noise Candy (2015) [6CD Box Set] {Cocteau Discs}\CD1 - Old Man Future Blows The Blues\06 - Atom Blasted Cadillac.wav

Peak level 99.4 %
Extraction speed 1.4 X
Track quality 100.0 %
Test CRC C592D737
Copy CRC C592D737
Track not present in AccurateRip database
Copy OK

Track 7

Filename C:\Bill Nelson - Noise Candy (2015) [6CD Box Set] {Cocteau Discs}\CD1 - Old Man Future Blows The Blues\07 - Rocket Science Ranchboy.wav

Pre-gap length 0:00:00.56

Peak level 99.4 %
Extraction speed 1.2 X
Track quality 99.9 %
Test CRC C2DF461A
Copy CRC C2DF461A
Track not present in AccurateRip database
Copy OK

Track 8

Filename C:\Bill Nelson - Noise Candy (2015) [6CD Box Set] {Cocteau Discs}\CD1 - Old Man Future Blows The Blues\08 - No Meaning.wav

Peak level 99.4 %
Extraction speed 1.4 X
Track quality 100.0 %
Test CRC 8F77371A
Copy CRC 8F77371A
Track not present in AccurateRip database
Copy OK

Track 9

Filename C:\Bill Nelson - Noise Candy (2015) [6CD Box Set] {Cocteau Discs}\CD1 - Old Man Future Blows The Blues\09 - Whatever I Do.wav

Pre-gap length 0:00:01.30

Peak level 99.4 %
Extraction speed 1.4 X
Track quality 100.0 %
Test CRC 2089694E
Copy CRC 2089694E
Track not present in AccurateRip database
Copy OK

Track 10

Filename C:\Bill Nelson - Noise Candy (2015) [6CD Box Set] {Cocteau Discs}\CD1 - Old Man Future Blows The Blues\10 - Emerald City.wav

Pre-gap length 0:00:00.05

Peak level 99.4 %
Extraction speed 1.3 X
Track quality 100.0 %
Test CRC FA3DA297
Copy CRC FA3DA297
Track not present in AccurateRip database
Copy OK

Track 11

Filename C:\Bill Nelson - Noise Candy (2015) [6CD Box Set] {Cocteau Discs}\CD1 - Old Man Future Blows The Blues\11 - One Way Track.wav

Peak level 99.4 %
Extraction speed 1.5 X
Track quality 100.0 %
Test CRC E177BA61
Copy CRC E177BA61
Track not present in AccurateRip database
Copy OK

Track 12

Filename C:\Bill Nelson - Noise Candy (2015) [6CD Box Set] {Cocteau Discs}\CD1 - Old Man Future Blows The Blues\12 - Nowhere Fast.wav

Peak level 99.4 %
Extraction speed 1.3 X
Track quality 99.9 %
Test CRC B8E60EBF
Copy CRC B8E60EBF
Track not present in AccurateRip database
Copy OK

Track 13

Filename C:\Bill Nelson - Noise Candy (2015) [6CD Box Set] {Cocteau Discs}\CD1 - Old Man Future Blows The Blues\13 - Real Thing This Time.wav

Peak level 99.4 %
Extraction speed 1.1 X
Track quality 99.9 %
Test CRC 1A275A07
Copy CRC 1A275A07
Track not present in AccurateRip database
Copy OK

Track 14

Filename C:\Bill Nelson - Noise Candy (2015) [6CD Box Set] {Cocteau Discs}\CD1 - Old Man Future Blows The Blues\14 - Buddha's Eyes Are Everywhere.wav

Peak level 99.4 %
Extraction speed 1.5 X
Track quality 100.0 %
Test CRC ECC70646
Copy CRC ECC70646
Track not present in AccurateRip database
Copy OK

Track 15

Filename C:\Bill Nelson - Noise Candy (2015) [6CD Box Set] {Cocteau Discs}\CD1 - Old Man Future Blows The Blues\15 - Rockarolla.wav

Peak level 99.4 %
Extraction speed 1.7 X
Track quality 100.0 %
Test CRC DE608EE6
Copy CRC DE608EE6
Track not present in AccurateRip database
Copy OK

Track 16

Filename C:\Bill Nelson - Noise Candy (2015) [6CD Box Set] {Cocteau Discs}\CD1 - Old Man Future Blows The Blues\16 - Swing Song.wav

Peak level 99.4 %
Extraction speed 1.5 X
Track quality 100.0 %
Test CRC BB29F301
Copy CRC BB29F301
Track not present in AccurateRip database
Copy OK

Track 17

Filename C:\Bill Nelson - Noise Candy (2015) [6CD Box Set] {Cocteau Discs}\CD1 - Old Man Future Blows The Blues\17 - Edge Of Recall.wav

Peak level 99.4 %
Extraction speed 1.6 X
Track quality 100.0 %
Test CRC D970FFE9
Copy CRC D970FFE9
Track not present in AccurateRip database
Copy OK

Track 18

Filename C:\Bill Nelson - Noise Candy (2015) [6CD Box Set] {Cocteau Discs}\CD1 - Old Man Future Blows The Blues\18 - My Paranoia.wav

Peak level 99.4 %
Extraction speed 1.4 X
Track quality 99.9 %
Test CRC B6DAB60F
Copy CRC B6DAB60F
Track not present in AccurateRip database
Copy OK

Track 19

Filename C:\Bill Nelson - Noise Candy (2015) [6CD Box Set] {Cocteau Discs}\CD1 - Old Man Future Blows The Blues\19 - Tomorrow's World.wav

Peak level 99.4 %
Extraction speed 1.8 X
Track quality 100.0 %
Test CRC 2E69B77C
Copy CRC 2E69B77C
Track not present in AccurateRip database
Copy OK

Track 20

Filename C:\Bill Nelson - Noise Candy (2015) [6CD Box Set] {Cocteau Discs}\CD1 - Old Man Future Blows The Blues\20 - Blowin' The Dust Off The Book Of The Future.wav

Peak level 99.4 %
Extraction speed 1.8 X
Track quality 100.0 %
Test CRC 4093B20E
Copy CRC 4093B20E
Track not present in AccurateRip database
Copy OK


None of the tracks are present in the AccurateRip database

No errors occurred

End of status report

==== Log checksum 73A87558A942EE1E83FA120F2C4F828D7B7494CB634CA0465063F752E192C39D ====

Exact Audio Copy V1.0 beta 4 from 7. December 2014

EAC extraction logfile from 8. February 2015, 6:50

Bill Nelson / Noise Candy (CD2) - Stargazing With Ranger Bill

Used drive : TSSTcorpCDDVDW SE-208DB Adapter: 1 ID: 1

Read mode : Secure
Utilize accurate stream : Yes
Defeat audio cache : Yes
Make use of C2 pointers : No

Read offset correction : 6
Overread into Lead-In and Lead-Out : No
Fill up missing offset samples with silence : Yes
Delete leading and trailing silent blocks : No
Null samples used in CRC calculations : Yes
Used interface : Native Win32 interface for Win NT & 2000
Gap handling : Appended to previous track

Used output format : User Defined Encoder
Selected bitrate : 1024 kBit/s
Quality : High
Add ID3 tag : No
Command line compressor : C:\Program Files (x86)\FLAC Frontend\tools\flac.exe
Additional command line options : -8 -V -T "ARTIST=%artist%" -T "TITLE=%title%" -T "ALBUM=%albumtitle%" -T "DATE=%year%" -T "TRACKNUMBER=%tracknr%" -T "TOTALTRACKS=%numtracks%" -T "GENRE=%genre%" -T "ALBUMARTIST=%albumartist%" -T "ALBUM ARTIST=%albumartist%" -T "COMMENT=EAC Secure Mode, Test & Copy, AccurateRip, FLAC -8" %source%


TOC of the extracted CD

Track | Start | Length | Start sector | End sector
––––––––––––––––––––––––––––-
1 | 0:00.00 | 2:51.12 | 0 | 12836
2 | 2:51.12 | 4:10.20 | 12837 | 31606
3 | 7:01.32 | 2:51.53 | 31607 | 44484
4 | 9:53.10 | 3:43.36 | 44485 | 61245
5 | 13:36.46 | 3:27.16 | 61246 | 76786
6 | 17:03.62 | 2:15.06 | 76787 | 86917
7 | 19:18.68 | 2:09.26 | 86918 | 96618
8 | 21:28.19 | 3:07.11 | 96619 | 110654
9 | 24:35.30 | 3:28.10 | 110655 | 126264
10 | 28:03.40 | 2:43.57 | 126265 | 138546
11 | 30:47.22 | 1:51.22 | 138547 | 146893
12 | 32:38.44 | 3:36.40 | 146894 | 163133
13 | 36:15.09 | 2:19.40 | 163134 | 173598
14 | 38:34.49 | 2:48.55 | 173599 | 186253
15 | 41:23.29 | 3:24.29 | 186254 | 201582
16 | 44:47.58 | 2:37.44 | 201583 | 213401
17 | 47:25.27 | 6:50.28 | 213402 | 244179
18 | 54:15.55 | 1:18.71 | 244180 | 250100


Track 1

Filename C:\Bill Nelson - Noise Candy (2015) [6CD Box Set] {Cocteau Discs}\CD2 - Stargazing With Ranger Bill\01 - Great Plains.wav

Pre-gap length 0:00:02.00

Peak level 99.4 %
Extraction speed 0.9 X
Track quality 100.0 %
Test CRC 6E1DD4DF
Copy CRC 6E1DD4DF
Track not present in AccurateRip database
Copy OK

Track 2

Filename C:\Bill Nelson - Noise Candy (2015) [6CD Box Set] {Cocteau Discs}\CD2 - Stargazing With Ranger Bill\02 - Big Yellow Moon.wav

Peak level 99.4 %
Extraction speed 1.1 X
Track quality 100.0 %
Test CRC DE0981AD
Copy CRC DE0981AD
Track not present in AccurateRip database
Copy OK

Track 3

Filename C:\Bill Nelson - Noise Candy (2015) [6CD Box Set] {Cocteau Discs}\CD2 - Stargazing With Ranger Bill\03 - Hot-Rod Racer.wav

Peak level 99.4 %
Extraction speed 1.1 X
Track quality 100.0 %
Test CRC 479E92D7
Copy CRC 479E92D7
Track not present in AccurateRip database
Copy OK

Track 4

Filename C:\Bill Nelson - Noise Candy (2015) [6CD Box Set] {Cocteau Discs}\CD2 - Stargazing With Ranger Bill\04 - That Was Then.wav

Peak level 99.4 %
Extraction speed 1.2 X
Track quality 100.0 %
Test CRC ACB285A5
Copy CRC ACB285A5
Track not present in AccurateRip database
Copy OK

Track 5

Filename C:\Bill Nelson - Noise Candy (2015) [6CD Box Set] {Cocteau Discs}\CD2 - Stargazing With Ranger Bill\05 - Space-Ranch.wav

Peak level 99.4 %
Extraction speed 1.2 X
Track quality 100.0 %
Test CRC 463FD13F
Copy CRC 463FD13F
Track not present in AccurateRip database
Copy OK

Track 6

Filename C:\Bill Nelson - Noise Candy (2015) [6CD Box Set] {Cocteau Discs}\CD2 - Stargazing With Ranger Bill\06 - Monorail.wav

Peak level 99.4 %
Extraction speed 0.9 X
Track quality 99.9 %
Test CRC EED6943E
Copy CRC EED6943E
Track not present in AccurateRip database
Copy OK

Track 7

Filename C:\Bill Nelson - Noise Candy (2015) [6CD Box Set] {Cocteau Discs}\CD2 - Stargazing With Ranger Bill\07 - Ghost Train.wav

Peak level 99.4 %
Extraction speed 1.2 X
Track quality 100.0 %
Test CRC 6A11A4CA
Copy CRC 6A11A4CA
Track not present in AccurateRip database
Copy OK

Track 8

Filename C:\Bill Nelson - Noise Candy (2015) [6CD Box Set] {Cocteau Discs}\CD2 - Stargazing With Ranger Bill\08 - All This And A Girl Like You.wav

Peak level 99.4 %
Extraction speed 1.3 X
Track quality 100.0 %
Test CRC 50E03B76
Copy CRC 50E03B76
Track not present in AccurateRip database
Copy OK

Track 9

Filename C:\Bill Nelson - Noise Candy (2015) [6CD Box Set] {Cocteau Discs}\CD2 - Stargazing With Ranger Bill\09 - More Rain.wav

Peak level 99.4 %
Extraction speed 1.2 X
Track quality 99.9 %
Test CRC 4D5997AB
Copy CRC 4D5997AB
Track not present in AccurateRip database
Copy OK

Track 10

Filename C:\Bill Nelson - Noise Candy (2015) [6CD Box Set] {Cocteau Discs}\CD2 - Stargazing With Ranger Bill\10 - The Lonesome Cowboy Radio Show.wav

Peak level 99.4 %
Extraction speed 1.4 X
Track quality 100.0 %
Test CRC 6923CA79
Copy CRC 6923CA79
Track not present in AccurateRip database
Copy OK

Track 11

Filename C:\Bill Nelson - Noise Candy (2015) [6CD Box Set] {Cocteau Discs}\CD2 - Stargazing With Ranger Bill\11 - Sleepy Snakes.wav

Peak level 99.3 %
Extraction speed 1.2 X
Track quality 100.0 %
Test CRC 7D9B7785
Copy CRC 7D9B7785
Track not present in AccurateRip database
Copy OK

Track 12

Filename C:\Bill Nelson - Noise Candy (2015) [6CD Box Set] {Cocteau Discs}\CD2 - Stargazing With Ranger Bill\12 - Wild Lilac.wav

Peak level 99.4 %
Extraction speed 1.5 X
Track quality 100.0 %
Test CRC CB4CBBEC
Copy CRC CB4CBBEC
Track not present in AccurateRip database
Copy OK

Track 13

Filename C:\Bill Nelson - Noise Candy (2015) [6CD Box Set] {Cocteau Discs}\CD2 - Stargazing With Ranger Bill\13 - Perdita Rose.wav

Peak level 99.4 %
Extraction speed 1.4 X
Track quality 100.0 %
Test CRC 9E2D456E
Copy CRC 9E2D456E
Track not present in AccurateRip database
Copy OK

Track 14

Filename C:\Bill Nelson - Noise Candy (2015) [6CD Box Set] {Cocteau Discs}\CD2 - Stargazing With Ranger Bill\14 - World Of Dreams.wav

Peak level 99.4 %
Extraction speed 1.5 X
Track quality 100.0 %
Test CRC 42572F05
Copy CRC 42572F05
Track not present in AccurateRip database
Copy OK

Track 15

Filename C:\Bill Nelson - Noise Candy (2015) [6CD Box Set] {Cocteau Discs}\CD2 - Stargazing With Ranger Bill\15 - Real Gone.wav

Peak level 99.4 %
Extraction speed 1.6 X
Track quality 100.0 %
Test CRC 35792F28
Copy CRC 35792F28
Track not present in AccurateRip database
Copy OK

Track 16

Filename C:\Bill Nelson - Noise Candy (2015) [6CD Box Set] {Cocteau Discs}\CD2 - Stargazing With Ranger Bill\16 - Time Today.wav

Peak level 99.4 %
Extraction speed 1.6 X
Track quality 100.0 %
Test CRC 35F79514
Copy CRC 35F79514
Track not present in AccurateRip database
Copy OK

Track 17

Filename C:\Bill Nelson - Noise Candy (2015) [6CD Box Set] {Cocteau Discs}\CD2 - Stargazing With Ranger Bill\17 - The Cowboy Club.wav

Peak level 99.4 %
Extraction speed 1.7 X
Track quality 99.9 %
Test CRC F11BE74F
Copy CRC F11BE74F
Track not present in AccurateRip database
Copy OK

Track 18

Filename C:\Bill Nelson - Noise Candy (2015) [6CD Box Set] {Cocteau Discs}\CD2 - Stargazing With Ranger Bill\18 - High And Mighty.wav

Peak level 99.4 %
Extraction speed 1.3 X
Track quality 100.0 %
Test CRC C42E1CA4
Copy CRC C42E1CA4
Track not present in AccurateRip database
Copy OK


None of the tracks are present in the AccurateRip database

No errors occurred

End of status report

==== Log checksum 8BF2BE03ACF15AD68D35EB522C494C591FF7AEB4E4E8BFC0578DA0053F471A05 ====

Exact Audio Copy V1.0 beta 4 from 7. December 2014

EAC extraction logfile from 8. February 2015, 11:56

Bill Nelson / Noise Candy (CD3) - Sunflower Dairy Product

Used drive : TSSTcorpCDDVDW SE-208DB Adapter: 1 ID: 1

Read mode : Secure
Utilize accurate stream : Yes
Defeat audio cache : Yes
Make use of C2 pointers : No

Read offset correction : 6
Overread into Lead-In and Lead-Out : No
Fill up missing offset samples with silence : Yes
Delete leading and trailing silent blocks : No
Null samples used in CRC calculations : Yes
Used interface : Native Win32 interface for Win NT & 2000
Gap handling : Appended to previous track

Used output format : User Defined Encoder
Selected bitrate : 1024 kBit/s
Quality : High
Add ID3 tag : No
Command line compressor : C:\Program Files (x86)\FLAC Frontend\tools\flac.exe
Additional command line options : -8 -V -T "ARTIST=%artist%" -T "TITLE=%title%" -T "ALBUM=%albumtitle%" -T "DATE=%year%" -T "TRACKNUMBER=%tracknr%" -T "TOTALTRACKS=%numtracks%" -T "GENRE=%genre%" -T "ALBUMARTIST=%albumartist%" -T "ALBUM ARTIST=%albumartist%" -T "COMMENT=EAC Secure Mode, Test & Copy, AccurateRip, FLAC -8" %source%


TOC of the extracted CD

Track | Start | Length | Start sector | End sector
––––––––––––––––––––––––––––-
1 | 0:00.00 | 1:26.31 | 0 | 6480
2 | 1:26.31 | 3:56.63 | 6481 | 24243
3 | 5:23.19 | 1:43.60 | 24244 | 32028
4 | 7:07.04 | 4:29.12 | 32029 | 52215
5 | 11:36.16 | 3:52.33 | 52216 | 69648
6 | 15:28.49 | 3:26.72 | 69649 | 85170
7 | 18:55.46 | 3:01.65 | 85171 | 98810
8 | 21:57.36 | 3:11.53 | 98811 | 113188
9 | 25:09.14 | 3:18.66 | 113189 | 128104
10 | 28:28.05 | 2:56.39 | 128105 | 141343
11 | 31:24.44 | 4:03.18 | 141344 | 159586
12 | 35:27.62 | 2:40.52 | 159587 | 171638
13 | 38:08.39 | 3:21.51 | 171639 | 186764
14 | 41:30.15 | 2:58.04 | 186765 | 200118
15 | 44:28.19 | 3:03.58 | 200119 | 213901
16 | 47:32.02 | 2:48.33 | 213902 | 226534
17 | 50:20.35 | 3:51.71 | 226535 | 243930
18 | 54:12.31 | 3:44.20 | 243931 | 260750
19 | 57:56.51 | 3:42.20 | 260751 | 277420
20 | 61:38.71 | 3:17.62 | 277421 | 292257


Track 1

Filename C:\Bill Nelson - Noise Candy (2015) [6CD Box Set] {Cocteau Discs}\CD3 - Sunflower Dairy Product\01 - Baby Ruth's Big Special.wav

Pre-gap length 0:00:02.00

Peak level 99.4 %
Extraction speed 2.0 X
Track quality 100.0 %
Test CRC 4F5D61E3
Copy CRC 4F5D61E3
Track not present in AccurateRip database
Copy OK

Track 2

Filename C:\Bill Nelson - Noise Candy (2015) [6CD Box Set] {Cocteau Discs}\CD3 - Sunflower Dairy Product\02 - First Boy On The Moon.wav

Peak level 99.4 %
Extraction speed 2.7 X
Track quality 100.0 %
Test CRC 0E3A5EF0
Copy CRC 0E3A5EF0
Track not present in AccurateRip database
Copy OK

Track 3

Filename C:\Bill Nelson - Noise Candy (2015) [6CD Box Set] {Cocteau Discs}\CD3 - Sunflower Dairy Product\03 - Down Comes The Rain.wav

Peak level 99.4 %
Extraction speed 2.4 X
Track quality 100.0 %
Test CRC 74F2882D
Copy CRC 74F2882D
Track not present in AccurateRip database
Copy OK

Track 4

Filename C:\Bill Nelson - Noise Candy (2015) [6CD Box Set] {Cocteau Discs}\CD3 - Sunflower Dairy Product\04 - Don't Cry, Space-Guy.wav

Peak level 99.4 %
Extraction speed 3.1 X
Track quality 100.0 %
Test CRC A72CC17A
Copy CRC A72CC17A
Track not present in AccurateRip database
Copy OK

Track 5

Filename C:\Bill Nelson - Noise Candy (2015) [6CD Box Set] {Cocteau Discs}\CD3 - Sunflower Dairy Product\05 - Peppermint Flower.wav

Peak level 99.4 %
Extraction speed 3.4 X
Track quality 100.0 %
Test CRC F787C91C
Copy CRC F787C91C
Track not present in AccurateRip database
Copy OK

Track 6

Filename C:\Bill Nelson - Noise Candy (2015) [6CD Box Set] {Cocteau Discs}\CD3 - Sunflower Dairy Product\06 - Magic Hill.wav

Peak level 99.4 %
Extraction speed 3.5 X
Track quality 100.0 %
Test CRC 38FF64F1
Copy CRC 38FF64F1
Track not present in AccurateRip database
Copy OK

Track 7

Filename C:\Bill Nelson - Noise Candy (2015) [6CD Box Set] {Cocteau Discs}\CD3 - Sunflower Dairy Product\07 - The World Wakes Up.wav

Peak level 99.4 %
Extraction speed 3.5 X
Track quality 100.0 %
Test CRC 766E192E
Copy CRC 766E192E
Track not present in AccurateRip database
Copy OK

Track 8

Filename C:\Bill Nelson - Noise Candy (2015) [6CD Box Set] {Cocteau Discs}\CD3 - Sunflower Dairy Product\08 - Dumb-World.wav

Peak level 99.4 %
Extraction speed 3.8 X
Track quality 100.0 %
Test CRC 57CFA809
Copy CRC 57CFA809
Track not present in AccurateRip database
Copy OK

Track 9

Filename C:\Bill Nelson - Noise Candy (2015) [6CD Box Set] {Cocteau Discs}\CD3 - Sunflower Dairy Product\09 - Lay-Zee Boy Receiver.wav

Peak level 99.4 %
Extraction speed 3.1 X
Track quality 99.9 %
Test CRC C3068ADD
Copy CRC C3068ADD
Track not present in AccurateRip database
Copy OK

Track 10

Filename C:\Bill Nelson - Noise Candy (2015) [6CD Box Set] {Cocteau Discs}\CD3 - Sunflower Dairy Product\10 - Nevertheless.wav

Peak level 99.4 %
Extraction speed 4.0 X
Track quality 100.0 %
Test CRC D38807DE
Copy CRC D38807DE
Track not present in AccurateRip database
Copy OK

Track 11

Filename C:\Bill Nelson - Noise Candy (2015) [6CD Box Set] {Cocteau Discs}\CD3 - Sunflower Dairy Product\11 - Bright N' Breezy.wav

Peak level 99.4 %
Extraction speed 4.3 X
Track quality 100.0 %
Test CRC DBDE89FA
Copy CRC DBDE89FA
Track not present in AccurateRip database
Copy OK

Track 12

Filename C:\Bill Nelson - Noise Candy (2015) [6CD Box Set] {Cocteau Discs}\CD3 - Sunflower Dairy Product\12 - The Hipster Gimmick.wav

Peak level 99.4 %
Extraction speed 3.1 X
Track quality 99.9 %
Test CRC 04FA6628
Copy CRC 04FA6628
Track not present in AccurateRip database
Copy OK

Track 13

Filename C:\Bill Nelson - Noise Candy (2015) [6CD Box Set] {Cocteau Discs}\CD3 - Sunflower Dairy Product\13 - Dreamgirl.wav

Peak level 99.4 %
Extraction speed 4.4 X
Track quality 100.0 %
Test CRC 6A044DFE
Copy CRC 6A044DFE
Track not present in AccurateRip database
Copy OK

Track 14

Filename C:\Bill Nelson - Noise Candy (2015) [6CD Box Set] {Cocteau Discs}\CD3 - Sunflower Dairy Product\14 - Soakin' In The Bathtub.wav

Peak level 99.4 %
Extraction speed 4.5 X
Track quality 100.0 %
Test CRC 8225DD8B
Copy CRC 8225DD8B
Track not present in AccurateRip database
Copy OK

Track 15

Filename C:\Bill Nelson - Noise Candy (2015) [6CD Box Set] {Cocteau Discs}\CD3 - Sunflower Dairy Product\15 - Star Sugar Sky.wav

Peak level 99.4 %
Extraction speed 4.6 X
Track quality 100.0 %
Test CRC 3D4040A6
Copy CRC 3D4040A6
Track not present in AccurateRip database
Copy OK

Track 16

Filename C:\Bill Nelson - Noise Candy (2015) [6CD Box Set] {Cocteau Discs}\CD3 - Sunflower Dairy Product\16 - Dreamboat Situation.wav

Peak level 99.4 %
Extraction speed 4.6 X
Track quality 100.0 %
Test CRC 98B27747
Copy CRC 98B27747
Track not present in AccurateRip database
Copy OK

Track 17

Filename C:\Bill Nelson - Noise Candy (2015) [6CD Box Set] {Cocteau Discs}\CD3 - Sunflower Dairy Product\17 - God's Own Neighbourhood.wav

Peak level 99.4 %
Extraction speed 5.0 X
Track quality 100.0 %
Test CRC 0774C580
Copy CRC 0774C580
Track not present in AccurateRip database
Copy OK

Track 18

Filename C:\Bill Nelson - Noise Candy (2015) [6CD Box Set] {Cocteau Discs}\CD3 - Sunflower Dairy Product\18 - Looking For A Lantern.wav

Peak level 99.4 %
Extraction speed 5.1 X
Track quality 100.0 %
Test CRC E9C7A1C5
Copy CRC E9C7A1C5
Track not present in AccurateRip database
Copy OK

Track 19

Filename C:\Bill Nelson - Noise Candy (2015) [6CD Box Set] {Cocteau Discs}\CD3 - Sunflower Dairy Product\19 - Existentialism.wav

Peak level 99.4 %
Extraction speed 5.2 X
Track quality 100.0 %
Test CRC 6FCB6B7B
Copy CRC 6FCB6B7B
Track not present in AccurateRip database
Copy OK

Track 20

Filename C:\Bill Nelson - Noise Candy (2015) [6CD Box Set] {Cocteau Discs}\CD3 - Sunflower Dairy Product\20 - Stars Will Shine.wav

Peak level 99.4 %
Extraction speed 5.2 X
Track quality 100.0 %
Test CRC F740A75C
Copy CRC F740A75C
Track not present in AccurateRip database
Copy OK


None of the tracks are present in the AccurateRip database

No errors occurred

End of status report

==== Log checksum E5D6D4D8778821F258601F18957F942395DDFB5EFE787568D4BD4D98428BB1C8 ====

Exact Audio Copy V1.0 beta 4 from 7. December 2014

EAC extraction logfile from 8. February 2015, 13:56

Bill Nelson / Noise Candy (CD4) - King Frankenstein

Used drive : TSSTcorpCDDVDW SE-208DB Adapter: 1 ID: 1

Read mode : Secure
Utilize accurate stream : Yes
Defeat audio cache : Yes
Make use of C2 pointers : No

Read offset correction : 6
Overread into Lead-In and Lead-Out : No
Fill up missing offset samples with silence : Yes
Delete leading and trailing silent blocks : No
Null samples used in CRC calculations : Yes
Used interface : Native Win32 interface for Win NT & 2000
Gap handling : Appended to previous track

Used output format : User Defined Encoder
Selected bitrate : 1024 kBit/s
Quality : High
Add ID3 tag : No
Command line compressor : C:\Program Files (x86)\FLAC Frontend\tools\flac.exe
Additional command line options : -8 -V -T "ARTIST=%artist%" -T "TITLE=%title%" -T "ALBUM=%albumtitle%" -T "DATE=%year%" -T "TRACKNUMBER=%tracknr%" -T "TOTALTRACKS=%numtracks%" -T "GENRE=%genre%" -T "ALBUMARTIST=%albumartist%" -T "ALBUM ARTIST=%albumartist%" -T "COMMENT=EAC Secure Mode, Test & Copy, AccurateRip, FLAC -8" %source%


TOC of the extracted CD

Track | Start | Length | Start sector | End sector
––––––––––––––––––––––––––––-
1 | 0:00.00 | 3:32.60 | 0 | 15959
2 | 3:32.60 | 3:15.47 | 15960 | 30631
3 | 6:48.32 | 3:11.15 | 30632 | 44971
4 | 9:59.47 | 3:56.18 | 44972 | 62689
5 | 13:55.65 | 3:45.11 | 62690 | 79575
6 | 17:41.01 | 2:52.07 | 79576 | 92482
7 | 20:33.08 | 3:08.01 | 92483 | 106583
8 | 23:41.09 | 3:29.42 | 106584 | 122300
9 | 27:10.51 | 3:53.34 | 122301 | 139809
10 | 31:04.10 | 1:37.48 | 139810 | 147132
11 | 32:41.58 | 3:22.64 | 147133 | 162346
12 | 36:04.47 | 3:16.65 | 162347 | 177111
13 | 39:21.37 | 3:59.17 | 177112 | 195053
14 | 43:20.54 | 3:51.51 | 195054 | 212429
15 | 47:12.30 | 3:10.21 | 212430 | 226700
16 | 50:22.51 | 2:00.06 | 226701 | 235706
17 | 52:22.57 | 2:11.57 | 235707 | 245588
18 | 54:34.39 | 4:06.67 | 245589 | 264105
19 | 58:41.31 | 3:27.01 | 264106 | 279631
20 | 62:08.32 | 3:16.38 | 279632 | 294369
21 | 65:24.70 | 6:10.58 | 294370 | 322177


Track 1

Filename C:\Bill Nelson - Noise Candy (2015) [6CD Box Set] {Cocteau Discs}\CD4 - King Frankenstein\01 - Planet Of Guitars.wav

Pre-gap length 0:00:02.00

Peak level 99.4 %
Extraction speed 0.8 X
Track quality 99.9 %
Test CRC B075227B
Copy CRC B075227B
Track not present in AccurateRip database
Copy OK

Track 2

Filename C:\Bill Nelson - Noise Candy (2015) [6CD Box Set] {Cocteau Discs}\CD4 - King Frankenstein\02 - Half-Man, Half-Static.wav

Peak level 99.4 %
Extraction speed 1.1 X
Track quality 100.0 %
Test CRC 98735FDC
Copy CRC 98735FDC
Track not present in AccurateRip database
Copy OK

Track 3

Filename C:\Bill Nelson - Noise Candy (2015) [6CD Box Set] {Cocteau Discs}\CD4 - King Frankenstein\03 - Monster Over The Fence.wav

Peak level 99.4 %
Extraction speed 0.9 X
Track quality 99.9 %
Test CRC D1910049
Copy CRC D1910049
Track not present in AccurateRip database
Copy OK

Track 4

Filename C:\Bill Nelson - Noise Candy (2015) [6CD Box Set] {Cocteau Discs}\CD4 - King Frankenstein\04 - Buddha Smoked My Cigarettes.wav

Peak level 99.4 %
Extraction speed 1.2 X
Track quality 100.0 %
Test CRC 925EF79A
Copy CRC 925EF79A
Track not present in AccurateRip database
Copy OK

Track 5

Filename C:\Bill Nelson - Noise Candy (2015) [6CD Box Set] {Cocteau Discs}\CD4 - King Frankenstein\05 - The Invisible Venus Of New York City.wav

Peak level 99.4 %
Extraction speed 1.3 X
Track quality 100.0 %
Test CRC 4C893961
Copy CRC 4C893961
Track not present in AccurateRip database
Copy OK

Track 6

Filename C:\Bill Nelson - Noise Candy (2015) [6CD Box Set] {Cocteau Discs}\CD4 - King Frankenstein\06 - Sunny Bungalows.wav

Peak level 99.4 %
Extraction speed 1.3 X
Track quality 100.0 %
Test CRC 2E2CE8A9
Copy CRC 2E2CE8A9
Track not present in AccurateRip database
Copy OK

Track 7

Filename C:\Bill Nelson - Noise Candy (2015) [6CD Box Set] {Cocteau Discs}\CD4 - King Frankenstein\07 - Glittering Star.wav

Peak level 99.4 %
Extraction speed 1.3 X
Track quality 100.0 %
Test CRC 2C66DD45
Copy CRC 2C66DD45
Track not present in AccurateRip database
Copy OK

Track 8

Filename C:\Bill Nelson - Noise Candy (2015) [6CD Box Set] {Cocteau Discs}\CD4 - King Frankenstein\08 - Elevated Railway.wav

Peak level 99.4 %
Extraction speed 1.4 X
Track quality 100.0 %
Test CRC 47798A54
Copy CRC 47798A54
Track not present in AccurateRip database
Copy OK

Track 9

Filename C:\Bill Nelson - Noise Candy (2015) [6CD Box Set] {Cocteau Discs}\CD4 - King Frankenstein\09 - Luminous Intelligent Sexy Adults.wav

Peak level 99.4 %
Extraction speed 1.5 X
Track quality 100.0 %
Test CRC B5A0F782
Copy CRC B5A0F782
Track not present in AccurateRip database
Copy OK

Track 10

Filename C:\Bill Nelson - Noise Candy (2015) [6CD Box Set] {Cocteau Discs}\CD4 - King Frankenstein\10 - Sweet Little Dreamer.wav

Peak level 99.4 %
Extraction speed 1.2 X
Track quality 100.0 %
Test CRC F83683C4
Copy CRC F83683C4
Track not present in AccurateRip database
Copy OK

Track 11

Filename C:\Bill Nelson - Noise Candy (2015) [6CD Box Set] {Cocteau Discs}\CD4 - King Frankenstein\11 - My Luminous Planet.wav

Peak level 99.4 %
Extraction speed 1.2 X
Track quality 99.9 %
Test CRC B200210A
Copy CRC B200210A
Track not present in AccurateRip database
Copy OK

Track 12

Filename C:\Bill Nelson - Noise Candy (2015) [6CD Box Set] {Cocteau Discs}\CD4 - King Frankenstein\12 - Zip, Boom, Bang.wav

Peak level 99.4 %
Extraction speed 1.3 X
Track quality 99.9 %
Test CRC 557CBA4F
Copy CRC 557CBA4F
Track not present in AccurateRip database
Copy OK

Track 13

Filename C:\Bill Nelson - Noise Candy (2015) [6CD Box Set] {Cocteau Discs}\CD4 - King Frankenstein\13 - Reality Check.wav

Peak level 99.4 %
Extraction speed 1.6 X
Track quality 100.0 %
Test CRC 99194055
Copy CRC 99194055
Track not present in AccurateRip database
Copy OK

Track 14

Filename C:\Bill Nelson - Noise Candy (2015) [6CD Box Set] {Cocteau Discs}\CD4 - King Frankenstein\14 - Somewhere, Nowhere, Anywhere.wav

Peak level 99.4 %
Extraction speed 1.7 X
Track quality 100.0 %
Test CRC 307ECBE1
Copy CRC 307ECBE1
Track not present in AccurateRip database
Copy OK

Track 15

Filename C:\Bill Nelson - Noise Candy (2015) [6CD Box Set] {Cocteau Discs}\CD4 - King Frankenstein\15 - The Flower Thief.wav

Peak level 99.4 %
Extraction speed 1.6 X
Track quality 100.0 %
Test CRC D5F5B594
Copy CRC D5F5B594
Track not present in AccurateRip database
Copy OK

Track 16

Filename C:\Bill Nelson - Noise Candy (2015) [6CD Box Set] {Cocteau Discs}\CD4 - King Frankenstein\16 - Art For Art's Sake.wav

Peak level 99.4 %
Extraction speed 1.5 X
Track quality 100.0 %
Test CRC 06B79A25
Copy CRC 06B79A25
Track not present in AccurateRip database
Copy OK

Track 17

Filename C:\Bill Nelson - Noise Candy (2015) [6CD Box Set] {Cocteau Discs}\CD4 - King Frankenstein\17 - A Hat Like This.wav

Peak level 99.4 %
Extraction speed 1.5 X
Track quality 100.0 %
Test CRC DC1D288B
Copy CRC DC1D288B
Track not present in AccurateRip database
Copy OK

Track 18

Filename C:\Bill Nelson - Noise Candy (2015) [6CD Box Set] {Cocteau Discs}\CD4 - King Frankenstein\18 - Blink Of An Eye.wav

Peak level 99.4 %
Extraction speed 1.7 X
Track quality 100.0 %
Test CRC 539D3EA1
Copy CRC 539D3EA1
Track not present in AccurateRip database
Copy OK

Track 19

Filename C:\Bill Nelson - Noise Candy (2015) [6CD Box Set] {Cocteau Discs}\CD4 - King Frankenstein\19 - When Accident Became My Bride.wav

Peak level 99.4 %
Extraction speed 1.8 X
Track quality 100.0 %
Test CRC BBB05F87
Copy CRC BBB05F87
Track not present in AccurateRip database
Copy OK

Track 20

Filename C:\Bill Nelson - Noise Candy (2015) [6CD Box Set] {Cocteau Discs}\CD4 - King Frankenstein\20 - Horse Eats Hat.wav

Peak level 99.4 %
Extraction speed 1.5 X
Track quality 99.9 %
Test CRC 7A46C6D3
Copy CRC 7A46C6D3
Track not present in AccurateRip database
Copy OK

Track 21

Filename C:\Bill Nelson - Noise Candy (2015) [6CD Box Set] {Cocteau Discs}\CD4 - King Frankenstein\21 - King Frankenstein.wav

Peak level 99.4 %
Extraction speed 2.0 X
Track quality 100.0 %
Test CRC 48844FA2
Copy CRC 48844FA2
Track not present in AccurateRip database
Copy OK


None of the tracks are present in the AccurateRip database

No errors occurred

End of status report

==== Log checksum 6EAF34BCF6944BDB7CC1DB233B6AB20687665E211596E00CC027463F8ABFAD1B ====

Exact Audio Copy V1.0 beta 4 from 7. December 2014

EAC extraction logfile from 8. February 2015, 16:08

Bill Nelson / Noise Candy (CD5) - Console

Used drive : TSSTcorpCDDVDW SE-208DB Adapter: 1 ID: 1

Read mode : Secure
Utilize accurate stream : Yes
Defeat audio cache : Yes
Make use of C2 pointers : No

Read offset correction : 6
Overread into Lead-In and Lead-Out : No
Fill up missing offset samples with silence : Yes
Delete leading and trailing silent blocks : No
Null samples used in CRC calculations : Yes
Used interface : Native Win32 interface for Win NT & 2000
Gap handling : Appended to previous track

Used output format : User Defined Encoder
Selected bitrate : 1024 kBit/s
Quality : High
Add ID3 tag : No
Command line compressor : C:\Program Files (x86)\FLAC Frontend\tools\flac.exe
Additional command line options : -8 -V -T "ARTIST=%artist%" -T "TITLE=%title%" -T "ALBUM=%albumtitle%" -T "DATE=%year%" -T "TRACKNUMBER=%tracknr%" -T "TOTALTRACKS=%numtracks%" -T "GENRE=%genre%" -T "ALBUMARTIST=%albumartist%" -T "ALBUM ARTIST=%albumartist%" -T "COMMENT=EAC Secure Mode, Test & Copy, AccurateRip, FLAC -8" %source%


TOC of the extracted CD

Track | Start | Length | Start sector | End sector
––––––––––––––––––––––––––––-
1 | 0:00.00 | 2:51.58 | 0 | 12882
2 | 2:51.58 | 3:28.34 | 12883 | 28516
3 | 6:20.17 | 2:48.47 | 28517 | 41163
4 | 9:08.64 | 2:57.14 | 41164 | 54452
5 | 12:06.03 | 3:18.63 | 54453 | 69365
6 | 15:24.66 | 1:12.53 | 69366 | 74818
7 | 16:37.44 | 3:36.73 | 74819 | 91091
8 | 20:14.42 | 1:25.74 | 91092 | 97540
9 | 21:40.41 | 3:02.65 | 97541 | 111255
10 | 24:43.31 | 4:08.25 | 111256 | 129880
11 | 28:51.56 | 4:52.67 | 129881 | 151847
12 | 33:44.48 | 3:11.39 | 151848 | 166211
13 | 36:56.12 | 3:58.67 | 166212 | 184128
14 | 40:55.04 | 4:43.52 | 184129 | 205405
15 | 45:38.56 | 3:05.30 | 205406 | 219310
16 | 48:44.11 | 1:30.44 | 219311 | 226104
17 | 50:14.55 | 3:56.57 | 226105 | 243861
18 | 54:11.37 | 3:55.04 | 243862 | 261490
19 | 58:06.41 | 1:19.01 | 261491 | 267416
20 | 59:25.42 | 7:23.53 | 267417 | 300694
21 | 66:49.20 | 3:07.56 | 300695 | 314775


Track 1

Filename C:\Bill Nelson - Noise Candy (2015) [6CD Box Set] {Cocteau Discs}\CD5 - Console\01 - Quietly Now (Manipulating The Phonograph No. 2).wav

Pre-gap length 0:00:02.00

Peak level 99.4 %
Extraction speed 1.1 X
Track quality 100.0 %
Test CRC 6E97506A
Copy CRC 6E97506A
Track not present in AccurateRip database
Copy OK

Track 2

Filename C:\Bill Nelson - Noise Candy (2015) [6CD Box Set] {Cocteau Discs}\CD5 - Console\02 - Hello Children.wav

Peak level 99.4 %
Extraction speed 1.0 X
Track quality 99.9 %
Test CRC 0EDA484C
Copy CRC 0EDA484C
Track not present in AccurateRip database
Copy OK

Track 3

Filename C:\Bill Nelson - Noise Candy (2015) [6CD Box Set] {Cocteau Discs}\CD5 - Console\03 - Ethel's Attic (No. 3, Marriot's Building, 1948).wav

Peak level 99.4 %
Extraction speed 1.1 X
Track quality 99.9 %
Test CRC CB437207
Copy CRC CB437207
Track not present in AccurateRip database
Copy OK

Track 4

Filename C:\Bill Nelson - Noise Candy (2015) [6CD Box Set] {Cocteau Discs}\CD5 - Console\04 - Clouds Above The Corn.wav

Peak level 99.4 %
Extraction speed 1.3 X
Track quality 100.0 %
Test CRC CF5E78FA
Copy CRC CF5E78FA
Track not present in AccurateRip database
Copy OK

Track 5

Filename C:\Bill Nelson - Noise Candy (2015) [6CD Box Set] {Cocteau Discs}\CD5 - Console\05 - Wonderful Weather In Woodgates Lane.wav

Peak level 99.4 %
Extraction speed 1.3 X
Track quality 99.9 %
Test CRC 83101504
Copy CRC 83101504
Track not present in AccurateRip database
Copy OK

Track 6

Filename C:\Bill Nelson - Noise Candy (2015) [6CD Box Set] {Cocteau Discs}\CD5 - Console\06 - Filligree.wav

Peak level 81.9 %
Extraction speed 0.9 X
Track quality 99.8 %
Test CRC 75FE7181
Copy CRC 75FE7181
Track not present in AccurateRip database
Copy OK

Track 7

Filename C:\Bill Nelson - Noise Candy (2015) [6CD Box Set] {Cocteau Discs}\CD5 - Console\07 - Memo Recorder Dream Narrative No. 1.wav

Peak level 99.4 %
Extraction speed 1.6 X
Track quality 100.0 %
Test CRC 47D327ED
Copy CRC 47D327ED
Track not present in AccurateRip database
Copy OK

Track 8

Filename C:\Bill Nelson - Noise Candy (2015) [6CD Box Set] {Cocteau Discs}\CD5 - Console\08 - Pink Poodle Parade (Piano Version).wav

Peak level 99.4 %
Extraction speed 1.0 X
Track quality 99.8 %
Test CRC 0950C0C9
Copy CRC 0950C0C9
Track not present in AccurateRip database
Copy OK

Track 9

Filename C:\Bill Nelson - Noise Candy (2015) [6CD Box Set] {Cocteau Discs}\CD5 - Console\09 - The Clock That Time Forgot.wav

Peak level 99.4 %
Extraction speed 1.6 X
Track quality 100.0 %
Test CRC DAE24EC4
Copy CRC DAE24EC4
Track not present in AccurateRip database
Copy OK

Track 10

Filename C:\Bill Nelson - Noise Candy (2015) [6CD Box Set] {Cocteau Discs}\CD5 - Console\10 - Holiday Express.wav

Peak level 99.4 %
Extraction speed 1.6 X
Track quality 99.9 %
Test CRC 4C44CCE4
Copy CRC 4C44CCE4
Track not present in AccurateRip database
Copy OK

Track 11

Filename C:\Bill Nelson - Noise Candy (2015) [6CD Box Set] {Cocteau Discs}\CD5 - Console\11 - No Bee In His Bonnet.wav

Peak level 99.4 %
Extraction speed 1.9 X
Track quality 100.0 %
Test CRC B6439EF5
Copy CRC B6439EF5
Track not present in AccurateRip database
Copy OK

Track 12

Filename C:\Bill Nelson - Noise Candy (2015) [6CD Box Set] {Cocteau Discs}\CD5 - Console\12 - Dust And Sunbeams And The Ticking Of A Clock.wav

Peak level 99.4 %
Extraction speed 1.9 X
Track quality 100.0 %
Test CRC D338F46B
Copy CRC D338F46B
Track not present in AccurateRip database
Copy OK

Track 13

Filename C:\Bill Nelson - Noise Candy (2015) [6CD Box Set] {Cocteau Discs}\CD5 - Console\13 - Adventure Annual.wav

Peak level 99.4 %
Extraction speed 2.0 X
Track quality 100.0 %
Test CRC 53EF7984
Copy CRC 53EF7984
Track not present in AccurateRip database
Copy OK

Track 14

Filename C:\Bill Nelson - Noise Candy (2015) [6CD Box Set] {Cocteau Discs}\CD5 - Console\14 - Dreamstate USA (Memo Recorder Dream Narrative No. 2).wav

Peak level 99.4 %
Extraction speed 2.1 X
Track quality 100.0 %
Test CRC 55E6C146
Copy CRC 55E6C146
Track not present in AccurateRip database
Copy OK

Track 15

Filename C:\Bill Nelson - Noise Candy (2015) [6CD Box Set] {Cocteau Discs}\CD5 - Console\15 - Boy With Bubblepipe.wav

Peak level 99.4 %
Extraction speed 2.1 X
Track quality 100.0 %
Test CRC 772A3FD1
Copy CRC 772A3FD1
Track not present in AccurateRip database
Copy OK

Track 16

Filename C:\Bill Nelson - Noise Candy (2015) [6CD Box Set] {Cocteau Discs}\CD5 - Console\16 - American Moderne.wav

Peak level 76.8 %
Extraction speed 1.8 X
Track quality 100.0 %
Test CRC 39823798
Copy CRC 39823798
Track not present in AccurateRip database
Copy OK

Track 17

Filename C:\Bill Nelson - Noise Candy (2015) [6CD Box Set] {Cocteau Discs}\CD5 - Console\17 - Fuzzy Dux.wav

Peak level 99.4 %
Extraction speed 2.3 X
Track quality 100.0 %
Test CRC FF1FCADB
Copy CRC FF1FCADB
Track not present in AccurateRip database
Copy OK

Track 18

Filename C:\Bill Nelson - Noise Candy (2015) [6CD Box Set] {Cocteau Discs}\CD5 - Console\18 - Rain On A Caravan Roof (St. Leonard's 1951).wav

Peak level 99.4 %
Extraction speed 2.0 X
Track quality 99.9 %
Test CRC F2017836
Copy CRC F2017836
Track not present in AccurateRip database
Copy OK

Track 19

Filename C:\Bill Nelson - Noise Candy (2015) [6CD Box Set] {Cocteau Discs}\CD5 - Console\19 - A Short History Of The Future.wav

Peak level 87.3 %
Extraction speed 1.4 X
Track quality 99.8 %
Test CRC 0FADE760
Copy CRC 0FADE760
Track not present in AccurateRip database
Copy OK

Track 20

Filename C:\Bill Nelson - Noise Candy (2015) [6CD Box Set] {Cocteau Discs}\CD5 - Console\20 - Ectoplasm Turbine.wav

Peak level 99.4 %
Extraction speed 2.6 X
Track quality 100.0 %
Test CRC 0AB2F02D
Copy CRC 0AB2F02D
Track not present in AccurateRip database
Copy OK

Track 21

Filename C:\Bill Nelson - Noise Candy (2015) [6CD Box Set] {Cocteau Discs}\CD5 - Console\21 - Painted Boats On Still Waters.wav

Peak level 99.4 %
Extraction speed 2.4 X
Track quality 100.0 %
Test CRC B55CAF92
Copy CRC B55CAF92
Track not present in AccurateRip database
Copy OK


None of the tracks are present in the AccurateRip database

No errors occurred

End of status report

==== Log checksum E5342ECD4AE8053923544BAD8EF93D6F1C53BE5C10C74A07BD23E20A2E9129CD ====

Exact Audio Copy V1.0 beta 4 from 7. December 2014

EAC extraction logfile from 8. February 2015, 18:08

Bill Nelson / Noise Candy (CD6) - Playtime

Used drive : TSSTcorpCDDVDW SE-208DB Adapter: 1 ID: 1

Read mode : Secure
Utilize accurate stream : Yes
Defeat audio cache : Yes
Make use of C2 pointers : No

Read offset correction : 6
Overread into Lead-In and Lead-Out : No
Fill up missing offset samples with silence : Yes
Delete leading and trailing silent blocks : No
Null samples used in CRC calculations : Yes
Used interface : Native Win32 interface for Win NT & 2000
Gap handling : Appended to previous track

Used output format : User Defined Encoder
Selected bitrate : 1024 kBit/s
Quality : High
Add ID3 tag : No
Command line compressor : C:\Program Files (x86)\FLAC Frontend\tools\flac.exe
Additional command line options : -8 -V -T "ARTIST=%artist%" -T "TITLE=%title%" -T "ALBUM=%albumtitle%" -T "DATE=%year%" -T "TRACKNUMBER=%tracknr%" -T "TOTALTRACKS=%numtracks%" -T "GENRE=%genre%" -T "ALBUMARTIST=%albumartist%" -T "ALBUM ARTIST=%albumartist%" -T "COMMENT=EAC Secure Mode, Test & Copy, AccurateRip, FLAC -8" %source%


TOC of the extracted CD

Track | Start | Length | Start sector | End sector
––––––––––––––––––––––––––––-
1 | 0:00.00 | 3:10.73 | 0 | 14322
2 | 3:10.73 | 2:35.34 | 14323 | 25981
3 | 5:46.32 | 2:04.59 | 25982 | 35340
4 | 7:51.16 | 3:21.65 | 35341 | 50480
5 | 11:13.06 | 5:06.54 | 50481 | 73484
6 | 16:19.60 | 2:19.21 | 73485 | 83930
7 | 18:39.06 | 4:30.59 | 83931 | 104239
8 | 23:09.65 | 4:56.40 | 104240 | 126479
9 | 28:06.30 | 2:45.64 | 126480 | 138918
10 | 30:52.19 | 2:58.33 | 138919 | 152301
11 | 33:50.52 | 3:48.11 | 152302 | 169412
12 | 37:38.63 | 2:53.23 | 169413 | 182410
13 | 40:32.11 | 1:28.23 | 182411 | 189033
14 | 42:00.34 | 3:16.08 | 189034 | 203741
15 | 45:16.42 | 3:57.26 | 203742 | 221542
16 | 49:13.68 | 3:20.12 | 221543 | 236554
17 | 52:34.05 | 3:21.35 | 236555 | 251664
18 | 55:55.40 | 4:00.65 | 251665 | 269729
19 | 59:56.30 | 3:55.41 | 269730 | 287395
20 | 63:51.71 | 3:56.74 | 287396 | 305169
21 | 67:48.70 | 3:55.42 | 305170 | 322836


Track 1

Filename C:\Bill Nelson - Noise Candy (2015) [6CD Box Set] {Cocteau Discs}\CD6 - Playtime\01 - Futura.wav

Pre-gap length 0:00:02.00

Peak level 99.4 %
Extraction speed 1.1 X
Track quality 100.0 %
Test CRC EB5D3166
Copy CRC EB5D3166
Track not present in AccurateRip database
Copy OK

Track 2

Filename C:\Bill Nelson - Noise Candy (2015) [6CD Box Set] {Cocteau Discs}\CD6 - Playtime\02 - Bakelite (50th Birthday Song).wav

Peak level 99.4 %
Extraction speed 1.2 X
Track quality 100.0 %
Test CRC 6BFB3CE3
Copy CRC 6BFB3CE3
Track not present in AccurateRip database
Copy OK

Track 3

Filename C:\Bill Nelson - Noise Candy (2015) [6CD Box Set] {Cocteau Discs}\CD6 - Playtime\03 - Lucky Sometimes.wav

Peak level 93.2 %
Extraction speed 1.2 X
Track quality 100.0 %
Test CRC BB772157
Copy CRC BB772157
Track not present in AccurateRip database
Copy OK

Track 4

Filename C:\Bill Nelson - Noise Candy (2015) [6CD Box Set] {Cocteau Discs}\CD6 - Playtime\04 - Life Is Like This.wav

Peak level 99.4 %
Extraction speed 1.2 X
Track quality 99.9 %
Test CRC 4D893CFE
Copy CRC 4D893CFE
Track not present in AccurateRip database
Copy OK

Track 5

Filename C:\Bill Nelson - Noise Candy (2015) [6CD Box Set] {Cocteau Discs}\CD6 - Playtime\05 - The Astral Tramways Of England.wav

Peak level 99.4 %
Extraction speed 1.4 X
Track quality 99.9 %
Test CRC EFD2A894
Copy CRC EFD2A894
Track not present in AccurateRip database
Copy OK

Track 6

Filename C:\Bill Nelson - Noise Candy (2015) [6CD Box Set] {Cocteau Discs}\CD6 - Playtime\06 - Be Here Now.wav

Peak level 99.4 %
Extraction speed 1.5 X
Track quality 100.0 %
Test CRC 686267AE
Copy CRC 686267AE
Track not present in AccurateRip database
Copy OK

Track 7

Filename C:\Bill Nelson - Noise Candy (2015) [6CD Box Set] {Cocteau Discs}\CD6 - Playtime\07 - Aloha Niagra.wav

Peak level 99.4 %
Extraction speed 1.7 X
Track quality 100.0 %
Test CRC 227AB83D
Copy CRC 227AB83D
Track not present in AccurateRip database
Copy OK

Track 8

Filename C:\Bill Nelson - Noise Candy (2015) [6CD Box Set] {Cocteau Discs}\CD6 - Playtime\08 - My Elevated Sweetheart.wav

Peak level 99.4 %
Extraction speed 1.8 X
Track quality 100.0 %
Test CRC 3188CFAB
Copy CRC 3188CFAB
Track not present in AccurateRip database
Copy OK

Track 9

Filename C:\Bill Nelson - Noise Candy (2015) [6CD Box Set] {Cocteau Discs}\CD6 - Playtime\09 - Ladders Leading Nowhere.wav

Peak level 99.4 %
Extraction speed 1.8 X
Track quality 100.0 %
Test CRC FE7338B4
Copy CRC FE7338B4
Track not present in AccurateRip database
Copy OK

Track 10

Filename C:\Bill Nelson - Noise Candy (2015) [6CD Box Set] {Cocteau Discs}\CD6 - Playtime\10 - The Now That Never Was.wav

Peak level 99.4 %
Extraction speed 1.8 X
Track quality 100.0 %
Test CRC A1E8F452
Copy CRC A1E8F452
Track not present in AccurateRip database
Copy OK

Track 11

Filename C:\Bill Nelson - Noise Candy (2015) [6CD Box Set] {Cocteau Discs}\CD6 - Playtime\11 - Enigmatron.wav

Peak level 99.4 %
Extraction speed 2.0 X
Track quality 100.0 %
Test CRC 8E0F3B67
Copy CRC 8E0F3B67
Track not present in AccurateRip database
Copy OK

Track 12

Filename C:\Bill Nelson - Noise Candy (2015) [6CD Box Set] {Cocteau Discs}\CD6 - Playtime\12 - Bamboozled.wav

Peak level 99.4 %
Extraction speed 1.6 X
Track quality 99.9 %
Test CRC 213A97D1
Copy CRC 213A97D1
Track not present in AccurateRip database
Copy OK

Track 13

Filename C:\Bill Nelson - Noise Candy (2015) [6CD Box Set] {Cocteau Discs}\CD6 - Playtime\13 - Hieronymous Bosch Beyond.wav

Peak level 99.4 %
Extraction speed 1.3 X
Track quality 99.8 %
Test CRC 96F38415
Copy CRC 96F38415
Track not present in AccurateRip database
Copy OK

Track 14

Filename C:\Bill Nelson - Noise Candy (2015) [6CD Box Set] {Cocteau Discs}\CD6 - Playtime\14 - Being And Nothingness Land.wav

Peak level 99.4 %
Extraction speed 2.1 X
Track quality 100.0 %
Test CRC 9126A598
Copy CRC 9126A598
Track not present in AccurateRip database
Copy OK

Track 15

Filename C:\Bill Nelson - Noise Candy (2015) [6CD Box Set] {Cocteau Discs}\CD6 - Playtime\15 - Lights Of Kingdom Come.wav

Peak level 99.4 %
Extraction speed 1.9 X
Track quality 99.9 %
Test CRC BD4D08C4
Copy CRC BD4D08C4
Track not present in AccurateRip database
Copy OK

Track 16

Filename C:\Bill Nelson - Noise Candy (2015) [6CD Box Set] {Cocteau Discs}\CD6 - Playtime\16 - Before We Fall.wav

Peak level 99.4 %
Extraction speed 1.9 X
Track quality 99.9 %
Test CRC E25CCB45
Copy CRC E25CCB45
Track not present in AccurateRip database
Copy OK

Track 17

Filename C:\Bill Nelson - Noise Candy (2015) [6CD Box Set] {Cocteau Discs}\CD6 - Playtime\17 - World Still Turns.wav

Peak level 99.4 %
Extraction speed 2.2 X
Track quality 100.0 %
Test CRC D0AB6E23
Copy CRC D0AB6E23
Track not present in AccurateRip database
Copy OK

Track 18

Filename C:\Bill Nelson - Noise Candy (2015) [6CD Box Set] {Cocteau Discs}\CD6 - Playtime\18 - Dreaming Of A Girl.wav

Peak level 99.4 %
Extraction speed 2.4 X
Track quality 100.0 %
Test CRC D2685B39
Copy CRC D2685B39
Track not present in AccurateRip database
Copy OK

Track 19

Filename C:\Bill Nelson - Noise Candy (2015) [6CD Box Set] {Cocteau Discs}\CD6 - Playtime\19 - What We Wish For.wav

Peak level 99.4 %
Extraction speed 2.4 X
Track quality 100.0 %
Test CRC B83A218B
Copy CRC B83A218B
Track not present in AccurateRip database
Copy OK

Track 20

Filename C:\Bill Nelson - Noise Candy (2015) [6CD Box Set] {Cocteau Discs}\CD6 - Playtime\20 - Big Empty Sky.wav

Peak level 99.4 %
Extraction speed 2.5 X
Track quality 100.0 %
Test CRC 89EF8064
Copy CRC 89EF8064
Track not present in AccurateRip database
Copy OK

Track 21

Filename C:\Bill Nelson - Noise Candy (2015) [6CD Box Set] {Cocteau Discs}\CD6 - Playtime\21 - Endless Autumn.wav

Peak level 99.4 %
Extraction speed 2.5 X
Track quality 100.0 %
Test CRC 2457E44C
Copy CRC 2457E44C
Track not present in AccurateRip database
Copy OK


None of the tracks are present in the AccurateRip database

No errors occurred

End of status report

==== Log checksum 3757D1BAB4819726660930F1D37B59DB5ACB324271B41FCE1D6911F7AA0D0D84 ====


Bill Nelson - Noise Candy (2015) {6CD Box Set Cocteau Discs Exclusive Limited Edition COCD 61011}

Bill Nelson - Noise Candy (2015) {6CD Box Set Cocteau Discs Exclusive Limited Edition COCD 61011}

Bill Nelson - Noise Candy (2015) {6CD Box Set Cocteau Discs Exclusive Limited Edition COCD 61011}


see more Bill Nelson…


===