Subcategories

Blank & Jones - Relax Edition One (2007)

Posted By: meditation
Blank & Jones - Relax Edition One (2007)

Blank & Jones - Relax Edition One (2007)
Trance/Downtempo/Ambient | Flac (image + .cue + log) : 0,99Gb | MP3 - 320 kbps : 394mb | Covers | RS.com

Piet Blank and Jaspa Jones - the producers known worldwide. For two they have let out already 17 albums and tens magnificent singles, reliably having fixed in world history of dancing music. Their hits more than once appeared at tops of charts, and each new album stably got to number 50 of the best to Germany.

The first release which has left in 2003 of an album "Relax: Edition One" to a descent has occupied 22 place in charts of Germany, and a chill-miss the version of track Pet Shop Boys "Love Comes Quickly" from this album became the present hit.

Exact Audio Copy V0.99 prebeta 4 from 23. January 2008

EAC extraction logfile from 16. October 2008, 22:43

Blank & Jones / Relax Edition One CD1 SUN

Used drive : PLEXTOR DVDR PX-760A Adapter: 1 ID: 0

Read mode : Secure
Utilize accurate stream : Yes
Defeat audio cache : Yes
Make use of C2 pointers : No

Read offset correction : 30
Overread into Lead-In and Lead-Out : No
Fill up missing offset samples with silence : Yes
Delete leading and trailing silent blocks : No
Null samples used in CRC calculations : Yes
Used interface : Native Win32 interface for Win NT & 2000
Gap handling : Appended to previous track

Used output format : User Defined Encoder
Selected bitrate : 320 kBit/s
Quality : High
Add ID3 tag : No
Command line compressor : C:\Program Files\FLAC\flac.exe
Additional command line options : -8 -V -T "ARTIST=%a" -T "TITLE=%t" -T "ALBUM=%g" -T "DATE=%y" -T "TRACKNUMBER=%n" -T "GENRE=%m" -T "COMMENT=EAC FLAC -8" %s


TOC of the extracted CD

Track | Start | Length | Start sector | End sector
––––––––––––––––––––––––––––-
1 | 0:00.00 | 3:26.58 | 0 | 15507
2 | 3:26.58 | 5:48.57 | 15508 | 41664
3 | 9:15.40 | 5:23.23 | 41665 | 65912
4 | 14:38.63 | 5:06.40 | 65913 | 88902
5 | 19:45.28 | 5:39.48 | 88903 | 114375
6 | 25:25.01 | 3:40.20 | 114376 | 130895
7 | 29:05.21 | 8:12.71 | 130896 | 167866
8 | 37:18.17 | 4:14.14 | 167867 | 186930
9 | 41:32.31 | 4:29.09 | 186931 | 207114
10 | 46:01.40 | 8:03.32 | 207115 | 243371
11 | 54:04.72 | 9:26.62 | 243372 | 285883
12 | 63:31.59 | 6:17.56 | 285884 | 314214
13 | 69:49.40 | 4:35.63 | 314215 | 334902
14 | 74:25.28 | 2:00.25 | 334903 | 343927


Track 1

Filename C:\APE\Blank & Jones\2007 - Relax Edition One\CD1 - Sun\1-01. Breezin`.wav

Pre-gap length 0:00:02.00

Peak level 96.5 %
Track quality 100.0 %
Test CRC FD8C5BFF
Copy CRC FD8C5BFF
Track not present in AccurateRip database
Copy OK

Track 2

Filename C:\APE\Blank & Jones\2007 - Relax Edition One\CD1 - Sun\1-02. Unknown Treasure (with Claudia Brucken).wav

Peak level 96.6 %
Track quality 100.0 %
Test CRC 6467C864
Copy CRC 6467C864
Track not present in AccurateRip database
Copy OK

Track 3

Filename C:\APE\Blank & Jones\2007 - Relax Edition One\CD1 - Sun\1-03. Beyond Time.wav

Peak level 96.6 %
Track quality 100.0 %
Test CRC 7DD894DD
Copy CRC 7DD894DD
Track not present in AccurateRip database
Copy OK

Track 4

Filename C:\APE\Blank & Jones\2007 - Relax Edition One\CD1 - Sun\1-04. Love Comes Quickly (with Pet Shop Boys).wav

Peak level 96.6 %
Track quality 100.0 %
Test CRC 7B552709
Copy CRC 7B552709
Track not present in AccurateRip database
Copy OK

Track 5

Filename C:\APE\Blank & Jones\2007 - Relax Edition One\CD1 - Sun\1-05. Watching The Waves.wav

Peak level 96.6 %
Track quality 100.0 %
Test CRC 71BA13D0
Copy CRC 71BA13D0
Track not present in AccurateRip database
Copy OK

Track 6

Filename C:\APE\Blank & Jones\2007 - Relax Edition One\CD1 - Sun\1-06. Flaming June (with Elles).wav

Peak level 96.6 %
Track quality 100.0 %
Test CRC F4A51F9B
Copy CRC F4A51F9B
Track not present in AccurateRip database
Copy OK

Track 7

Filename C:\APE\Blank & Jones\2007 - Relax Edition One\CD1 - Sun\1-07. Relax.wav

Peak level 96.6 %
Track quality 100.0 %
Test CRC 4F5C49A7
Copy CRC 4F5C49A7
Track not present in AccurateRip database
Copy OK

Track 8

Filename C:\APE\Blank & Jones\2007 - Relax Edition One\CD1 - Sun\1-08. Angel (with Sarah McLachlan).wav

Peak level 96.6 %
Track quality 100.0 %
Test CRC 3560576C
Copy CRC 3560576C
Track not present in AccurateRip database
Copy OK

Track 9

Filename C:\APE\Blank & Jones\2007 - Relax Edition One\CD1 - Sun\1-09. Counting Clouds.wav

Peak level 96.6 %
Track quality 100.0 %
Test CRC 6381CC5D
Copy CRC 6381CC5D
Track not present in AccurateRip database
Copy OK

Track 10

Filename C:\APE\Blank & Jones\2007 - Relax Edition One\CD1 - Sun\1-10. Desire.wav

Peak level 96.5 %
Track quality 100.0 %
Test CRC 59915883
Copy CRC 59915883
Track not present in AccurateRip database
Copy OK

Track 11

Filename C:\APE\Blank & Jones\2007 - Relax Edition One\CD1 - Sun\1-11. Secrets & Lies.wav

Peak level 96.5 %
Track quality 99.9 %
Test CRC E6904F3C
Copy CRC E6904F3C
Track not present in AccurateRip database
Copy OK

Track 12

Filename C:\APE\Blank & Jones\2007 - Relax Edition One\CD1 - Sun\1-12. Daydreamin`.wav

Peak level 96.5 %
Track quality 100.0 %
Test CRC AED88772
Copy CRC AED88772
Track not present in AccurateRip database
Copy OK

Track 13

Filename C:\APE\Blank & Jones\2007 - Relax Edition One\CD1 - Sun\1-13. The Hardest Heart (with Anne Clark).wav

Peak level 96.6 %
Track quality 100.0 %
Test CRC F4B8E389
Copy CRC F4B8E389
Track not present in AccurateRip database
Copy OK

Track 14

Filename C:\APE\Blank & Jones\2007 - Relax Edition One\CD1 - Sun\1-14. Driftin`.wav

Peak level 96.5 %
Track quality 100.0 %
Test CRC 0DF2E387
Copy CRC 0DF2E387
Track not present in AccurateRip database
Copy OK


None of the tracks are present in the AccurateRip database

No errors occurred

End of status report


Exact Audio Copy V0.99 prebeta 4 from 23. January 2008

EAC extraction logfile from 17. October 2008, 7:21

Blank & Jones / Relax Edition One CD2 MOON

Used drive : PLEXTOR DVDR PX-760A Adapter: 1 ID: 0

Read mode : Secure
Utilize accurate stream : Yes
Defeat audio cache : Yes
Make use of C2 pointers : No

Read offset correction : 30
Overread into Lead-In and Lead-Out : No
Fill up missing offset samples with silence : Yes
Delete leading and trailing silent blocks : No
Null samples used in CRC calculations : Yes
Used interface : Native Win32 interface for Win NT & 2000
Gap handling : Appended to previous track

Used output format : User Defined Encoder
Selected bitrate : 320 kBit/s
Quality : High
Add ID3 tag : No
Command line compressor : C:\Program Files\FLAC\flac.exe
Additional command line options : -8 -V -T "ARTIST=%a" -T "TITLE=%t" -T "ALBUM=%g" -T "DATE=%y" -T "TRACKNUMBER=%n" -T "GENRE=%m" -T "COMMENT=EAC FLAC -8" %s


TOC of the extracted CD

Track | Start | Length | Start sector | End sector
––––––––––––––––––––––––––––-
1 | 0:00.00 | 6:04.08 | 0 | 27307
2 | 6:04.08 | 6:20.07 | 27308 | 55814
3 | 12:24.15 | 7:15.58 | 55815 | 88497
4 | 19:39.73 | 7:45.35 | 88498 | 123407
5 | 27:25.33 | 6:16.40 | 123408 | 151647
6 | 33:41.73 | 6:16.60 | 151648 | 179907
7 | 39:58.58 | 6:55.71 | 179908 | 211103
8 | 46:54.54 | 8:38.37 | 211104 | 249990
9 | 55:33.16 | 6:50.66 | 249991 | 280806
10 | 62:24.07 | 4:35.43 | 280807 | 301474
11 | 66:59.50 | 2:31.08 | 301475 | 312807


Track 1

Filename C:\APE\Blank & Jones\2007 - Relax Edition One\CD2 - Moon\2-01. Relax (Vargo Vocal Mix).wav

Pre-gap length 0:00:02.00

Peak level 100.0 %
Track quality 100.0 %
Test CRC 2CF1FE5B
Copy CRC 2CF1FE5B
Track not present in AccurateRip database
Copy OK

Track 2

Filename C:\APE\Blank & Jones\2007 - Relax Edition One\CD2 - Moon\2-02. Breezin` (Bruno from Ibiza Remix).wav

Peak level 96.6 %
Track quality 100.0 %
Test CRC 0B4297D5
Copy CRC 0B4297D5
Track not present in AccurateRip database
Copy OK

Track 3

Filename C:\APE\Blank & Jones\2007 - Relax Edition One\CD2 - Moon\2-03. Flaming June (Chicane Remix) with Elles.wav

Peak level 97.6 %
Track quality 100.0 %
Test CRC 36CA1516
Copy CRC 36CA1516
Track not present in AccurateRip database
Copy OK

Track 4

Filename C:\APE\Blank & Jones\2007 - Relax Edition One\CD2 - Moon\2-04. Daydreamin (Beach House Remix).wav

Peak level 96.6 %
Track quality 100.0 %
Test CRC 45DBA2BC
Copy CRC 45DBA2BC
Track not present in AccurateRip database
Copy OK

Track 5

Filename C:\APE\Blank & Jones\2007 - Relax Edition One\CD2 - Moon\2-05. Unknown Treasure (Jean F. Cochois` Timewriter Remix) with Claudia Brucken.wav

Peak level 100.0 %
Track quality 100.0 %
Test CRC 32728586
Copy CRC 32728586
Track not present in AccurateRip database
Copy OK

Track 6

Filename C:\APE\Blank & Jones\2007 - Relax Edition One\CD2 - Moon\2-06. Driftin` (Chil & Grill Mix).wav

Peak level 96.5 %
Track quality 100.0 %
Test CRC F409A16D
Copy CRC F409A16D
Track not present in AccurateRip database
Copy OK

Track 7

Filename C:\APE\Blank & Jones\2007 - Relax Edition One\CD2 - Moon\2-07. Counting Clouds (Saints & Sinner Remix).wav

Peak level 97.7 %
Track quality 100.0 %
Test CRC FC7ED518
Copy CRC FC7ED518
Track not present in AccurateRip database
Copy OK

Track 8

Filename C:\APE\Blank & Jones\2007 - Relax Edition One\CD2 - Moon\2-08. Watching The Waves (Van Bellen Remix).wav

Peak level 100.0 %
Track quality 100.0 %
Test CRC D748674E
Copy CRC D748674E
Track not present in AccurateRip database
Copy OK

Track 9

Filename C:\APE\Blank & Jones\2007 - Relax Edition One\CD2 - Moon\2-09. Secrets & Lies (Solid Sessions Remix).wav

Peak level 96.6 %
Track quality 100.0 %
Test CRC 6C3335E3
Copy CRC 6C3335E3
Track not present in AccurateRip database
Copy OK

Track 10

Filename C:\APE\Blank & Jones\2007 - Relax Edition One\CD2 - Moon\2-10. Counting Clouds (Sunset Session Remix).wav

Peak level 99.5 %
Track quality 100.0 %
Test CRC 0B2160B9
Copy CRC 0B2160B9
Track not present in AccurateRip database
Copy OK

Track 11

Filename C:\APE\Blank & Jones\2007 - Relax Edition One\CD2 - Moon\2-11. Horizon.wav

Peak level 96.6 %
Track quality 99.9 %
Test CRC 9CEF3CDF
Copy CRC 9CEF3CDF
Track not present in AccurateRip database
Copy OK


None of the tracks are present in the AccurateRip database

No errors occurred

End of status report


Tracklist:
CD 1 (Sun)

01. Breezin' 03:26
02. Unknown Treasure (with Claudia Brücken) 05:48
03. Beyond Time (Ambient Mix) 05:23
04. Love Comes Quickly (with Pet Shop Boys) 05:06
05. Watching The Waves (Ambient Mix) 05:39
06. Flaming June (with Elles) 03:40
07. Relax 08:12
08. Angel (with Sarah McLachlan) 04:14
09. Counting Clouds 04:29
10. Desire (Ambient Mix) 08:03
11. Secrets & Lies (Ambient Mix) 09:26
12. Daydreamin' 06:17
13. The Hardest Heart (Ambient Mix) (with Anne Clark) 04:35
14. Driftin' 02:00
CD 2 (Moon)
01. Relax (Vargo Vocal Mix) 06:04
02. Breezin’ (Bruno From Ibiza Mix) 06:20
03. Flaming June (Chicane Remix) 07:15
04. Daydreamin' (Beach Bump Remix) 07:45
05. Unknown Treasure (Jean F. Cochois' Timewriter Remix) 06:16
06. Driftin' (Chill & Grill Mix) 06:15
07. Counting Clouds (Saints & Sinners Remix) 06:54
08. Watching The Waves (Van Bellen Remix) 08:37
09. Secrets & Lies (Solid Sessions Remix) 06:50
10. Counting Clouds (Sunset Session Remix) 04:35
11. Horizon 02:31