Subcategories

Black Sabbath - Black Sabbath (1970, US 1st Press, WB 1871-2)

Posted By: Necromandus
Black Sabbath - Black Sabbath (1970, US 1st Press, WB 1871-2)

Black Sabbath - Black Sabbath (1970)
EAC Rip | WV, IMG+CUE+LOG | 280 MB | Complete Scans | 20 MB
Hard Rock | Label: Warner Bros. | Catalog Number: 1871-2 | RAR 3% Rec. | RS.com
Non-remastered US 1st Press, 1987

Black Sabbath - Black Sabbath (1970, US 1st Press, WB 1871-2)

Black Sabbath - Black Sabbath (1970, US 1st Press, WB 1871-2)

Black Sabbath's debut album is given over to lengthy songs and suite-like pieces where individual songs blur together and riffs pound away one after another, frequently under extended jams. There isn't much variety in tempo, mood, or the band's simple, blues-derived musical vocabulary, but that's not the point; Sabbath's slowed-down, murky guitar rock bludgeons the listener in an almost hallucinatory fashion, reveling in its own dazed, druggy state of consciousness. Songs like the apocalyptic title track, "N.I.B.," and "The Wizard" make their obsessions with evil and black magic seem like more than just stereotypical heavy metal posturing because of the dim, suffocating musical atmosphere the band frames them in. This blueprint would be refined and occasionally elaborated upon over the band's next few albums, but there are plenty of metal classics already here.

~by Steve Huey, allmusic.com
Tracklist:

1. Black Sabbath - 6:16
2. The Wizard - 4:18
3. Wasp / Behind the Wall of Sleep / Bassically / N.I.B. - 10:40
4. Wicked World - 4:42
5. A Bit of Finger / Sleeping Village / Warning - 14:20

Exact Audio Copy V0.99 prebeta 4 from 23. January 2008

EAC extraction logfile from 24. June 2009, 19:37

Black Sabbath / Black Sabbath

Used drive : Optiarc DVD RW AD-7191A Adapter: 1 ID: 0

Read mode : Secure
Utilize accurate stream : Yes
Defeat audio cache : Yes
Make use of C2 pointers : No

Read offset correction : 6
Overread into Lead-In and Lead-Out : No
Fill up missing offset samples with silence : Yes
Delete leading and trailing silent blocks : No
Null samples used in CRC calculations : Yes
Used interface : Installed external ASPI interface

Used output format : Internal WAV Routines
Sample format : 44.100 Hz; 16 Bit; Stereo


TOC of the extracted CD

Track | Start | Length | Start sector | End sector
––––––––––––––––––––––––––––-
1 | 0:00.32 | 6:20.18 | 32 | 28549
2 | 6:20.50 | 4:23.57 | 28550 | 48331
3 | 10:44.32 | 9:44.63 | 48332 | 92194
4 | 20:29.20 | 4:46.60 | 92195 | 113704
5 | 25:16.05 | 14:15.27 | 113705 | 177856


Range status and errors

Selected range

Filename G:\-= lossless work =-\Black Sabbath - Black Sabbath.wav

Peak level 100.0 %
Range quality 100.0 %
Copy CRC DAF12508
Copy OK

No errors occurred


AccurateRip summary

Track 1 accurately ripped (confidence 13) [7C729DA7]
Track 2 accurately ripped (confidence 13) [81267108]
Track 3 accurately ripped (confidence 13) [A26F56D9]
Track 4 accurately ripped (confidence 13) [1D42C9F4]
Track 5 accurately ripped (confidence 13) [C66ADB5C]

All tracks accurately ripped

End of status report

auCDtect: CD records authenticity detector, version 0.8.2
Copyright © 2004 Oleg Berngardt. All rights reserved.
Copyright © 2004 Alexander Djourik. All rights reserved.
––––––––––––––––––––––––––––––
Processing file: [Black Sabbath - Black Sabbath.wav]
Detected average hi-boundary frequency: 2.081477e+004 Hz
Detected average lo-boundary frequency: 1.637536e+004 Hz
Detected average hi-cut frequency: 2.174804e+004 Hz
Detected average lo-cut frequency: 1.300395e+004 Hz
Maximum probablis boundary frequency: 2.189100e+004 Hz
Coefficient of nonlinearity of a phase: 5.030660e-001
First order smothness: 4.725275e-001
Second order smothness: 5.593761e-001

––––––––––––––––––––––––––––––
This track looks like CDDA with probability 99%

––––––––––––––––––––––––––––––
Final Conclusion:
––––––––––––––––––––––––––––––
These tracks looks like CDDA with probability 100%


EAC wavcrc32 v0.22 © ]DichlofoS[ Systems, 2007
thanx to: BakLAN, siro and other beta-testers/contributors!
file opened ok
RIFF header checked ok
please wait while couning checksums…
processing 104579916 samples…
file closed ok
–- used in EAC:
generic: grabbing, "no use…" off [all bytes] : DAF12508.
generic: grabbing, "no use…" on [word nulsamples l/r] : 0A8BC832.
waveditor [word nulsamples l] : 36E7D953.
–- no used in EAC, only for reference:
byte ignore zeros : F57437CD.
dword nulsamples : 65E07862.
–-
time elapsed: 8515 ms

All songs written by Tony Iommi, John Osborne, Terrence Butler and William Ward except Track 5.
Track 5 - Dunbar "Brox'-Moreshead-Hickling Dmochowski, Noma Music Inc. - BMI
Producer by Roger Bain for Tony Hall Enterprises.
Engineers: Tom Allom/Barry Sheffield

Tony Iommi - lead guitar
Geezer Butler - bass guitar
Bill Ward - drums
Ozzy Osbourne - vocals, harmonica


See alsou:
Black Sabbath - Technical Ecstacy (1976, Original version WB 2969-2)
Black Sabbath - Never Say Die (1978, Canadian 1st Press, WB-3186)