Subcategories

Bo Diddley - Bo Diddley's Beach Party (1963) {Hip-O Select B0015214-02 rel 2011}

Posted By: ruskaval
Bo Diddley - Bo Diddley's Beach Party (1963) {Hip-O Select B0015214-02 rel 2011}

Bo Diddley - Bo Diddley's Beach Party (1963) {Hip-O Select B0015214-02 rel 2011}
EAC rip (secure mode) | FLAC (tracks)+CUE+LOG -> 174 Mb | MP3 @320 -> 79 Mb
Full Artwork @ 300 dpi (jpg) -> 15 Mb | 5% repair rar
© 1963, 2011 Checker / Geffen / Hip-O Select | B0015214-02
Blues / Rock & Roll / Early R&B

A blistering live album, especially in mono, cut by Bo Diddley and company in Myrtle Beach, South Carolina on July 5 and 6, 1963. This album contains 30-plus minutes of the best live rock & roll ever issuedd on record. Diddley and company are "on" from the get-go with a killer instrumental erroneously credited as Chuck Berry's "Memphis" (which it isn't), that's a showcase for Diddley's attack on his instrument and a crunching assault by the rest of the band (all in that shave-and-a-haircut-two-bits beat), cymbals on top of an overloaded bass, and what sounds like every rhythm guitar in the world grinding away.

And even that instrumental seems to "talk" to the audience, telling a story. Once Diddley's voice comes in on "Gunslinger," the picture is complete, and perfection is achieved on the frantic, gyrating "Hey, Bo Diddley." The crowd is driven into an audible frenzy as the thundering band crunches in time to Diddley's sometimes shrieking punctuation around his rhymes. Some repertory here may elude modern listeners; this was a dance, and any tune that could be turned into one was fair game, even "On Top of Old Smokey" as a slow number, which leads into the frenetic "Bo Diddley's Dog." Diddley does even better adapting the Larry Verne novelty tune "Mr. Custer," making it his own, and has some fun on "Bo Waltz" before switching gears to the softer, ballad-like "What's Buggin' You," all of which leads to the roaring finale on "Road Runner." Diddley and the band show off most of their bag of tricks amid the man's joyous, buoyant laughter. Apparently, the shows weren't entirely a laughing matter: the police threatened to arrest the band when Jerome Green leaped into the audience with his maracas waving and the female members surrounded him; this all happening in the still-segregated south of 1963. Mishaps, provocations, and non-musical spontaneity aside, this is some of the loudest, raunchiest guitar-based rock & roll ever preserved for public consumption, and it captures some priceless moments. "I'm All Right" was lifted wholesale by the Rolling Stones for their live sets, from 1964 until as late as the end of 1966. The whole approach to music-making here lay at the core of practically every note of music that the Stones recorded or performed for the first three years of their history; indeed, no Stones collection is truly complete without this record attached to it.
Bo Diddley - Bo Diddley's Beach Party (1963) {Hip-O Select B0015214-02 rel 2011}


Performers
Bo Diddley – lead vocals, lead guitar
Jerome Green – drums, maracas, backing vocals
Norma-Jean Wofford (The Duchess) – rhythm guitar, backing vocals

Track Listing:
1. Memphis
2. Gunslinger (aka Bo Diddley's A Gunslinger)
3. Hey Bo Diddley
4. Old Smokey
5. Bo Diddley's Dog
6. I'm All Right
7. Mr. Custer
8. Bo's Waltz
9. What's Buggin' You (aka Crackin' Up)
10. Road Runner

Exact Audio Copy V1.0 beta 1 from 15. November 2010

EAC extraction logfile from 18. May 2011, 18:15

Bo Diddley / Bo Diddley's Beach Party

Used drive : BENQ DVD DC DW1670 Adapter: 1 ID: 0

Read mode : Secure
Utilize accurate stream : Yes
Defeat audio cache : Yes
Make use of C2 pointers : No

Read offset correction : 102
Overread into Lead-In and Lead-Out : No
Fill up missing offset samples with silence : Yes
Delete leading and trailing silent blocks : No
Null samples used in CRC calculations : Yes
Used interface : Installed external ASPI interface
Gap handling : Appended to previous track

Used output format : User Defined Encoder
Selected bitrate : 128 kBit/s
Quality : High
Add ID3 tag : No
Command line compressor : C:\Program\EAC3\Exact Audio Copy\Flac\flac.exe
Additional command line options : -8 -V -T "ARTIST=%a" -T "TITLE=%t" -T "ALBUM=%g" -T "DATE=%y" -T "TRACKNUMBER=%n" -T "GENRE=%m" -T "COMMENT=EAC FLAC -8" %s


TOC of the extracted CD

Track | Start | Length | Start sector | End sector
––––––––––––––––––––––––––––-
1 | 0:00.00 | 2:26.29 | 0 | 10978
2 | 2:26.29 | 2:43.14 | 10979 | 23217
3 | 5:09.43 | 3:03.24 | 23218 | 36966
4 | 8:12.67 | 3:19.19 | 36967 | 51910
5 | 11:32.11 | 3:54.61 | 51911 | 69521
6 | 15:26.72 | 4:02.48 | 69522 | 87719
7 | 19:29.45 | 3:13.40 | 87720 | 102234
8 | 22:43.10 | 3:20.40 | 102235 | 117274
9 | 26:03.50 | 2:58.19 | 117275 | 130643
10 | 29:01.69 | 4:14.57 | 130644 | 149750


Track 1

Filename C:\Documents and Settings\ellroy\Skrivbord\Bo Diddley - Bo Diddley's Beach Party (1963) [FLAC] (Reissued 2011)\01 - Memphis.wav

Pre-gap length 0:00:02.00

Peak level 99.5 %
Extraction speed 1.8 X
Track quality 100.0 %
Test CRC B2B19EF2
Copy CRC B2B19EF2
Track not present in AccurateRip database
Copy OK

Track 2

Filename C:\Documents and Settings\ellroy\Skrivbord\Bo Diddley - Bo Diddley's Beach Party (1963) [FLAC] (Reissued 2011)\02 - Gunslinger (aka Bo Diddley's A Gunslinger).wav

Peak level 88.2 %
Extraction speed 1.9 X
Track quality 100.0 %
Test CRC A11936BD
Copy CRC A11936BD
Track not present in AccurateRip database
Copy OK

Track 3

Filename C:\Documents and Settings\ellroy\Skrivbord\Bo Diddley - Bo Diddley's Beach Party (1963) [FLAC] (Reissued 2011)\03 - Hey Bo Diddley.wav

Peak level 97.4 %
Extraction speed 2.0 X
Track quality 100.0 %
Test CRC CA5DEFB3
Copy CRC CA5DEFB3
Track not present in AccurateRip database
Copy OK

Track 4

Filename C:\Documents and Settings\ellroy\Skrivbord\Bo Diddley - Bo Diddley's Beach Party (1963) [FLAC] (Reissued 2011)\04 - Old Smokey.wav

Peak level 99.5 %
Extraction speed 1.6 X
Track quality 99.9 %
Test CRC 7661CFC7
Copy CRC 7661CFC7
Track not present in AccurateRip database
Copy OK

Track 5

Filename C:\Documents and Settings\ellroy\Skrivbord\Bo Diddley - Bo Diddley's Beach Party (1963) [FLAC] (Reissued 2011)\05 - Bo Diddley's Dog.wav

Peak level 99.5 %
Extraction speed 2.1 X
Track quality 100.0 %
Test CRC 8536F4D3
Copy CRC 8536F4D3
Track not present in AccurateRip database
Copy OK

Track 6

Filename C:\Documents and Settings\ellroy\Skrivbord\Bo Diddley - Bo Diddley's Beach Party (1963) [FLAC] (Reissued 2011)\06 - I'm All Right.wav

Peak level 99.9 %
Extraction speed 2.2 X
Track quality 100.0 %
Test CRC 922EDFE7
Copy CRC 922EDFE7
Track not present in AccurateRip database
Copy OK

Track 7

Filename C:\Documents and Settings\ellroy\Skrivbord\Bo Diddley - Bo Diddley's Beach Party (1963) [FLAC] (Reissued 2011)\07 - Mr. Custer.wav

Peak level 96.6 %
Extraction speed 2.1 X
Track quality 100.0 %
Test CRC DF2E2CBC
Copy CRC DF2E2CBC
Track not present in AccurateRip database
Copy OK

Track 8

Filename C:\Documents and Settings\ellroy\Skrivbord\Bo Diddley - Bo Diddley's Beach Party (1963) [FLAC] (Reissued 2011)\08 - Bo's Waltz.wav

Peak level 98.3 %
Extraction speed 2.2 X
Track quality 100.0 %
Test CRC 7E1B7C15
Copy CRC 7E1B7C15
Track not present in AccurateRip database
Copy OK

Track 9

Filename C:\Documents and Settings\ellroy\Skrivbord\Bo Diddley - Bo Diddley's Beach Party (1963) [FLAC] (Reissued 2011)\09 - What's Buggin' You (aka Crackin' Up).wav

Peak level 88.3 %
Extraction speed 2.1 X
Track quality 100.0 %
Test CRC 40EB7FEE
Copy CRC 40EB7FEE
Track not present in AccurateRip database
Copy OK

Track 10

Filename C:\Documents and Settings\ellroy\Skrivbord\Bo Diddley - Bo Diddley's Beach Party (1963) [FLAC] (Reissued 2011)\10 - Road Runner.wav

Peak level 99.3 %
Extraction speed 2.3 X
Track quality 100.0 %
Test CRC 81332BE6
Copy CRC 81332BE6
Track not present in AccurateRip database
Copy OK


None of the tracks are present in the AccurateRip database

No errors occurred

End of status report

==== Log checksum 73EC3B06B51CB56A912D0826814C68A271CD5B680BF8D64BACD9D0AC85B1D36D ====


Bo Diddley - Bo Diddley's Beach Party (1963) {Hip-O Select B0015214-02 rel 2011}

Bo Diddley - Bo Diddley's Beach Party (1963) {Hip-O Select B0015214-02 rel 2011}



===