Subcategories

Bob Mover, Paul Bley, John Abercrombie - The Night Bathers (1986) {Justin Time JUST 14-2 rel 1991}

Posted By: ruskaval
Bob Mover, Paul Bley, John Abercrombie - The Night Bathers (1986) {Justin Time JUST 14-2 rel 1991}

Bob Mover, Paul Bley, John Abercrombie - The Night Bathers (1986) {Justin Time JUST 14-2 rel 1991}
EAC rip (secure mode) | FLAC (tracks)+CUE+LOG -> 191 Mb | MP3 @320 -> 105 Mb
Full Artwork @ 300 dpi (jpg) -> 7 Mb | 5% repair rar
© 1986, 1991 Justin Time Records | JUST 14-2
Jazz / Neo Bop / Modern Jazz / Progressive Jazz / Saxophone / Piano / Guitar

When one considers the instrumentation (alto, piano and guitar) and the personnel (Bob Mover, Paul Bley and John Abercrombie), it is not surprising that this date is full of thoughtful, chance-taking and often lyrical improvisations. Most of the selections are either duets or unaccompanied solos, and although there are some melodies, the music was pretty much all improvised on the spot. An intriguing set.
Bob Mover, Paul Bley, John Abercrombie - The Night Bathers (1986) {Justin Time JUST 14-2 rel 1991}


Personnel:
Bob Mover - alto and soprano saxophones
Paul Bley - piano
John Abercrombie - electric guitar, guitar synth

tracklist:
01 - The Night Bathers
02 - Berg-Like
03 - Helene
04 - Suite in 4 Parts
05 - We Burn
06 - Beach Music
07 - Randomland
08 - John's 1st Synthony
09 - Fathoms
10 - Sonny Claws
11 - Angelica

Exact Audio Copy V1.1 from 23. June 2015

EAC extraction logfile from 2. June 2016, 17:38

Bob Mover / The Night Bathers

Used drive : MATSHITADVD+-RW SW830 Adapter: 1 ID: 0

Read mode : Secure
Utilize accurate stream : Yes
Defeat audio cache : Yes
Make use of C2 pointers : No

Read offset correction : 6
Overread into Lead-In and Lead-Out : No
Fill up missing offset samples with silence : Yes
Delete leading and trailing silent blocks : No
Null samples used in CRC calculations : Yes
Used interface : Native Win32 interface for Win NT & 2000
Gap handling : Appended to previous track

Used output format : User Defined Encoder
Selected bitrate : 896 kBit/s
Quality : High
Add ID3 tag : No
Command line compressor : C:\Program Files (x86)\Exact Audio Copy\Flac\flac.exe
Additional command line options : -8 -V -T "ARTIST=%artist%" -T "TITLE=%title%" -T "ALBUM=%albumtitle%" -T "DATE=%year%" -T "TRACKNUMBER=%tracknr%" -T "TOTALTRACKS=%numtracks%" -T "GENRE=%genre%" -T "ALBUMARTIST=%albumartist%" -T "ALBUM ARTIST=%albumartist%" -T "COMMENT=EAC Secure Mode, Test & Copy, AccurateRip, FLAC -8" %source%


TOC of the extracted CD

Track | Start | Length | Start sector | End sector
––––––––––––––––––––––––––––-
1 | 0:00.00 | 6:14.67 | 0 | 28116
2 | 6:14.67 | 3:31.35 | 28117 | 43976
3 | 9:46.27 | 1:21.30 | 43977 | 50081
4 | 11:07.57 | 10:23.10 | 50082 | 96816
5 | 21:30.67 | 1:39.45 | 96817 | 104286
6 | 23:10.37 | 6:33.38 | 104287 | 133799
7 | 29:44.00 | 5:02.70 | 133800 | 156519
8 | 34:46.70 | 2:06.10 | 156520 | 165979
9 | 36:53.05 | 3:09.37 | 165980 | 180191
10 | 40:02.42 | 1:51.63 | 180192 | 188579
11 | 41:54.30 | 3:22.47 | 188580 | 203776


Track 1

Filename G:\New Rips\Bob Mover - The Night Bathers (1991) [FLAC]\01 - The Night Bathers.wav

Pre-gap length 0:00:02.00

Peak level 46.2 %
Extraction speed 4.6 X
Track quality 100.0 %
Test CRC B9BAC541
Copy CRC B9BAC541
Track not present in AccurateRip database
Copy OK

Track 2

Filename G:\New Rips\Bob Mover - The Night Bathers (1991) [FLAC]\02 - Berg-Like.wav

Pre-gap length 0:00:01.10

Peak level 85.1 %
Extraction speed 3.7 X
Track quality 99.9 %
Test CRC 579AD62A
Copy CRC 579AD62A
Track not present in AccurateRip database
Copy OK

Track 3

Filename G:\New Rips\Bob Mover - The Night Bathers (1991) [FLAC]\03 - Helene.wav

Pre-gap length 0:00:00.57

Peak level 42.2 %
Extraction speed 4.0 X
Track quality 100.0 %
Test CRC F4231EE6
Copy CRC F4231EE6
Track not present in AccurateRip database
Copy OK

Track 4

Filename G:\New Rips\Bob Mover - The Night Bathers (1991) [FLAC]\04 - Suite in 4 Parts.wav

Pre-gap length 0:00:00.50

Peak level 55.8 %
Extraction speed 5.7 X
Track quality 99.9 %
Test CRC 9CD525AA
Copy CRC 9CD525AA
Track not present in AccurateRip database
Copy OK

Track 5

Filename G:\New Rips\Bob Mover - The Night Bathers (1991) [FLAC]\05 - We Burn.wav

Pre-gap length 0:00:01.62

Peak level 51.0 %
Extraction speed 3.6 X
Track quality 99.8 %
Test CRC 9CA5F439
Copy CRC 9CA5F439
Track not present in AccurateRip database
Copy OK

Track 6

Filename G:\New Rips\Bob Mover - The Night Bathers (1991) [FLAC]\06 - Beach Music.wav

Pre-gap length 0:00:01.55

Peak level 80.6 %
Extraction speed 6.9 X
Track quality 100.0 %
Test CRC 69B8F445
Copy CRC 69B8F445
Track not present in AccurateRip database
Copy OK

Track 7

Filename G:\New Rips\Bob Mover - The Night Bathers (1991) [FLAC]\07 - Randomland.wav

Pre-gap length 0:00:01.18

Peak level 67.0 %
Extraction speed 7.1 X
Track quality 100.0 %
Test CRC 27FEC48A
Copy CRC 27FEC48A
Track not present in AccurateRip database
Copy OK

Track 8

Filename G:\New Rips\Bob Mover - The Night Bathers (1991) [FLAC]\08 - John's 1st Synthony.wav

Pre-gap length 0:00:01.15

Peak level 35.6 %
Extraction speed 4.6 X
Track quality 99.9 %
Test CRC D7B7A99E
Copy CRC D7B7A99E
Track not present in AccurateRip database
Copy OK

Track 9

Filename G:\New Rips\Bob Mover - The Night Bathers (1991) [FLAC]\09 - Fathoms.wav

Pre-gap length 0:00:01.68

Peak level 67.8 %
Extraction speed 6.9 X
Track quality 100.0 %
Test CRC 8D7E7DFA
Copy CRC 8D7E7DFA
Track not present in AccurateRip database
Copy OK

Track 10

Filename G:\New Rips\Bob Mover - The Night Bathers (1991) [FLAC]\10 - Sonny Claws.wav

Pre-gap length 0:00:00.65

Peak level 73.2 %
Extraction speed 6.4 X
Track quality 100.0 %
Test CRC ECA76790
Copy CRC ECA76790
Track not present in AccurateRip database
Copy OK

Track 11

Filename G:\New Rips\Bob Mover - The Night Bathers (1991) [FLAC]\11 - Angelica.wav

Peak level 60.7 %
Extraction speed 7.4 X
Track quality 100.0 %
Test CRC BD4FDF35
Copy CRC BD4FDF35
Track not present in AccurateRip database
Copy OK


None of the tracks are present in the AccurateRip database

No errors occurred

End of status report

–– CUETools DB Plugin V2.1.6

[CTDB TOCID: YPOHKNtE1QxL8WAd2ib.g9JNdcU-] disk not present in database
Submit result: YPOHKNtE1QxL8WAd2ib.g9JNdcU- has been uploaded


==== Log checksum E52BD66E62A427B97DE7231742D4B6DC31EC4E29B70C299104F019BCA7807C41 ====


Bob Mover, Paul Bley, John Abercrombie - The Night Bathers (1986) {Justin Time JUST 14-2 rel 1991}

Bob Mover, Paul Bley, John Abercrombie - The Night Bathers (1986) {Justin Time JUST 14-2 rel 1991}


===