Subcategories

Bobby Hutcherson - Dialogue (1965) {Blue Note Japan SHM-CD UCCQ-5114 rel 2015} (24-192 remaster)

Posted By: ruskaval
Bobby Hutcherson - Dialogue (1965) {Blue Note Japan SHM-CD UCCQ-5114 rel 2015} (24-192 remaster)

Bobby Hutcherson - Dialogue (1965) {Blue Note Japan SHM-CD UCCQ-5114 rel 2015} (24-192 remaster)
EAC rip (secure mode) | FLAC (tracks)+CUE+LOG -> 287 Mb | MP3 @320 -> 106 Mb
Full Artwork @ 600 dpi (png) -> 150 Mb | 5% repair rar | 24-bit 192 kHz remaster
© 1965, 2015 Universal Japan / Blue Note | BN 75th The Masterworks | UCCQ-5114
Jazz / Hard Bop / Vibes

Reissue. Features the high-fidelity SHM-CD format (compatible with standard CD player) and the latest 24bit 192kHz remastering. Coming fresh on the heels of his groundbreaking work with Eric Dolphy, Bobby Hutcherson's debut album is a masterpiece of "new thing" avant-garde jazz, not really free but way beyond standard hard bop. Dialogue boasts an all-star lineup of hot young post-boppers – trumpeter Freddie Hubbard, woodwind player Sam Rivers, pianist Andrew Hill, bassist Richard Davis, and drummer Joe Chambers – and a set of imaginative compositions by either Hill or Chambers that frequently push the ensemble into uncharted territory.
Bobby Hutcherson - Dialogue (1965) {Blue Note Japan SHM-CD UCCQ-5114 rel 2015} (24-192 remaster)

The result is an album bursting at the seams with ideas that still sound remarkably fresh, not to mention a strong sense of collectivity. Hutcherson has so many fine players on hand that the focus is naturally on group interaction rather than any particular soloist(s), setting up nice contrasts like the fiery sax work of Rivers versus the cooler tones of Hutcherson and Hill. Hill's pieces stand tradition on its head, twisting recognizable foundations like the blues ("Ghetto Lights"), Latin jazz ("Catta"), and marching bands ("Les Noirs Marchant," which sounds like a parade of mutant soldiers) into cerebral, angular shapes. Chambers, meanwhile, contributes the most loosely structured pieces in his delicate, softly mysterious ballad "Idle While" and the nearly free group conversations of the ten-minute title track, where Hutcherson also plays the more African-sounding marimba. What's impressive is how focused Hutcherson keeps the group through those widely varied sounds; no one is shortchanged, yet the solos are tight, with no wasted space or spotlight-hogging. Dialogue remains Hutcherson's most adventurous, "outside" album, and while there are more extensive showcases for his playing, this high-caliber session stands as arguably his greatest musical achievement.
Bobby Hutcherson - Dialogue (1965) {Blue Note Japan SHM-CD UCCQ-5114 rel 2015} (24-192 remaster)


Personnel:
Bobby Hutcherson - vibraphone, marimba
Sam Rivers - tenor saxophone, soprano saxophone, bass clarinet, flute
Freddie Hubbard - trumpet
Andrew Hill - piano
Richard Davis - bass
Joe Chambers - drums

tracklist:
01 - Catta
02 - Idle While
03 - Les Noirs Marchent
04 - Dialogue
05 - Ghetto Lights
06 - Jasper (bonus track)

Exact Audio Copy V1.0 beta 4 from 7. December 2014

EAC extraction logfile from 21. May 2015, 16:38

Bobby Hutcherson / Dialogue

Used drive : ATAPI iHAS124 B Adapter: 1 ID: 0

Read mode : Secure
Utilize accurate stream : Yes
Defeat audio cache : Yes
Make use of C2 pointers : No

Read offset correction : 6
Overread into Lead-In and Lead-Out : No
Fill up missing offset samples with silence : Yes
Delete leading and trailing silent blocks : No
Null samples used in CRC calculations : Yes
Used interface : Native Win32 interface for Win NT & 2000
Gap handling : Appended to previous track

Used output format : User Defined Encoder
Selected bitrate : 1024 kBit/s
Quality : High
Add ID3 tag : No
Command line compressor : C:\Program Files (x86)\FLAC Frontend\tools\flac.exe
Additional command line options : -8 -V -T "ARTIST=%artist%" -T "TITLE=%title%" -T "ALBUM=%albumtitle%" -T "DATE=%year%" -T "TRACKNUMBER=%tracknr%" -T "TOTALTRACKS=%numtracks%" -T "GENRE=%genre%" -T "ALBUMARTIST=%albumartist%" -T "ALBUM ARTIST=%albumartist%" -T "COMMENT=EAC Secure Mode, Test & Copy, AccurateRip, FLAC -8" %source%


TOC of the extracted CD

Track | Start | Length | Start sector | End sector
––––––––––––––––––––––––––––-
1 | 0:00.00 | 7:20.31 | 0 | 33030
2 | 7:20.31 | 6:38.00 | 33031 | 62880
3 | 13:58.31 | 6:41.32 | 62881 | 92987
4 | 20:39.63 | 10:00.58 | 92988 | 138045
5 | 30:40.46 | 6:16.34 | 138046 | 166279
6 | 36:57.05 | 8:27.05 | 166280 | 204309


Track 1

Filename D:\_EAC\Bobby Hutcherson - Dialogue (1965) [FLAC] {2015 Japan SHM-CD}\01 - Catta.wav

Pre-gap length 0:00:02.00

Peak level 100.0 %
Extraction speed 2.0 X
Track quality 100.0 %
Test CRC A14DFAFA
Copy CRC A14DFAFA
Track not present in AccurateRip database
Copy OK

Track 2

Filename D:\_EAC\Bobby Hutcherson - Dialogue (1965) [FLAC] {2015 Japan SHM-CD}\02 - Idle While.wav

Pre-gap length 0:00:02.28

Peak level 97.3 %
Extraction speed 2.4 X
Track quality 100.0 %
Test CRC 903B8148
Copy CRC 903B8148
Track not present in AccurateRip database
Copy OK

Track 3

Filename D:\_EAC\Bobby Hutcherson - Dialogue (1965) [FLAC] {2015 Japan SHM-CD}\03 - Les Noirs Marchent.wav

Pre-gap length 0:00:02.28

Peak level 99.8 %
Extraction speed 2.6 X
Track quality 100.0 %
Test CRC 9325203C
Copy CRC 9325203C
Track not present in AccurateRip database
Copy OK

Track 4

Filename D:\_EAC\Bobby Hutcherson - Dialogue (1965) [FLAC] {2015 Japan SHM-CD}\04 - Dialogue.wav

Pre-gap length 0:00:02.43

Peak level 98.1 %
Extraction speed 3.0 X
Track quality 100.0 %
Test CRC F0A2B747
Copy CRC F0A2B747
Track not present in AccurateRip database
Copy OK

Track 5

Filename D:\_EAC\Bobby Hutcherson - Dialogue (1965) [FLAC] {2015 Japan SHM-CD}\05 - Ghetto Lights.wav

Pre-gap length 0:00:02.29

Peak level 97.8 %
Extraction speed 2.6 X
Track quality 99.9 %
Test CRC 35451A5F
Copy CRC 35451A5F
Track not present in AccurateRip database
Copy OK

Track 6

Filename D:\_EAC\Bobby Hutcherson - Dialogue (1965) [FLAC] {2015 Japan SHM-CD}\06 - Jasper (bonus track).wav

Pre-gap length 0:00:02.43

Peak level 97.4 %
Extraction speed 3.5 X
Track quality 100.0 %
Test CRC C33FCE27
Copy CRC C33FCE27
Track not present in AccurateRip database
Copy OK


None of the tracks are present in the AccurateRip database

No errors occurred

End of status report

==== Log checksum 136EB6E1B7BF1298D7D4B074E26603FCCDBC89CE76086B4A616C1F332C804C31 ====


Bobby Hutcherson - Dialogue (1965) {Blue Note Japan SHM-CD UCCQ-5114 rel 2015} (24-192 remaster)

Bobby Hutcherson - Dialogue (1965) {Blue Note Japan SHM-CD UCCQ-5114 rel 2015} (24-192 remaster)


see more Blue Note Japan 75th Anniversary The Masterworks…


===