Bobby Hutcherson - Un Poco Loco (1980) {Koch Jazz - KOC CD 7868}

Posted By: ruskaval
Bobby Hutcherson - Un Poco Loco (1980) {Koch Jazz - KOC CD 7868}

Bobby Hutcherson - Un Poco Loco (1980) {Koch Jazz - KOC CD 7868}
EAC rip (secure mode) | FLAC (tracks)+CUE+LOG -> 196 Mb | MP3 @320 -> 88 Mb
Full Artwork @ 300 dpi (jpg) -> 12 Mb | 5% repair rar
© 1980, 1999 Koch Jazz / Sony Music | KOC CD 7868
Jazz / Modern Post Bebop / Fusion / Vibes

In Memoriam. By 1980, vibraphonist Bobby Hutcherson had evolved from a member of the avant-garde into a top exponent of the modern mainstream. This excellent album (mostly originals and obscurities but highlighted by an inventive version of Bud Powell's classic title cut) features Hutcherson with a top notch all-star group also including guitarist John Abercrombie, keyboardist George Cables, electric bassist Chuck Domanico and drummer Peter Erskine. Pity that this fine set has been long out-of-print.
The presence of George Cables electric piano, Chuck Domanico's electric bass, and John Abercrombie's electric guitar defines this set as late 70's fusion. Along with Bobby's elegant vibes and Peter Erskine's progressive drum approach, the preponderance of eclectric instruments produce a controlled dynamic that glides along very smoothly, even as the solos display advanced technique. The title track, one of Bud Powell's greatest bop compositions, sounds perfectly modern with this treatment, as if it were written just today. This excellent set has enough harmonic complexity to satisfy mainstream jazz listeners, yet is refined enough to have appeal to smooth jazz and fusion fans as well. At under 40 minutes, the recording time seems brief by modern standards, as it always seems to end too fast whenever I listen to it.

Personnel:
Bobby Hutcherson - vibes, marimba
George Cables - acoustic and electric pianos
John Abercrombie - acoustic and electric guitars
Chuck Domanico - acoustic and electric basses
Peter Erskine - drums, percussion

tracklist:
01 - The Sailor's Song
02 - Silver Hollow
03 - Un Poco Loco
04 - Love Song
05 - Ivory Coast
06 - Ebony Moonbeams
07 - I Wanna Stand Over There

Exact Audio Copy V1.1 from 23. June 2015

EAC extraction logfile from 20. August 2016, 22:28

Bobby Hutcherson / Un Poco Loco

Used drive : TSSTcorpCDDVDW SE-208DB Adapter: 1 ID: 2

Read mode : Secure
Utilize accurate stream : Yes
Defeat audio cache : Yes
Make use of C2 pointers : No

Read offset correction : 6
Overread into Lead-In and Lead-Out : No
Fill up missing offset samples with silence : Yes
Delete leading and trailing silent blocks : No
Null samples used in CRC calculations : Yes
Used interface : Native Win32 interface for Win NT & 2000
Gap handling : Appended to previous track

Used output format : User Defined Encoder
Selected bitrate : 1024 kBit/s
Quality : High
Add ID3 tag : No
Command line compressor : C:\Program Files (x86)\FLAC Frontend\tools\flac.exe
Additional command line options : -8 -V -T "ARTIST=%artist%" -T "TITLE=%title%" -T "ALBUM=%albumtitle%" -T "DATE=%year%" -T "TRACKNUMBER=%tracknr%" -T "TOTALTRACKS=%numtracks%" -T "GENRE=%genre%" -T "ALBUMARTIST=%albumartist%" -T "ALBUM ARTIST=%albumartist%" -T "COMMENT=EAC Secure Mode, Test & Copy, AccurateRip, FLAC -8" %source%


TOC of the extracted CD

Track | Start | Length | Start sector | End sector
––––––––––––––––––––––––––––-
1 | 0:00.00 | 4:44.47 | 0 | 21346
2 | 4:44.47 | 4:12.48 | 21347 | 40294
3 | 8:57.20 | 8:21.15 | 40295 | 77884
4 | 17:18.35 | 4:38.72 | 77885 | 98806
5 | 21:57.32 | 4:30.13 | 98807 | 119069
6 | 26:27.45 | 7:10.62 | 119070 | 151381
7 | 33:38.32 | 3:52.70 | 151382 | 168851


Track 1

Filename D:\_EAC\Bobby Hutcherson - Un Poco Loco (1980) [FLAC]\01 - The Sailor's Song.wav

Pre-gap length 0:00:02.00

Peak level 78.4 %
Extraction speed 3.0 X
Track quality 100.0 %
Test CRC 135E61E7
Copy CRC 135E61E7
Accurately ripped (confidence 3) [C049A66D] (AR v2)
Copy OK

Track 2

Filename D:\_EAC\Bobby Hutcherson - Un Poco Loco (1980) [FLAC]\02 - Silver Hollow.wav

Peak level 46.2 %
Extraction speed 2.7 X
Track quality 99.9 %
Test CRC 06828D77
Copy CRC 06828D77
Accurately ripped (confidence 3) [8BDD3DAE] (AR v2)
Copy OK

Track 3

Filename D:\_EAC\Bobby Hutcherson - Un Poco Loco (1980) [FLAC]\03 - Un Poco Loco.wav

Peak level 80.7 %
Extraction speed 3.9 X
Track quality 100.0 %
Test CRC D85B8645
Copy CRC D85B8645
Accurately ripped (confidence 3) [BFBE885F] (AR v2)
Copy OK

Track 4

Filename D:\_EAC\Bobby Hutcherson - Un Poco Loco (1980) [FLAC]\04 - Love Song.wav

Peak level 47.9 %
Extraction speed 4.0 X
Track quality 100.0 %
Test CRC 20AFD93F
Copy CRC 20AFD93F
Accurately ripped (confidence 3) [48517659] (AR v2)
Copy OK

Track 5

Filename D:\_EAC\Bobby Hutcherson - Un Poco Loco (1980) [FLAC]\05 - Ivory Coast.wav

Peak level 74.9 %
Extraction speed 4.2 X
Track quality 100.0 %
Test CRC 775CAEB2
Copy CRC 775CAEB2
Accurately ripped (confidence 3) [AB8C9CBC] (AR v2)
Copy OK

Track 6

Filename D:\_EAC\Bobby Hutcherson - Un Poco Loco (1980) [FLAC]\06 - Ebony Moonbeams.wav

Peak level 73.5 %
Extraction speed 4.7 X
Track quality 100.0 %
Test CRC 0E43CD0A
Copy CRC 0E43CD0A
Accurately ripped (confidence 3) [C2F5E5E2] (AR v2)
Copy OK

Track 7

Filename D:\_EAC\Bobby Hutcherson - Un Poco Loco (1980) [FLAC]\07 - I Wanna Stand Over There.wav

Peak level 62.8 %
Extraction speed 4.6 X
Track quality 100.0 %
Test CRC 72967F3C
Copy CRC 72967F3C
Accurately ripped (confidence 3) [B9FB9143] (AR v2)
Copy OK


All tracks accurately ripped

No errors occurred

End of status report

==== Log checksum 4D02BC9F0BB9C31B4CAD22D35EF435400B36EA276AA7210864F29597F4F3C9E9 ====


Bobby Hutcherson - Un Poco Loco (1980) {Koch Jazz - KOC CD 7868}

Bobby Hutcherson - Un Poco Loco (1980) {Koch Jazz - KOC CD 7868}