Subcategories

Bobby Vee - Greatest Hits (1994) - Renewed.

Posted By: Justin
Bobby Vee - Greatest Hits (1994) - Renewed.

Bobby Vee - Greatest Hits (1994)
EAC-FLAC(tracks) with CUE & LOG - 137 MB | Full Scans | MP3 CBR 320 Kbps - 52 MB
Pop / Oldies | 22:48 mins | Label: Curb Records | Cat. # D2-77666

He launched his career as a fill-in for the recently deceased Buddy Holly, Bobby Vee scored several pop hits during the early '60s, that notorious period of popular music sandwiched between the birth of rock & roll and the rise of the British Invasion. Though a few of his singles – "Rubber Ball," for one – were as innocuous as anything else from the era, Vee had a knack for infectious Brill Building pop, thanks to his ebullient voice as well as the cadre of songwriters standing behind him, but after a brief attempt at more serious recordings, he hit the rock & roll oldies circuit.

Ten of Bobby Vee's biggest hits, including "Take Good Care of My Baby," "Run to Him," and "Come Back When You Grow Up," for those of you who are in a rush and have no time for nuances like liner notes and low-charting singles. These are all original recordings, though the minimal packaging and liner notes on Curb's Greatest Hits series might lead you to suspect otherwise. – Richie Unterberger, allmusic.com

Tracks:

01. Take Good Care Of My Baby
02. Run To Him
03. Come Back When You Grow Up
04. The Night Has A Thousand Eyes
05. Devil Or Angel
06. Rubber Ball
07. Sharing You
08. Beautiful People
09. Stayin' In
10. Be True To Yourself

More information @ Wikipedia


Exact Audio Copy V1.0 beta 2 from 29. April 2011

EAC extraction logfile from 19. June 2011, 15:22

Bobby Vee / Greatest Hits

Used drive : PLEXTOR CD-R PREMIUM Adapter: 0 ID: 1

Read mode : Secure
Utilize accurate stream : Yes
Defeat audio cache : Yes
Make use of C2 pointers : No

Read offset correction : 30
Overread into Lead-In and Lead-Out : Yes
Fill up missing offset samples with silence : Yes
Delete leading and trailing silent blocks : No
Null samples used in CRC calculations : Yes
Used interface : Installed external ASPI interface
Gap handling : Appended to previous track

Used output format : User Defined Encoder
Selected bitrate : 256 kBit/s
Quality : High
Add ID3 tag : No
Command line compressor : D:\Program Files\Exact Audio Copy\FLAC\FLAC.EXE
Additional command line options : -8 -V -T "ARTIST=%artist%" -T "TITLE=%title%" -T "ALBUM=%albumtitle%" -T "DATE=%year%" -T "TRACKNUMBER=%tracknr%" -T "TOTALTRACKS=%numtracks%" -T "GENRE=%genre%" -T "ALBUMARTIST=%albumartist%" -T "ALBUM ARTIST=%albumartist%

TOC of the extracted CD

Track | Start | Length | Start sector | End sector
––––––––––––––––––––––––––––-
1 | 0:00.00 | 2:30.67 | 0 | 11316
2 | 2:30.67 | 2:10.58 | 11317 | 21124
3 | 4:41.50 | 2:15.42 | 21125 | 31291
4 | 6:57.17 | 2:36.23 | 31292 | 43014
5 | 9:33.40 | 2:20.40 | 43015 | 53554
6 | 11:54.05 | 2:26.40 | 53555 | 64544
7 | 14:20.45 | 2:02.47 | 64545 | 73741
8 | 16:23.17 | 2:18.65 | 73742 | 84156
9 | 18:42.07 | 2:03.03 | 84157 | 93384
10 | 20:45.10 | 2:02.65 | 93385 | 102599

Track 1

Filename I:\Bobby Vee - Greatest Hits (1994) [FLAC]\01 - Take Good Care Of My Baby.wav

Pre-gap length 0:00:02.00

Peak level 100.0 %
Extraction speed 8.0 X
Track quality 100.0 %
Test CRC 954E63EF
Copy CRC 954E63EF
Accurately ripped (confidence 1) [9B55D068] (AR v1)
Copy OK

Track 2

Filename I:\Bobby Vee - Greatest Hits (1994) [FLAC]\02 - Run To Him.wav

Pre-gap length 0:00:01.65

Peak level 90.3 %
Extraction speed 6.7 X
Track quality 99.9 %
Test CRC BF618BCA
Copy CRC BF618BCA
Accurately ripped (confidence 1) [8A977652] (AR v1)
Copy OK

Track 3

Filename I:\Bobby Vee - Greatest Hits (1994) [FLAC]\03 - Come Back When You Grow Up.wav

Pre-gap length 0:00:01.73

Peak level 68.3 %
Extraction speed 9.0 X
Track quality 100.0 %
Test CRC 3552FB9C
Copy CRC 3552FB9C
Accurately ripped (confidence 1) [DCF3F928] (AR v1)
Copy OK

Track 4

Filename I:\Bobby Vee - Greatest Hits (1994) [FLAC]\04 - The Night Has A Thousand Eyes.wav

Pre-gap length 0:00:01.67

Peak level 100.0 %
Extraction speed 9.6 X
Track quality 100.0 %
Test CRC DF99ACBD
Copy CRC DF99ACBD
Accurately ripped (confidence 1) [60BBF02D] (AR v1)
Copy OK

Track 5

Filename I:\Bobby Vee - Greatest Hits (1994) [FLAC]\05 - Devil Or Angel.wav

Pre-gap length 0:00:01.73

Peak level 91.4 %
Extraction speed 9.9 X
Track quality 100.0 %
Test CRC 30EDB582
Copy CRC 30EDB582
Accurately ripped (confidence 1) [C4EDF06A] (AR v1)
Copy OK

Track 6

Filename I:\Bobby Vee - Greatest Hits (1994) [FLAC]\06 - Rubber Ball.wav

Pre-gap length 0:00:01.68

Peak level 89.8 %
Extraction speed 10.3 X
Track quality 100.0 %
Test CRC F26E4964
Copy CRC F26E4964
Accurately ripped (confidence 1) [DC1A1688] (AR v1)
Copy OK

Track 7

Filename I:\Bobby Vee - Greatest Hits (1994) [FLAC]\07 - Sharing You.wav

Pre-gap length 0:00:01.73

Peak level 98.4 %
Extraction speed 10.7 X
Track quality 100.0 %
Test CRC 9F8EBD6A
Copy CRC 9F8EBD6A
Accurately ripped (confidence 1) [7B1BA212] (AR v1)
Copy OK

Track 8

Filename I:\Bobby Vee - Greatest Hits (1994) [FLAC]\08 - Beautiful People.wav

Pre-gap length 0:00:01.72

Peak level 99.5 %
Extraction speed 11.0 X
Track quality 100.0 %
Test CRC 598789BB
Copy CRC 598789BB
Accurately ripped (confidence 1) [C239CA9D] (AR v1)
Copy OK

Track 9

Filename I:\Bobby Vee - Greatest Hits (1994) [FLAC]\09 - Stayin' In.wav

Pre-gap length 0:00:01.60

Peak level 92.1 %
Extraction speed 11.3 X
Track quality 100.0 %
Test CRC 868AFA2B
Copy CRC 868AFA2B
Accurately ripped (confidence 1) [B00EE842] (AR v1)
Copy OK

Track 10

Filename I:\Bobby Vee - Greatest Hits (1994) [FLAC]\10 - Be True To Yourself.wav

Pre-gap length 0:00:00.58

Peak level 100.0 %
Extraction speed 12.6 X
Track quality 100.0 %
Test CRC 12164C1E
Copy CRC 12164C1E
Accurately ripped (confidence 1) [7AE3B1AE] (AR v1)
Copy OK

All tracks accurately ripped

No errors occurred

End of status report

==== Log checksum 96E3B9C097E74FA80E1E81A14F76ECC21DEC474B17D95720C614946FDC0256F3 ====



Thanks to DJGarrik!