Subcategories

Book Of Love – I Touch Roses--The Best Of Book Of Love (2001)

Posted By: muddboogers
Book Of Love – I Touch Roses--The Best Of Book Of Love (2001)

Book Of Love – I Touch Roses–The Best Of Book Of Love (2001)
EAC | FLAC Image with CUE & LOG | 59:43 mins | Scans | RAR 3% Recovery | 456 MB
Synth-pop / Dance | 2001 Reprise Records #9 47992-2

This New York-based dance outfit never made much noise, and this 16-track compilation, spanning 16 years, never lets you think otherwise. Rather, it's an unassuming and occasionally satisfying trip into spare synth-pop and sunny melodies, both heavy on nostalgia. The best songs – like "Boy" and "Alice Everyday" – even possess an innocent charm that sounds years away from the modern-day electro-rave scene.~ Michael Gallucci, allmusic.com
I Touch Roses–The Best Of Book Of Love @ Discogs

Tracklist:
1. I Touch Roses
2. Boy
3. Modigliani (Lost In Your Eyes) (Single Remix)
4. Alice Everyday
5. Hunny Hunny (Radio Remix)
6. Getting Faster
7. Pretty Boys And Pretty Girls (Single Version)
8. You Make Me Feel So Good (Single Remix)
9. Sunny Day (2001 Version)
10. Chatterbox Pt.2
11. Tubular Bells
12. Counting The Rosaries
13. Lullaby
14. Try
15. Boy (Peter Rauhofer Remix)
16. It's In Your Eyes

Exact Audio Copy V1.0 beta 2 from 29. April 2011

EAC extraction logfile from 6. August 2011, 18:11

Book Of Love / I Touch Roses–The Best Of Book Of Love

Used drive : TDK CDRW4800B Adapter: 2 ID: 1

Read mode : Secure
Utilize accurate stream : Yes
Defeat audio cache : Yes
Make use of C2 pointers : No

Read offset correction : 6
Overread into Lead-In and Lead-Out : No
Fill up missing offset samples with silence : Yes
Delete leading and trailing silent blocks : No
Null samples used in CRC calculations : Yes
Used interface : Native Win32 interface for Win NT & 2000

Used output format : Internal WAV Routines
Sample format : 44.100 Hz; 16 Bit; Stereo


TOC of the extracted CD

Track | Start | Length | Start sector | End sector
––––––––––––––––––––––––––––-
1 | 0:00.32 | 3:21.63 | 32 | 15169
2 | 3:22.20 | 2:57.32 | 15170 | 28476
3 | 6:19.52 | 3:52.73 | 28477 | 45949
4 | 10:12.50 | 3:38.37 | 45950 | 62336
5 | 13:51.12 | 4:08.18 | 62337 | 80954
6 | 17:59.30 | 3:17.70 | 80955 | 95799
7 | 21:17.25 | 4:48.42 | 95800 | 117441
8 | 26:05.67 | 3:58.70 | 117442 | 135361
9 | 30:04.62 | 3:25.50 | 135362 | 150786
10 | 33:30.37 | 3:31.70 | 150787 | 166681
11 | 37:02.32 | 4:09.40 | 166682 | 185396
12 | 41:11.72 | 3:29.13 | 185397 | 201084
13 | 44:41.10 | 4:59.27 | 201085 | 223536
14 | 49:40.37 | 3:44.40 | 223537 | 240376
15 | 53:25.02 | 3:11.38 | 240377 | 254739
16 | 56:36.40 | 3:06.50 | 254740 | 268739


Range status and errors

Selected range

Filename E:\[# AvaxHome #]\Book Of Love - I Touch Roses–The Best Of Book Of Love.wav

Peak level 100.0 %
Extraction speed 9.1 X
Range quality 100.0 %
Test CRC D3B58490
Copy CRC D3B58490
Copy OK

No errors occurred


AccurateRip summary

Track 1 accurately ripped (confidence 2) [F6807B52] (AR v2)
Track 2 accurately ripped (confidence 2) [4BEB1304] (AR v2)
Track 3 accurately ripped (confidence 2) [2F9A5585] (AR v2)
Track 4 accurately ripped (confidence 2) [9CE521B0] (AR v2)
Track 5 accurately ripped (confidence 2) [235CD1E0] (AR v2)
Track 6 accurately ripped (confidence 2) [A0575F8C] (AR v2)
Track 7 accurately ripped (confidence 2) [7FD30D72] (AR v2)
Track 8 accurately ripped (confidence 2) [84411D9B] (AR v2)
Track 9 accurately ripped (confidence 2) [061FB92D] (AR v2)
Track 10 accurately ripped (confidence 2) [5C533D3E] (AR v2)
Track 11 accurately ripped (confidence 2) [26532671] (AR v2)
Track 12 accurately ripped (confidence 2) [20F11C7E] (AR v2)
Track 13 accurately ripped (confidence 2) [F3F06C07] (AR v2)
Track 14 accurately ripped (confidence 2) [3D8EB8CE] (AR v2)
Track 15 accurately ripped (confidence 2) [1240A7F2] (AR v2)
Track 16 accurately ripped (confidence 2) [4BC506EB] (AR v2)

All tracks accurately ripped

End of status report

==== Log checksum F8DEE472663312081B78EE027D86CE11984CE06377A8AD64BE85A05B3561FC02 ====

FileServe
Part 1
Part 2

FileSonic
Part 1
Part 2

Interchangeable archives

Password: www.AvaxHome.ws