Subcategories

Anton Bruckner - Symphony Nr. 8 WAB 108 (Edition Robert Haas 1939) [2010] {2x Hybrid-SACD // EAC Rip}

Posted By: luckburz
 Anton Bruckner - Symphony Nr. 8 WAB 108 (Edition Robert Haas 1939) [2010] {2x Hybrid-SACD // EAC Rip}

Anton Bruckner - Symphony Nr. 8 WAB 108 (Edition Robert Haas 1939)
Staatskapelle Dresden - Christian Thielemann
EAC+LOG+CUE | FLAC: 384 MB | Full Artwork | 5% Recovery Info
Label/Cat#: Hänssler Classics "Profil" # 2 SACD PH10031 | Country/Year: Germany 2011
Genre: Classical | Style: Romantic

MD5 [X] CUE [X] LOG [X] INFO TEXT [X] ARTWORK [X]

selfrip [X] not my rip []

 Anton Bruckner - Symphony Nr. 8 WAB 108 (Edition Robert Haas 1939) [2010] {2x Hybrid-SACD // EAC Rip}


Exact Audio Copy V1.0 beta 3 from 29. August 2011

EAC extraction logfile from 1. October 2012, 9:32

Thielemann, Staatskapelle Dresden / Bruckner: Symphony No. 8 CD 1

Used drive : PIONEER BD-RW BDR-206 Adapter: 0 ID: 2

Read mode : Secure
Utilize accurate stream : Yes
Defeat audio cache : Yes
Make use of C2 pointers : No

Read offset correction : 667
Overread into Lead-In and Lead-Out : No
Fill up missing offset samples with silence : Yes
Delete leading and trailing silent blocks : No
Null samples used in CRC calculations : Yes
Used interface : Native Win32 interface for Win NT & 2000

Used output format : User Defined Encoder
Selected bitrate : 1024 kBit/s
Quality : High
Add ID3 tag : Yes
Command line compressor : C:\Program Files\FLAC\flac.exe
Additional command line options : -5 -T "Artist=%artist%" -T "Title=%title%" -T "Album=%albumtitle%" -T "Date=%year%" -T "Tracknumber=%tracknr%" -T "Genre=%genre%" %source% -o %dest%


TOC of the extracted CD

Track | Start | Length | Start sector | End sector
––––––––––––––––––––––––––––-
1 | 0:00.00 | 15:45.00 | 0 | 70874
2 | 15:45.00 | 15:52.00 | 70875 | 142274
3 | 31:37.00 | 27:09.16 | 142275 | 264465


Range status and errors

Selected range

Filename F:\=== VINYL RIPS ===\=== EAC===\X FRESH RIP\Bruckner- Thielemann, Staatskapelle Dresden - Symphony No. 8 CD 1.wav

Peak level 99.5 %
Extraction speed 1.2 X
Range quality 99.9 %
Test CRC 8C944B00
Copy CRC 8C944B00
Copy OK

No errors occurred


AccurateRip summary

Track 1 accurately ripped (confidence 8) [67D90015] (AR v1)
Track 2 accurately ripped (confidence 8) [F2A88CA3] (AR v1)
Track 3 accurately ripped (confidence 8) [85E687E0] (AR v1)

All tracks accurately ripped

End of status report

–– CUETools DB Plugin V2.1.3

[CTDB TOCID: 7EpjJc1lgUrJO6DZnIgeGvavyH8-] found, Submit result: 7EpjJc1lgUrJO6DZnIgeGvavyH8- has been confirmed
[14097238] (3/3) Accurately ripped


==== Log checksum A398FC2D6FA47613EBE02ADF44835B31B5BC22463C16EACF0C85E61A34C74D88 ====

Exact Audio Copy V1.0 beta 3 from 29. August 2011

EAC extraction logfile from 1. October 2012, 1:46

Thielemann, Staatskapelle Dresden / Bruckner: Symphony No. 8 CD 2

Used drive : PIONEER BD-RW BDR-206 Adapter: 0 ID: 2

Read mode : Secure
Utilize accurate stream : Yes
Defeat audio cache : Yes
Make use of C2 pointers : No

Read offset correction : 667
Overread into Lead-In and Lead-Out : No
Fill up missing offset samples with silence : Yes
Delete leading and trailing silent blocks : No
Null samples used in CRC calculations : Yes
Used interface : Native Win32 interface for Win NT & 2000

Used output format : User Defined Encoder
Selected bitrate : 1024 kBit/s
Quality : High
Add ID3 tag : Yes
Command line compressor : C:\Program Files\FLAC\flac.exe
Additional command line options : -5 -T "Artist=%artist%" -T "Title=%title%" -T "Album=%albumtitle%" -T "Date=%year%" -T "Tracknumber=%tracknr%" -T "Genre=%genre%" %source% -o %dest%


TOC of the extracted CD

Track | Start | Length | Start sector | End sector
––––––––––––––––––––––––––––-
1 | 0:00.00 | 24:53.30 | 0 | 112004


Range status and errors

Selected range

Filename F:\=== VINYL RIPS ===\=== EAC===\X FRESH RIP\Bruckner- Thielemann, Staatskapelle Dresden - Symphony No. 8 CD 2.wav

Peak level 99.9 %
Extraction speed 1.5 X
Range quality 100.0 %
Test CRC DC42964E
Copy CRC DC42964E
Copy OK

No errors occurred


AccurateRip summary

Track 1 accurately ripped (confidence 8) [47B15671] (AR v1)

All tracks accurately ripped

End of status report

–– CUETools DB Plugin V2.1.3

[CTDB TOCID: 8ujDHzl2eEpnIoSGz4kSMnLC20Q-] found, Submit result: 8ujDHzl2eEpnIoSGz4kSMnLC20Q- has been confirmed
[e0517802] (3/3) Accurately ripped


==== Log checksum 352567F05A655706969F1DA2963D2DE639B02037AE93442210288237864D0185 ====


CD Info:

Anton Bruckner - Symphony Nr. 8 WAB 108 (Edition Robert Haas 1939)

Staatskapelle Dresden - Christian Thielemann

Label: Hänssler
Series: Profil
Catalog#: 2 SACD PH10031
Format: 2x Hybrid-SACD, Album, Stereo, Multichannel
Country: Germany
Released: 2010
Genre: Classical

 Anton Bruckner - Symphony Nr. 8 WAB 108 (Edition Robert Haas 1939) [2010] {2x Hybrid-SACD // EAC Rip}


Tracklist:

Disc 1

01. 1. Allegro Moderato 15:45
02. 2. Scherzo 15:52
03. 3. Adagio 27:09

Disc 2

01. 4. Finale 24:53

Broadcast recording of the 2nd symphony concert of 2009/2010 by the Staatskapelle Dresden on September 14, 2009, made by MDR FIGARO, the arts radio channel of Mitteldeutscher Rundfunk.

Further info: http://www.haensslerprofil.de/profil/index.php?id=23

 Anton Bruckner - Symphony Nr. 8 WAB 108 (Edition Robert Haas 1939) [2010] {2x Hybrid-SACD // EAC Rip}


"Der Typus lauert auf bestimmte Momente, vermeintlich schöne Melodien, grandiose Augenblicke." Natürlich gehört Christian Thielemann nicht zu Adornos recht verächtlicher Kategorie des bildungsbürgerlichen Musikkonsumenten (der wir doch fast alle angehören). Schon allein deshalb nicht, weil er eine komplexe Partitur lesen kann. Und aus ihr, wie seine neueste Bruckner-Exegese mit der fabelhaften Staatskapelle aus Dresden zeigt, geradezu magisch anziehende Klänge herausfiltert, deren restlos ausgehorchte Tiefenschichtung ihresgleichen sucht im romantisch-großsinfonischen CD-Repertoire. Und sonst? Auch auf die Gefahr der Wiederholung (wie schon bei der bislang publizierten Vierten, Fünften und Siebten): prozessuales, auf den Formverlauf gerichtetes Denken ist Thielemanns Sache nicht, auch nicht bei Bruckners gewaltigster Schöpfung (die hier in der problematischen, gleichwohl gängigen Haas-Fassung vorliegt, die "das Beste" von Erst- und stark umgearbeiteter Zweitfassung kompiliert). Schon ihr Beginn offenbart: Wo beispielsweise Hans Rosbaud oder Michael Gielen den drängenden Puls, die scharfen Bass-Punktierungen und mit ihnen das unterschwellig Dräuende des kommenden Ganzen hervorkehren, da setzt Thielemann auf gedehnte Lamenti und Seufzer-Attitüden, auf Schönklang, auch melodischen, par excellence. Überhaupt: das "Mysterium" Bruckner hat noch niemand weihevoller zelebriert als Thielemann in diesem seinem fast halbstündigen Adagio, dessen kathartisch ritardierender Höhepunkt sich geradezu obszön demonstrativ entlädt. (Womit wir doch wieder bei jenen "grandiosen Augenblicken" wären). Dazu passen Cover und Booklet der Einspielung: Der kleingedruckte Bruckner hat da kaum noch Platz neben der umjubelten Vorab-Inthronisierung des neuen Kurfürsten am Hof der Staatskapelle am 14. September letzten Jahres.

Christoph Braun, 11.09.2010 rondomagazin
 Anton Bruckner - Symphony Nr. 8 WAB 108 (Edition Robert Haas 1939) [2010] {2x Hybrid-SACD // EAC Rip}

The HiRes version can be found over here:
Anton Bruckner - Symphony Nr. 8 WAB 108 (Edition Robert Haas 1939) [2010] {2x Hybrid-SACD // ISO & HiRes FLAC}

// classical music \\
// all of my uploads \\
________________

Download:
FLAC
Artwork
________________