Subcategories

Buddy Terry - Pure Dynamite (Japan Edition) (1972/2007)

Posted By: Domestos
Buddy Terry - Pure Dynamite (Japan Edition) (1972/2007)

Buddy Terry - Pure Dynamite (Japan Edition) (1972/2007)
EAC Rip | FLAC (tracks+.cue, log) ~ 288.74 Mb | 45:41 | Covers
Jazz-Funk, Post-Bop, Avant-Garde | Country: USA | Label: P-Vine Records - PCD-23935

An overlooked gem from the early 70s, Buddy Terry’s “Pure Dynamite” mixes post bop and fusion in a style somewhat similar to what Freddie Hubbard and Sonny Rollins were doing at the same time, but Terry also dips into some psychedelic sounds and ensemble freedom that pushes his music a little closer to Herbie Hancock’s excellent Sextet. The connection to the Sextet is furthered by the appearance of the Sextet’s Eddie Henderson and Billy Hart. Meanwhile, the new Return to Forever was also playing with post bop that bordered on the avant-garde on their first album, so its no big surprise to see RTF’s Lenny White, Airto and Stanley Clarke on here as well. The rest of this album’s all-star cast also includes Joanne Brackeen, Mtume, Woody Shaw and Kenny Barron, its hard to go wrong with a cast like that and there is certainly very little wrong with this album.

The album opens with “Quiet Afternoon”, which starts off like a mellow psychedelic fusion version of “All Blues”, before Stanley kicks the bass line into double time and the soloists unleash their fire. All through this album the soloists don’t necessarily go it alone as other players might add counter melodies or even occasional competing solos. This busy complicated texture is pushed further with occasional tape echo and a rich tapestry of percussion and sound effects. The early 70s was a very creative time in music and this album is very much a product of that culture. If you enjoy post bop that borders on fusion and the avant-garde, you probably will not be disappointed by this one. Buddy Terry certainly deserves way more recognition than he has received.
js

Buddy Terry - tenor saxophone, soprano saxophone, flute
Woody Shaw - trumpet
Eddie Henderson - trumpet, flugelhorn
Kenny Barron - piano
Joanne Brackeen - piano, electric piano
Stanley Clarke - bass
Billy Hart, Lenny White - drums
Airto Moreira - percussion
Mtume - African percussion

Recorded in New York in 1972.

Track List:
01. Quiet Afternoon (Clarke) - 10:12
02. Paranoia (Terry) - 10:50
03. Baba Hengates (Mtume) - 17:32
04. Miscegenation (Brackeen) - 7:07

Buddy Terry - Pure Dynamite (Japan Edition) (1972/2007)

Exact Audio Copy V1.3 from 2. September 2016

EAC extraction logfile from 4. August 2017, 20:22

Buddy Terry / Pure Dynamite

Used drive : ASUS DRW-24B1ST Adapter: 1 ID: 0

Read mode : Secure
Utilize accurate stream : Yes
Defeat audio cache : Yes
Make use of C2 pointers : No

Read offset correction : 6
Overread into Lead-In and Lead-Out : No
Fill up missing offset samples with silence : Yes
Delete leading and trailing silent blocks : No
Null samples used in CRC calculations : Yes
Used interface : Native Win32 interface for Win NT & 2000
Gap handling : Appended to previous track

Used output format : User Defined Encoder
Selected bitrate : 1024 kBit/s
Quality : High
Add ID3 tag : No
Command line compressor : C:\Program Files\FLAC 1.3.1\win64\flac.exe
Additional command line options : -8 -e -p -V -T "ARTIST=%artist%" -T "TITLE=%title%" -T "ALBUM=%albumtitle%" -T "DATE=%year%" -T "TRACKNUMBER=%tracknr%" -T "GENRE=%genre%" -T "PERFORMER=%albuminterpret%" -T "COMPOSER=%composer%" %haslyrics%–tag-from-file=LYRICS="%lyricsfile%"%haslyrics% -T "ALBUMARTIST=%albumartist%" -T "DISCNUMBER=%cdnumber%" -T "TOTALDISCS=%totalcds%" -T "TOTALTRACKS=%numtracks%" -T "COMMENT=%comment%" %source% -o %dest%

TOC of the extracted CD

Track | Start | Length | Start sector | End sector
––––––––––––––––––––––––––––-
1 | 0:00.00 | 10:11.61 | 0 | 45885
2 | 10:11.61 | 10:49.48 | 45886 | 94608
3 | 21:01.34 | 17:32.14 | 94609 | 173522
4 | 38:33.48 | 7:07.17 | 173523 | 205564

Track 1

Filename C:\EAC Rips\01 - Quiet Afternoon.wav

Pre-gap length 0:00:02.00

Peak level 99.4 %
Extraction speed 3.9 X
Track quality 100.0 %
Test CRC EE69B627
Copy CRC EE69B627
Accurately ripped (confidence 1) [596B1F89] (AR v1)
Copy OK

Track 2

Filename C:\EAC Rips\02 - Paranoia.wav

Pre-gap length 0:00:02.40

Peak level 97.3 %
Extraction speed 4.8 X
Track quality 100.0 %
Test CRC 6CA854F2
Copy CRC 6CA854F2
Accurately ripped (confidence 1) [DD75B9BE] (AR v1)
Copy OK

Track 3

Filename C:\EAC Rips\03 - Baba Hengates.wav

Pre-gap length 0:00:03.00

Peak level 89.1 %
Extraction speed 5.8 X
Track quality 100.0 %
Test CRC F33DE8E0
Copy CRC F33DE8E0
Accurately ripped (confidence 1) [B268F5BF] (AR v1)
Copy OK

Track 4

Filename C:\EAC Rips\04 - Miscegenation.wav

Pre-gap length 0:00:03.00

Peak level 89.1 %
Extraction speed 6.2 X
Track quality 100.0 %
Test CRC 7684A615
Copy CRC 7684A615
Cannot be verified as accurate (confidence 1) [7D580679], AccurateRip returned [D940E4E6] (AR v2)
Copy OK

3 track(s) accurately ripped
1 track(s) could not be verified as accurate

Some tracks could not be verified as accurate

No errors occurred

End of status report

–– CUETools DB Plugin V2.1.6

[CTDB TOCID: KN5id6_R9wNC0JdJH8AMXfCLXGk-] disk not present in database
Submit result: KN5id6_R9wNC0JdJH8AMXfCLXGk- has been uploaded

==== Log checksum FA1BAB6B33E6CAE4E9B92989B854B12296CE51285CDC7E627193FA929B141CCE ====

All thanks go to the canary

More Music in My Blog
Follow My RSS Channel