Subcategories

The Buddy Rich Big Band - The Buddy Rich Collection (1998)

Posted By: Speedyclick
The Buddy Rich Big Band - The Buddy Rich Collection (1998)

The Buddy Rich Big Band - The Buddy Rich Collection (1998)
EAC Rip | FLAC (tracks & cue & log) & mp3 @ 320 kbps | tracks: 16 | Cover | 1:14:08 | ~ 488 Mb & 175 Mb
Label: BGO Records | First release: Sunset Records 2xLP 1977 | Jazz, big band, swing

This is the 1998 remastered CD release of a popular 1977 double LP album with the great drummer and bandleader Buddy Rich and his Big Band. It contains 16 tracks recorded at four live performances ("The Chez" - Hollywood, California, "Caesars Palace" - Las Vegas, "The Tropicana" - Las Vegas and "The Whiskey A Go Go" - Hollywood, California). A 'must have' for all quality jazz lovers and Buddy Rich many fans. Enjoy.

TRACKLIST

01. Big Swing Face
Soloist [Alto Saxophone] – Ernie Watts
Soloist [Piano] – Ray Starling
Soloist [Trumpet] – Bobby Shew
Written-By, Arranged By – Bill Potts


02. Willowcrest
Soloist [Tenor Saxophone] – Jay Corre
Soloist [Trumpet] – Chuck Findley
Written-By, Arranged By – Bob Florence


03. Alfie
Arranged By – Don Piestrup
Soloist [Alto Saxophone] – Art Pepper
Written-By – Burt Bacharach, Hal David


04.Mexicali Nose
Soloist [Tenor Saxophone] – Jay Corre
Written-By, Arranged By – Harry Betts


05. Groovin' Hard
Soloist [Tenor] – Pat LaBarbara
Written-By, Arranged By – Don Menza


06. Long Day's Journey
Soloist [Alto] – Richie Cole
Soloist [Trumpet] – George Zonce
Written-By, Arranged By – Don Piestrup


07.Preach And Teach
Arranged By – Don Sebesky
Soloist [Alto Saxophone] – Art Pepper
Soloist [Guitar] – Walt Namuth*
Soloist [Trumpet] – Bill Prince
Written-By – Johnny Burch


08. Celebration
Soloist [Alto] – Richie Cole
Soloist [Tenor] – Pat LaBarbara
Soloist [Trumpet] – George Zonce
Written-By, Arranged By – Don Piestrup


09. Basically Blues
Soloist [Piano] – John Bunch
Soloist [Tenor] – Jay Corre
Soloist [Trombone] – John Boice
Soloist [Trumpet] – Walter Battagello
Written-By, Arranged By – Phil Wilson


10. Critic's Choice
Soloist [Piano] – John Bunch
Soloist [Tenor] – Jay Corre
Written-By, Arranged By – Oliver Nelson


11. The Meaning Of The Blues
Arranged By – Don Piestrup
Featuring, Soloist [ [Lead Trombone] – Vince Diaz
Soloist [Trombone] – Rick Stepton
Written-By – Bobby Troup, Leah Worth


12. Winning The West
Soloist [Tenor] – Pat LaBarbara
Written-By, Arranged By – Bill Holman


13. Group Shot
Saxophone [Alto] – Ernie Watts
Saxophone [Tenor] – Jay Corre
Trumpet – Chuck Findley
Written-By, Arranged By – Don Piestrup


14. Machine
Electric Bass – James Gannon
Saxophone [Tenor] – Jay Corre
Written-By, Arranged By – Bill Reddie


15. I Can't Get Started
Arranged By – Dave Bloomberg*
Saxophone [Tenor] – Jay Corre
Written-By – Ira Gershwin, Vernon Duke


16. Diabolus
Trumpet – Chuck Findley
Written-By, Arranged By – Allyn Ferguson


Notes
Recorded Live at "The Chez",, Hollywood, California. (Tracks: 01, 02, 04, 09, 10)
Recorded Live at "Caesars Palace", Las Vegas. (Tracks: 03, 07)
Recorded Live at "The Tropicana", Las Vegas. (Tracks: 05, 06, 08, 12)
Recorded Live In Hollywood at "The Whiskey A Go Go" (Tracks: 11, 13 to 16)

Exact Audio Copy V1.0 beta 1 from 15. November 2010

EAC extraction logfile from 24. March 2011, 12:08

Buddy Rich Big Band / The Buddy Rich Collection

Used drive : PHILIPS DVD+-RW DVD8801 Adapter: 0 ID: 1

Read mode : Secure
Utilize accurate stream : Yes
Defeat audio cache : Yes
Make use of C2 pointers : No

Read offset correction : 618
Overread into Lead-In and Lead-Out : No
Fill up missing offset samples with silence : Yes
Delete leading and trailing silent blocks : No
Null samples used in CRC calculations : Yes
Used interface : Native Win32 interface for Win NT & 2000
Gap handling : Appended to previous track

Used output format : User Defined Encoder
Selected bitrate : 128 kBit/s
Quality : High
Add ID3 tag : No
Command line compressor : C:\Program Files\Exact Audio Copy\Flac\flac.exe
Additional command line options : -V -8 -T "artist=%a" -T "title=%t" -T "album=%g" -T "date=%y" -T "tracknumber=%n" -T "genre=%m" %s


TOC of the extracted CD

Track | Start | Length | Start sector | End sector
––––––––––––––––––––––––––––-
1 | 0:00.00 | 5:20.65 | 0 | 24064
2 | 5:20.65 | 4:23.72 | 24065 | 43861
3 | 9:44.62 | 3:46.00 | 43862 | 60811
4 | 13:30.62 | 3:08.48 | 60812 | 74959
5 | 16:39.35 | 4:54.50 | 74960 | 97059
6 | 21:34.10 | 4:41.22 | 97060 | 118156
7 | 26:15.32 | 3:56.70 | 118157 | 135926
8 | 30:12.27 | 3:38.28 | 135927 | 152304
9 | 33:50.55 | 5:38.32 | 152305 | 177686
10 | 39:29.12 | 3:31.15 | 177687 | 193526
11 | 43:00.27 | 3:43.65 | 193527 | 210316
12 | 46:44.17 | 6:14.08 | 210317 | 238374
13 | 52:58.25 | 5:10.17 | 238375 | 261641
14 | 58:08.42 | 3:42.43 | 261642 | 278334
15 | 61:51.10 | 3:54.15 | 278335 | 295899
16 | 65:45.25 | 8:23.15 | 295900 | 333639


Track 1

Filename L:\FLAC\Buddy Rich Big Band - The Buddy Rich Collection (1977) - FLAC\01 - Big Swing Face.wav

Pre-gap length 0:00:02.00

Peak level 98.8 %
Extraction speed 5.7 X
Track quality 100.0 %
Test CRC 5DB65229
Copy CRC 5DB65229
Accurately ripped (confidence 2) [04F7B713]
Copy OK

Track 2

Filename L:\FLAC\Buddy Rich Big Band - The Buddy Rich Collection (1977) - FLAC\02 - Willowcrest.wav

Peak level 98.8 %
Extraction speed 6.2 X
Track quality 100.0 %
Test CRC 7371F580
Copy CRC 7371F580
Accurately ripped (confidence 2) [78040D17]
Copy OK

Track 3

Filename L:\FLAC\Buddy Rich Big Band - The Buddy Rich Collection (1977) - FLAC\03 - Alfie.wav

Peak level 89.0 %
Extraction speed 6.5 X
Track quality 100.0 %
Test CRC 53F3C982
Copy CRC 53F3C982
Accurately ripped (confidence 2) [3527E8B5]
Copy OK

Track 4

Filename L:\FLAC\Buddy Rich Big Band - The Buddy Rich Collection (1977) - FLAC\04 - Mexicali Nose.wav

Peak level 98.8 %
Extraction speed 5.4 X
Track quality 99.9 %
Test CRC 2339DC70
Copy CRC 2339DC70
Accurately ripped (confidence 2) [30E1613E]
Copy OK

Track 5

Filename L:\FLAC\Buddy Rich Big Band - The Buddy Rich Collection (1977) - FLAC\05 - Groovin' Hard.wav

Pre-gap length 0:00:02.13

Peak level 98.8 %
Extraction speed 7.5 X
Track quality 100.0 %
Test CRC 5DC5687B
Copy CRC 5DC5687B
Accurately ripped (confidence 2) [B4A66A23]
Copy OK

Track 6

Filename L:\FLAC\Buddy Rich Big Band - The Buddy Rich Collection (1977) - FLAC\06 - Long Day's Journey.wav

Peak level 90.4 %
Extraction speed 7.9 X
Track quality 100.0 %
Test CRC 6053D070
Copy CRC 6053D070
Accurately ripped (confidence 2) [FE478993]
Copy OK

Track 7

Filename L:\FLAC\Buddy Rich Big Band - The Buddy Rich Collection (1977) - FLAC\07 - Preach and Teach.wav

Peak level 91.5 %
Extraction speed 8.2 X
Track quality 100.0 %
Test CRC EE0E12F8
Copy CRC EE0E12F8
Accurately ripped (confidence 2) [C5B5943E]
Copy OK

Track 8

Filename L:\FLAC\Buddy Rich Big Band - The Buddy Rich Collection (1977) - FLAC\08 - Celebration.wav

Peak level 95.9 %
Extraction speed 8.3 X
Track quality 100.0 %
Test CRC BE14FDBE
Copy CRC BE14FDBE
Accurately ripped (confidence 2) [14B70DFC]
Copy OK

Track 9

Filename L:\FLAC\Buddy Rich Big Band - The Buddy Rich Collection (1977) - FLAC\09 - Basically Blues.wav

Pre-gap length 0:00:02.00

Peak level 98.8 %
Extraction speed 9.2 X
Track quality 100.0 %
Test CRC 6CAB5E4A
Copy CRC 6CAB5E4A
Accurately ripped (confidence 2) [A8994C58]
Copy OK

Track 10

Filename L:\FLAC\Buddy Rich Big Band - The Buddy Rich Collection (1977) - FLAC\10 - Critic's Choice.wav

Peak level 98.8 %
Extraction speed 7.3 X
Track quality 99.9 %
Test CRC 0CB30111
Copy CRC 0CB30111
Accurately ripped (confidence 2) [49A81A9D]
Copy OK

Track 11

Filename L:\FLAC\Buddy Rich Big Band - The Buddy Rich Collection (1977) - FLAC\11 - The Meaning of the Blues.wav

Peak level 98.8 %
Extraction speed 9.3 X
Track quality 100.0 %
Test CRC FF43F6CE
Copy CRC FF43F6CE
Accurately ripped (confidence 2) [87172837]
Copy OK

Track 12

Filename L:\FLAC\Buddy Rich Big Band - The Buddy Rich Collection (1977) - FLAC\12 - Winning The West.wav

Peak level 98.8 %
Extraction speed 10.2 X
Track quality 100.0 %
Test CRC 751680AD
Copy CRC 751680AD
Accurately ripped (confidence 2) [7005AB10]
Copy OK

Track 13

Filename L:\FLAC\Buddy Rich Big Band - The Buddy Rich Collection (1977) - FLAC\13 - Group Shot.wav

Pre-gap length 0:00:01.50

Peak level 98.8 %
Extraction speed 10.4 X
Track quality 100.0 %
Test CRC 5433A6FA
Copy CRC 5433A6FA
Accurately ripped (confidence 2) [D63C9009]
Copy OK

Track 14

Filename L:\FLAC\Buddy Rich Big Band - The Buddy Rich Collection (1977) - FLAC\14 - Machine.wav

Pre-gap length 0:00:02.26

Peak level 98.8 %
Extraction speed 10.3 X
Track quality 100.0 %
Test CRC 734A885A
Copy CRC 734A885A
Accurately ripped (confidence 2) [834C3960]
Copy OK

Track 15

Filename L:\FLAC\Buddy Rich Big Band - The Buddy Rich Collection (1977) - FLAC\15 - I Can't Get Started.wav

Pre-gap length 0:00:02.86

Peak level 98.8 %
Extraction speed 10.5 X
Track quality 100.0 %
Test CRC B4D265B1
Copy CRC B4D265B1
Accurately ripped (confidence 2) [D4C6C1EC]
Copy OK

Track 16

Filename L:\FLAC\Buddy Rich Big Band - The Buddy Rich Collection (1977) - FLAC\16 - Diabolus.wav

Pre-gap length 0:00:02.70

Peak level 98.8 %
Extraction speed 11.7 X
Track quality 100.0 %
Test CRC 8DB52C0F
Copy CRC 8DB52C0F
Accurately ripped (confidence 2) [A7D904E2]
Copy OK


All tracks accurately ripped

No errors occurred

End of status report

==== Log checksum F3FDD329D1AFB3F946BB995F4D829DD83F5DC258D709BE7149BA4AB5A863BEE5 ====

All credits to the initial ripper / uploader of this rare gem