Subcategories

Buena Vista Social Club : At Carnegie Hall (2008)

Posted By: Manavgat
Buena Vista Social Club : At Carnegie Hall (2008)

Buena Vista Social Club : At Carnegie Hall (2008)
EAC RIP | Track Flac+CUE+LOG ~ 487 MB | 16 Tracks | MP3 CBR 320 Kbps ~ 184 MB | ArtWork
Genre: World, Latin & Cuban| Label: Nonesuch| Release date: October 14, 2008

The landmark Buena Vista Social Club concert at Carnegie Hall-July 1, 1998-was both the start of a remarkable story and the culmination of a dream. This one-time-only event elevated veteran Cuban performers like Ibrahim Ferrer, Ruben Gonzalez, Compay Segundo and Omara Portuondo to long-overdue status as international stars, and it transformed the BVSC's already critically acclaimed album into a commercial juggernaut. Since then, the Grammy-winning Buena Vista Social Club, recorded at Havana's Egrem Studio by guitarist Ry Cooder, has sold over eight million copies, making it the best-selling world music album ever, and the 'Buena Vista Social Club Presents' imprimatur has come to represent an unwavering mark of quality. The evening also became the dramatic heart of German filmmaker Wim Wenders' popular, Oscar-nominated documentary, also called Buena Vista Social Club. No one who saw it could be unmoved by the sight of an elderly performer like Ferrer taking in the skyscraper vistas of New York City or being overwhelmed by rapturous applause after he sang. This live set, then, is the crucial link to everything that happened before or after the Buena Vista Social Club as a group of musicians and as a brand; it's the album fans have eagerly awaited for a decade.
'With the bittersweet delicacy of a classic bolero,' said The New York Times in a review of the concert, 'the Buena Vista Social Club simultaneously celebrated the vitality and virtuosity of its musicians and mourned the era they embody.' The cultural significance of BVSC's performance was matched by its political momentousness; this concert offered a rare opportunity for these master Cuban musicians, coming together for the first time as a single ensemble, to freely play their classic songs for an American audience. This two-CD set preserves an important, but sadly evanescent, moment when borders and bureaucracies miraculously disappeared in the name of art. As singer Portuondo, who would subsequently embark on her own successful American tour, recalled, 'I felt triumphant seeing how we all worked together as a group, seeing how the music reached the audience…We felt so elated to be able to share our music. All of us had known each other for many years and played together many times, but it was a unique and unrepeatable occasion that our culture and our roots could reach the public through such a beautiful concert with all of us there together on the stage.'
To build awareness and anticipation for the live set, Nonesuch released a digital single of 'Chan Chan,' the concert's opening number and arguably the
BVSC's signature song, on July 1, the 10th anniversary of the concert date. The two-disc package also includes candid, often quite moving, first-person reminiscences from many of the surviving participants about the days-and hours-leading up to the concert and the once-in-a-lifetime experience of the evening itself. As album producer and fellow performer Cooder puts it, 'Listening to the tapes of the concert for the first time in ten years, I'm struck by what an amazing musical event it was. You'll never hear it again, people of this caliber working together. They were dramatic personalities and they're nearly all gone. There's nobody left like that anymore.'

Tracklist:
Disc 1
01- Chan Chan
02- De Camino A La Vereda
03- El Cuarto De Tula
04- La Enganadora
05- Buena Vista Social Club
06- Dos Gardenias
07- Quizas, Quizas
08- Veinte Anos

Disc 2
01- Orgullecida
02- Y Tu Que Has Hecho
03- Siboney
04- Mandinga
05- Almendra
06- El Carretero
07- Candela
08- Silencio


Exact Audio Copy V0.99 prebeta 4 from 23. January 2008

EAC extraction logfile from 30. October 2008, 22:43

Buena Vista Social Club / At Carnegie Hall (Disc 1)

Used drive : TSSTcorpCDDVDW TS-H653N Adapter: 2 ID: 2

Read mode : Secure
Utilize accurate stream : Yes
Defeat audio cache : No
Make use of C2 pointers : No

Read offset correction : 6
Overread into Lead-In and Lead-Out : No
Fill up missing offset samples with silence : Yes
Delete leading and trailing silent blocks : No
Null samples used in CRC calculations : Yes
Used interface : Native Win32 interface for Win NT & 2000
Gap handling : Not detected, thus appended to previous track

Used output format : Internal WAV Routines
Sample format : 44.100 Hz; 16 Bit; Stereo


TOC of the extracted CD

Track | Start | Length | Start sector | End sector
––––––––––––––––––––––––––––-
1 | 0:00.00 | 4:45.38 | 0 | 21412
2 | 4:45.38 | 4:58.49 | 21413 | 43811
3 | 9:44.12 | 8:00.40 | 43812 | 79851
4 | 17:44.52 | 2:44.03 | 79852 | 92154
5 | 20:28.55 | 5:59.08 | 92155 | 119087
6 | 26:27.63 | 4:23.49 | 119088 | 138861
7 | 30:51.37 | 3:47.57 | 138862 | 155943
8 | 34:39.19 | 4:06.59 | 155944 | 174452


Track 1

Filename C:\CD_buffer\Buena Vista Social Club - At Carnegie Hall (Disc 1) [2008] [FLAC]\01- Chan Chan.wav

Peak level 98.8 %
Track quality 100.0 %
Copy CRC 70EFAAD8
Track not present in AccurateRip database
Copy OK

Track 2

Filename C:\CD_buffer\Buena Vista Social Club - At Carnegie Hall (Disc 1) [2008] [FLAC]\02- De Camino A La Vereda.wav

Peak level 98.8 %
Track quality 100.0 %
Copy CRC 2961161D
Track not present in AccurateRip database
Copy OK

Track 3

Filename C:\CD_buffer\Buena Vista Social Club - At Carnegie Hall (Disc 1) [2008] [FLAC]\03- El Cuarto De Tula.wav

Peak level 98.8 %
Track quality 100.0 %
Copy CRC 04FBE156
Track not present in AccurateRip database
Copy OK

Track 4

Filename C:\CD_buffer\Buena Vista Social Club - At Carnegie Hall (Disc 1) [2008] [FLAC]\04- La Enganadora.wav

Peak level 99.1 %
Track quality 99.9 %
Copy CRC ADBC140A
Track not present in AccurateRip database
Copy OK

Track 5

Filename C:\CD_buffer\Buena Vista Social Club - At Carnegie Hall (Disc 1) [2008] [FLAC]\05- Buena Vista Social Club.wav

Peak level 98.8 %
Track quality 100.0 %
Copy CRC E1421F57
Track not present in AccurateRip database
Copy OK

Track 6

Filename C:\CD_buffer\Buena Vista Social Club - At Carnegie Hall (Disc 1) [2008] [FLAC]\06- Dos Gardenias.wav

Peak level 98.8 %
Track quality 99.9 %
Copy CRC BA2BAF9A
Track not present in AccurateRip database
Copy OK

Track 7

Filename C:\CD_buffer\Buena Vista Social Club - At Carnegie Hall (Disc 1) [2008] [FLAC]\07- Quizas, Quizas.wav

Peak level 98.8 %
Track quality 100.0 %
Copy CRC C368A9FE
Track not present in AccurateRip database
Copy OK

Track 8

Filename C:\CD_buffer\Buena Vista Social Club - At Carnegie Hall (Disc 1) [2008] [FLAC]\08- Veinte Anos.wav

Peak level 98.8 %
Track quality 100.0 %
Copy CRC 7D1C47B2
Track not present in AccurateRip database
Copy OK


None of the tracks are present in the AccurateRip database

No errors occurred

End of status report


Exact Audio Copy V0.99 prebeta 4 from 23. January 2008

EAC extraction logfile from 30. October 2008, 22:56

Buena Vista Social Club / At Carnegie Hall (Disc 2)

Used drive : TSSTcorpCDDVDW TS-H653N Adapter: 2 ID: 2

Read mode : Secure
Utilize accurate stream : Yes
Defeat audio cache : No
Make use of C2 pointers : No

Read offset correction : 6
Overread into Lead-In and Lead-Out : No
Fill up missing offset samples with silence : Yes
Delete leading and trailing silent blocks : No
Null samples used in CRC calculations : Yes
Used interface : Native Win32 interface for Win NT & 2000
Gap handling : Not detected, thus appended to previous track

Used output format : Internal WAV Routines
Sample format : 44.100 Hz; 16 Bit; Stereo


TOC of the extracted CD

Track | Start | Length | Start sector | End sector
––––––––––––––––––––––––––––-
1 | 0:00.00 | 3:23.23 | 0 | 15247
2 | 3:23.23 | 3:33.26 | 15248 | 31248
3 | 6:56.49 | 2:32.71 | 31249 | 42719
4 | 9:29.45 | 5:29.38 | 42720 | 67432
5 | 14:59.08 | 5:49.31 | 67433 | 93638
6 | 20:48.39 | 5:38.50 | 93639 | 119038
7 | 26:27.14 | 7:00.19 | 119039 | 150557
8 | 33:27.33 | 5:25.05 | 150558 | 174937


Track 1

Filename C:\CD_buffer\Buena Vista Social Club - At Carnegie Hall (Disc 2) [2008] [FLAC]\01- Orgullecida.wav

Peak level 98.8 %
Track quality 100.0 %
Copy CRC 1705816A
Track not present in AccurateRip database
Copy OK

Track 2

Filename C:\CD_buffer\Buena Vista Social Club - At Carnegie Hall (Disc 2) [2008] [FLAC]\02- Y Tu Que Has Hecho.wav

Peak level 98.8 %
Track quality 100.0 %
Copy CRC DA679340
Track not present in AccurateRip database
Copy OK

Track 3

Filename C:\CD_buffer\Buena Vista Social Club - At Carnegie Hall (Disc 2) [2008] [FLAC]\03- Siboney.wav

Peak level 99.1 %
Track quality 100.0 %
Copy CRC 597C2BC5
Track not present in AccurateRip database
Copy OK

Track 4

Filename C:\CD_buffer\Buena Vista Social Club - At Carnegie Hall (Disc 2) [2008] [FLAC]\04- Mandinga.wav

Peak level 98.8 %
Track quality 100.0 %
Copy CRC D1BFD3F7
Track not present in AccurateRip database
Copy OK

Track 5

Filename C:\CD_buffer\Buena Vista Social Club - At Carnegie Hall (Disc 2) [2008] [FLAC]\05- Almendra.wav

Peak level 98.8 %
Track quality 100.0 %
Copy CRC 11AE8B5D
Track not present in AccurateRip database
Copy OK

Track 6

Filename C:\CD_buffer\Buena Vista Social Club - At Carnegie Hall (Disc 2) [2008] [FLAC]\06- El Carretero.wav

Peak level 98.8 %
Track quality 100.0 %
Copy CRC 0FB17D35
Track not present in AccurateRip database
Copy OK

Track 7

Filename C:\CD_buffer\Buena Vista Social Club - At Carnegie Hall (Disc 2) [2008] [FLAC]\07- Candela.wav

Peak level 98.8 %
Track quality 100.0 %
Copy CRC DE78CE3F
Track not present in AccurateRip database
Copy OK

Track 8

Filename C:\CD_buffer\Buena Vista Social Club - At Carnegie Hall (Disc 2) [2008] [FLAC]\08- Silencio.wav

Peak level 98.8 %
Track quality 100.0 %
Copy CRC 97764381
Track not present in AccurateRip database
Copy OK


None of the tracks are present in the AccurateRip database

No errors occurred

End of status report