Subcategories

Buena Vista Social Club presents Omara Portuondo (2000) [REPOST]

Posted By: Manavgat
Buena Vista Social Club presents Omara Portuondo (2000) [REPOST]

Buena Vista Social Club presents Omara Portuondo (2000)
EAC RIP | Flac (Tracks)+CUE+LOG ~ 230 MB | 11 Tracks | MP3 CBR 320 Kbps ~ 95 MB | ArtWork
Genre: World, Ethnic & Latin | Label: Nonesuch | Release Date: May 9, 2000

Bearing the trademark of the most successful world music, phenomenon of the era - now certified platinum - comes the solo debut of Cuban singer Omara Protuondo. A key artist in the original Buena Vista sessions, Omara was among the most talked-about discoveries to emerge from the project, and has since - in her touring with Ibrahim Ferrer -established a name for herself as a performer to recon with. On an album noteworthy as the first reunion of the original Buena Vista musicians since the landmark sessions, Omara performs ballads and uptempo numbers with full big band support, by an ensemble studded with master players, including Ibrahim Ferrer, Ruben Gonzalez, Compay Segundo, and Eliades Ochoa. The alluring nostalgia of these romantic numbers, produced in Havana by Nick Gold, captures a lost era of music that has been resurrected by a new generation of music fans.


Tracklist:
1- La Sitiera
2- He Perdido Contigo
3- Donde Estabas Tu
4- Mariposita De Primavera
5- Canta Lo Sentimental
6- Ella Y Yo
7- No Me Vayas A Enganar
8- No Me Llores Mas
9- Veinte Anos
10- El Hombre Que Yo Ame (The Man I Love)
11- Siempre En Mi Corazon



Exact Audio Copy V0.99 prebeta 3 from 28. July 2007

EAC extraction logfile from 10. April 2008, 22:51

Omara Portuondo / Buena Vista Social Club presents Omara Portuondo

Used drive : SONY DVD RW DW-U18A Adapter: 0 ID: 0

Read mode : Secure
Utilize accurate stream : Yes
Defeat audio cache : Yes
Make use of C2 pointers : Yes

Read offset correction : 12
Overread into Lead-In and Lead-Out : No
Fill up missing offset samples with silence : Yes
Delete leading and trailing silent blocks : No
Null samples used in CRC calculations : Yes
Used interface : Native Win32 interface for Win NT & 2000
Gap handling : Not detected, thus appended to previous track

Used output format : Internal WAV Routines
Sample format : 44.100 Hz; 16 Bit; Stereo


TOC of the extracted CD

Track | Start | Length | Start sector | End sector
––––––––––––––––––––––––––––-
1 | 0:00.32 | 3:57.00 | 32 | 17806
2 | 3:57.32 | 3:49.30 | 17807 | 35011
3 | 7:46.62 | 3:47.33 | 35012 | 52069
4 | 11:34.20 | 2:54.27 | 52070 | 65146
5 | 14:28.47 | 3:26.15 | 65147 | 80611
6 | 17:54.62 | 3:24.33 | 80612 | 95944
7 | 21:19.20 | 2:53.12 | 95945 | 108931
8 | 24:12.32 | 4:59.40 | 108932 | 131396
9 | 29:11.72 | 4:43.45 | 131397 | 152666
10 | 33:55.42 | 3:11.28 | 152667 | 167019
11 | 37:06.70 | 3:42.67 | 167020 | 183736


Track 1

Filename C:\CD_buffer\Buena Vista Social Club presents Omara Portuondo [2000] [FLAC]\01- La Sitiera.wav

Peak level 100.0 %
Track quality 100.0 %
Copy CRC 346B7A35
Accurately ripped (confidence 13) [91A019B1]
Copy OK

Track 2

Filename C:\CD_buffer\Buena Vista Social Club presents Omara Portuondo [2000] [FLAC]\02- He Perdido Contigo.wav

Peak level 100.0 %
Track quality 100.0 %
Copy CRC 0D2B13ED
Accurately ripped (confidence 13) [C8F881E6]
Copy OK

Track 3

Filename C:\CD_buffer\Buena Vista Social Club presents Omara Portuondo [2000] [FLAC]\03- Donde Estabas Tu.wav

Peak level 100.0 %
Track quality 100.0 %
Copy CRC 2A6B4B56
Accurately ripped (confidence 13) [F3956B35]
Copy OK

Track 4

Filename C:\CD_buffer\Buena Vista Social Club presents Omara Portuondo [2000] [FLAC]\04- Mariposita De Primavera.wav

Peak level 66.7 %
Track quality 99.8 %
Copy CRC 3B7F20C6
Accurately ripped (confidence 13) [FA57BB52]
Copy OK

Track 5

Filename C:\CD_buffer\Buena Vista Social Club presents Omara Portuondo [2000] [FLAC]\05- Canta Lo Sentimental.wav

Peak level 98.2 %
Track quality 100.0 %
Copy CRC 329B5E1F
Accurately ripped (confidence 12) [D8B9D692]
Copy OK

Track 6

Filename C:\CD_buffer\Buena Vista Social Club presents Omara Portuondo [2000] [FLAC]\06- Ella Y Yo.wav

Peak level 100.0 %
Track quality 100.0 %
Copy CRC F19EA7E5
Accurately ripped (confidence 13) [59372A1D]
Copy OK

Track 7

Filename C:\CD_buffer\Buena Vista Social Club presents Omara Portuondo [2000] [FLAC]\07- No Me Vayas A Enganar.wav

Peak level 100.0 %
Track quality 100.0 %
Copy CRC 50325AB4
Accurately ripped (confidence 13) [F99FD9C1]
Copy OK

Track 8

Filename C:\CD_buffer\Buena Vista Social Club presents Omara Portuondo [2000] [FLAC]\08- No Me Llores Mas.wav

Peak level 100.0 %
Track quality 100.0 %
Copy CRC 1C198B69
Accurately ripped (confidence 13) [066F48FF]
Copy OK

Track 9

Filename C:\CD_buffer\Buena Vista Social Club presents Omara Portuondo [2000] [FLAC]\09- Veinte Anos.wav

Peak level 97.8 %
Track quality 100.0 %
Copy CRC 9161907A
Accurately ripped (confidence 12) [9D3C823D]
Copy OK

Track 10

Filename C:\CD_buffer\Buena Vista Social Club presents Omara Portuondo [2000] [FLAC]\10- El Hombre Que Yo Ame (The Man I Love).wav

Peak level 100.0 %
Track quality 100.0 %
Copy CRC 9EE5F8DE
Accurately ripped (confidence 12) [FFE90387]
Copy OK

Track 11

Filename C:\CD_buffer\Buena Vista Social Club presents Omara Portuondo [2000] [FLAC]\11- Siempre En Mi Corazon.wav

Peak level 100.0 %
Track quality 100.0 %
Copy CRC D26D8C10
Accurately ripped (confidence 14) [CCCD0BB9]
Copy OK


All tracks accurately ripped

No errors occurred

End of status report


Thanks to the Original ripper!
Uploaded.to @ Flac (Tracks)+CUE+LOG

Buena Vista Social Club presents Omara Portuondo (2000) [FLAC]

Turbobit.com @ Flac (Tracks)+CUE+LOG

Buena Vista Social Club presents Omara Portuondo (2000) [FLAC]

–––––––––––––––––

Uploaded.to @ CBR 320Kbps

Buena Vista Social Club presents Omara Portuondo (2000)

Turbobit.com @ CBR 320Kbps

Buena Vista Social Club presents Omara Portuondo (2000)