Subcategories

Camel - The Complete SHM-CD Set (1973 -1984) [12 Albums, 15 CDs] {2009 Japan Mini LP SHM-CD Remaster} [re-up]

Posted By: ruskaval
Camel - The Complete SHM-CD Set (1973 -1984) [12 Albums, 15 CDs] {2009 Japan Mini LP SHM-CD Remaster} [re-up]

Camel - The Complete SHM-CD Set (1973 -1984) [12 Albums, 15 CDs] {2009 Japan Mini LP SHM-CD Remaster}
EAC rip (secure mode) | FLAC (tracks)+CUE+LOG -> 5.13 Gb | MP3 @320 -> 1.97 Gb
Full Artwork @ 600 dpi (jpg) -> 3.11 Gb | 5% repair rar
© 2009 Universal Japan / Deram / Decca | UICY-94130…94145
Rock / Art Rock / Progressive Rock

Features the high-fidelity SHM-CD format (compatible with standard CD player). Cover artwork faithfully replicates original one. Comes with lyrics and a description. Camel was still finding its signature sound on its eponymous debut album. At this point, Peter Bardens and his grand, sweeping organ dominate the group's sound and Andrew Latimer sounds tentative on occasion.

Camel - The Complete SHM-CD Set (1973 -1984) [12 Albums, 15 CDs] {2009 Japan Mini LP SHM-CD Remaster} [re-up]

Camel - Camel (1973)
EAC rip (secure mode) | FLAC (tracks)+CUE+LOG -> 433 Mb | MP3 @320 -> 147 Mb
Full Artwork @ 600 dpi (jpg) -> 52 Mb | 5% repair rar
© 2009 Univeral Japan | UICY-94130

Furthermore, the music fluctuates uncertainly between arty improvisations, jazz-inflected rhythms, and uninspired rock numbers. There are hints of promise scattered throughout the album, yet the record never gels into something special.

tracklist:
01. Slow Yourself Down
02. Mystic Queen
03. Six Ate
04. Separation
05. Never Let Go
06. Curiosity
07. Arubaluda
08. Never Let Go (Single Version) (bonus track)
09. Homage To The God Of Light (Live) (bonus track)

EAC extraction logfile from 7. August 2009, 20:07 for CD
Camel / Camel (SHM-CD)

Used drive : LITE-ON DVDRW LH-20A1S Adapter: 4 ID: 0
Read mode : Secure with NO C2, accurate stream, disable cache
Read offset correction : 6
Overread into Lead-In and Lead-Out : No

Used output format : C:\Users\Pollux\Downloads\Syrup098b7\Syrup.exe (User Defined Encoder)
320 kBit/s
Additional command line options : REACT %o %s %d "%a" "%g" "%t" "%n" "%x" "%y" "%m" "%e" "%f" "%b" %r

Other options :
Fill up missing offset samples with silence : Yes
Delete leading and trailing silent blocks : No
Native Win32 interface for Win NT & 2000


Track 1
Filename D:\Pollux\Camel - Camel (SHM-CD) - 01 - Slow Yourself Down.wav

Pre-gap length 0:00:02.00

Peak level 98.8 %
Track quality 100.0 %
Test CRC 102E5AB5
Copy CRC 102E5AB5
Copy OK

Track 2
Filename D:\Pollux\Camel - Camel (SHM-CD) - 02 - Mystic Queen.wav

Pre-gap length 0:00:01.43

Peak level 98.8 %
Track quality 99.9 %
Test CRC 14CC3BDB
Copy CRC 14CC3BDB
Copy OK

Track 3
Filename D:\Pollux\Camel - Camel (SHM-CD) - 03 - Six Ate.wav

Peak level 98.8 %
Track quality 99.9 %
Test CRC 946BE986
Copy CRC 946BE986
Copy OK

Track 4
Filename D:\Pollux\Camel - Camel (SHM-CD) - 04 - Separation.wav

Pre-gap length 0:00:02.27

Peak level 98.8 %
Track quality 100.0 %
Test CRC 491406E6
Copy CRC 491406E6
Copy OK

Track 5
Filename D:\Pollux\Camel - Camel (SHM-CD) - 05 - Never Let Go.wav

Pre-gap length 0:00:02.00

Peak level 98.8 %
Track quality 99.9 %
Test CRC 97A3E421
Copy CRC 97A3E421
Copy OK

Track 6
Filename D:\Pollux\Camel - Camel (SHM-CD) - 06 - Curiosity.wav

Pre-gap length 0:00:01.43

Peak level 98.8 %
Track quality 100.0 %
Test CRC A781FB9D
Copy CRC A781FB9D
Copy OK

Track 7
Filename D:\Pollux\Camel - Camel (SHM-CD) - 07 - Arubaluba.wav

Pre-gap length 0:00:01.18

Peak level 98.8 %
Track quality 99.9 %
Test CRC 0FAFD2A0
Copy CRC 0FAFD2A0
Copy OK

Track 8
Filename D:\Pollux\Camel - Camel (SHM-CD) - 08 - Never Let Go (single version).wav

Pre-gap length 0:00:03.27

Peak level 98.8 %
Track quality 100.0 %
Test CRC E7ABDC28
Copy CRC E7ABDC28
Copy OK

Track 9
Filename D:\Pollux\Camel - Camel (SHM-CD) - 09 - Homage To The God Of Light (recorded live at Marquee Club (29-10-1974)).wav

Pre-gap length 0:00:04.00

Peak level 98.8 %
Track quality 99.9 %
Test CRC EC9740EF
Copy CRC EC9740EF
Copy OK

No errors occured


End of status report


Camel - The Complete SHM-CD Set (1973 -1984) [12 Albums, 15 CDs] {2009 Japan Mini LP SHM-CD Remaster} [re-up]



––––––––––––––––––––
Camel - The Complete SHM-CD Set (1973 -1984) [12 Albums, 15 CDs] {2009 Japan Mini LP SHM-CD Remaster} [re-up]

Camel - Mirage (1974)
EAC rip (secure mode) | FLAC (tracks)+CUE+LOG -> 427 Mb | MP3 @320 -> 162 Mb
Full Artwork @ 600 dpi (jpg) -> 64 Mb | 5% repair rar
© 2009 Univeral Japan | UICY-94131

With their second album, Mirage, Camel begin to develop their own distinctive sound, highlighted by the group's liquid, intricate rhythms and the wonderful, unpredictable instrumental exchanges by keyboardist Pete Bardens and guitarist Andy Latimer. Camel also distinguish themselves from their prog rock peers with the multi-part suite "Lady Fantasy," which suggests the more complex directions they would take a few albums down the line. Also, Latimer's graceful flute playing distinguishes several songs on the record, including "Supertwister," and it's clear that he has a more supple technique than such contemporaries as Ian Anderson. Camel are still ironing out some quirks in their sound on Mirage, but it's evident that they are coming into their own.

tracklist:
01. Freefall
02. Supertwister
03. Nimrodel - The procession - The White Rider
04. Earthrise
05. Lady Fantasy: Encounter/Smiles For You/Lady Fantasy
06. Supertwister (Bonus, Live 1974)
07. Mystic Queen (Bonus, Live 1974)
08. Arubaluba (Bonus, Live 1974)
09. Lady Fantasy (Bonus, Original Basing Street Studios Mix 1973)

EAC extraction logfile from 8. August 2009, 16:11 for CD
Camel / Mirage (SHM-CD)

Used drive : TSSTcorpCD/DVDW TS-H552D Adapter: 0 ID: 0
Read mode : Secure with NO C2, accurate stream, disable cache
Read offset correction : 6
Overread into Lead-In and Lead-Out : No

Used output format : C:\Users\Pollux\Downloads\Syrup098b7\Syrup.exe (User Defined Encoder)
320 kBit/s
Additional command line options : REACT %o %s %d "%a" "%g" "%t" "%n" "%x" "%y" "%m" "%e" "%f" "%b" %r

Other options :
Fill up missing offset samples with silence : Yes
Delete leading and trailing silent blocks : No
Native Win32 interface for Win NT & 2000


Track 1
Filename D:\Pollux\Camel - Mirage (SHM-CD) - 01 - Freefall.wav

Pre-gap length 0:00:02.00

Peak level 98.2 %
Track quality 100.0 %
Test CRC D6EB0B42
Copy CRC D6EB0B42
Copy OK

Track 2
Filename D:\Pollux\Camel - Mirage (SHM-CD) - 02 - Supertwister.wav

Pre-gap length 0:00:00.61

Peak level 92.0 %
Track quality 100.0 %
Test CRC 8FC3D31A
Copy CRC 8FC3D31A
Copy OK

Track 3
Filename D:\Pollux\Camel - Mirage (SHM-CD) - 03 - Nimrodel-The Procession-The White Rider.wav

Pre-gap length 0:00:00.56

Peak level 98.2 %
Track quality 100.0 %
Test CRC 42C1017C
Copy CRC 42C1017C
Copy OK

Track 4
Filename D:\Pollux\Camel - Mirage (SHM-CD) - 04 - Earthrise.wav

Pre-gap length 0:00:01.19

Peak level 98.2 %
Track quality 99.9 %
Test CRC 964AE584
Copy CRC 964AE584
Copy OK

Track 5
Filename D:\Pollux\Camel - Mirage (SHM-CD) - 05 - Lady Fantasy- Encounter-Smiles For You-Lady Fantasy.wav

Pre-gap length 0:00:01.59

Peak level 98.2 %
Track quality 100.0 %
Test CRC 2D28D814
Copy CRC 2D28D814
Copy OK

Track 6
Filename D:\Pollux\Camel - Mirage (SHM-CD) - 06 - Supertwister (live at The Marquee Club) (previously unreleased).wav

Pre-gap length 0:00:01.49

Peak level 98.2 %
Track quality 100.0 %
Test CRC F0A64C5D
Copy CRC F0A64C5D
Copy OK

Track 7
Filename D:\Pollux\Camel - Mirage (SHM-CD) - 07 - Mystic Queen (live at The Marquee Club) (previously unreleased).wav

Pre-gap length 0:00:07.34

Peak level 98.2 %
Track quality 100.0 %
Test CRC 40A8BB49
Copy CRC 40A8BB49
Copy OK

Track 8
Filename D:\Pollux\Camel - Mirage (SHM-CD) - 08 - Arubaluba (live at The Marquee Club) (previously unreleased).wav

Pre-gap length 0:00:01.67

Peak level 98.2 %
Track quality 100.0 %
Test CRC 4F72F44D
Copy CRC 4F72F44D
Copy OK

Track 9
Filename D:\Pollux\Camel - Mirage (SHM-CD) - 09 - Lady Fantasy Suite- Encounter-Smiles For You-Lady Fantasy (previously unreleased).wav

Pre-gap length 0:00:02.29

Peak level 98.2 %
Track quality 99.9 %
Test CRC 6AF99190
Copy CRC 6AF99190
Copy OK

No errors occured


End of status report


Camel - The Complete SHM-CD Set (1973 -1984) [12 Albums, 15 CDs] {2009 Japan Mini LP SHM-CD Remaster} [re-up]



––––––––––––––––––
Camel - The Complete SHM-CD Set (1973 -1984) [12 Albums, 15 CDs] {2009 Japan Mini LP SHM-CD Remaster} [re-up]

Camel - The Snow Goose (1975) [2CD]
EAC rip (secure mode) | FLAC (tracks)+CUE+LOG -> 599 Mb | MP3 @320 -> 254 Mb
Full Artwork @ 600 dpi (jpg) -> 85 Mb | 5% repair rar
© 2009 Univeral Japan | UICY-94132~33

Camel's classic period started with The Snow Goose, an instrumental concept album based on a novella by Paul Gallico. Although there are no lyrics on the album – two songs feature wordless vocals – the music follows the emotional arc of the novella's story, which is about a lonely man named Rhayader who helps nurse a wounded snow goose back to health with the help of a young girl called Fritha he recently befriended. Once the goose is healed, it is set free, but Fritha no longer visits the man because the goose is gone. Later, Rhayader is killed in battle during the evacuation of Dunkirk. The goose returned during the battle, and it is then named La Princesse Perdue, symbolizing the hopes that can still survive even during the evils of war. With such a complex fable to tell, it is no surprise that Camel keep their improvisational tendencies reined in, deciding to concentrate on surging, intricate soundscapes that telegraph the emotion of the piece without a single word. And even though The Snow Goose is an instrumental album, it is far more accessible than some of Camel's later work, since it relies on beautiful sonic textures instead of musical experimentation.

tracklist:
CD1

01. The Great Marsh
02. Rhayader
03. Rhayader Goes To Town
04. Sanctuary
05. Fritha
06. The Snow Goose
07. Friendship
08. Migration
09. Rhayader Alone
10. Flight Of The Snow Goose
11. Preparation [Instrumental Album Version]
12. Dunkirk [Instrumental Album Version]
13. Epitaph [Instrumental Album Version]
14. Fritha Alone [Instrumental Album Version]
15. La Princesse Perdue [Instrumental Album Version]
16. The Great Marsh [Instrumental Reprise Version]
17. Flight Of The Snow Goose [Instrumental Single Edit]
18. Rhayader [Instrumental Single Edit]
19. Rhayader Goes To Town ["Live At The Marquee" Instrumental Version]
20. The Snow Goose/Freefall ["Live At The Marquee" Instrumental Version]

CD2
01. Rhayader Goes To Town [BBC Radio One "In Concert"] - (live)
02. Sanctuary [BBC Radio One "In Concert"] - (live)
03. Snow Goose [BBC Radio One "In Concert"], The - (live)
04. Migration [BBC Radio One "In Concert"] - (live)
05. Rhayader Alone [BBC Radio One "In Concert"] - (live)
06. Flight Of The Snow Goose [BBC Radio One "In Concert"] - (live)
07. Preparation [BBC Radio One "In Concert"] - (live)
08. Dunkirk [BBC Radio One "In Concert"] - (live)
09. Epitaph [BBC Radio One "In Concert"] - (live)
10. La Princesse Perdue [BBC Radio One "In Concert"] - (live)
11. The Great Marsh [BBC Radio One "In Concert"] - (live)
12. Selections from The Snow Goose [BBC TV "Old Grey Whistle Test"] - (live)

EAC extraction logfile from 9. August 2009, 10:11 for CD
Camel / The Snow Goose (SHM-CD)

Used drive : TSSTcorpCD/DVDW TS-H552D Adapter: 0 ID: 0
Read mode : Secure with NO C2, accurate stream, disable cache
Read offset correction : 6
Overread into Lead-In and Lead-Out : No

Used output format : C:\Users\Pollux\Downloads\Syrup098b7\Syrup.exe (User Defined Encoder)
320 kBit/s
Additional command line options : REACT %o %s %d "%a" "%g" "%t" "%n" "%x" "%y" "%m" "%e" "%f" "%b" %r

Other options :
Fill up missing offset samples with silence : Yes
Delete leading and trailing silent blocks : No
Native Win32 interface for Win NT & 2000


Track 1
Filename D:\Pollux\Camel - The Snow Goose (SHM-CD) - 01 - The Great Marsh.wav

Pre-gap length 0:00:02.00

Peak level 98.8 %
Track quality 100.0 %
Test CRC C8A7ABD8
Copy CRC C8A7ABD8
Copy OK

Track 2
Filename D:\Pollux\Camel - The Snow Goose (SHM-CD) - 02 - Rhayader.wav

Peak level 98.8 %
Track quality 100.0 %
Test CRC 3C4F92E3
Copy CRC 3C4F92E3
Copy OK

Track 3
Filename D:\Pollux\Camel - The Snow Goose (SHM-CD) - 03 - Rhayader Goes To Town.wav

Peak level 98.8 %
Track quality 100.0 %
Test CRC AF1FDA6A
Copy CRC AF1FDA6A
Copy OK

Track 4
Filename D:\Pollux\Camel - The Snow Goose (SHM-CD) - 04 - Sanctuary.wav

Peak level 25.8 %
Track quality 100.0 %
Test CRC 108CF76F
Copy CRC 108CF76F
Copy OK

Track 5
Filename D:\Pollux\Camel - The Snow Goose (SHM-CD) - 05 - Fritha.wav

Peak level 38.2 %
Track quality 100.0 %
Test CRC B27389DC
Copy CRC B27389DC
Copy OK

Track 6
Filename D:\Pollux\Camel - The Snow Goose (SHM-CD) - 06 - The Snow Goose.wav

Peak level 98.8 %
Track quality 100.0 %
Test CRC FEA6D837
Copy CRC FEA6D837
Copy OK

Track 7
Filename D:\Pollux\Camel - The Snow Goose (SHM-CD) - 07 - Friendship.wav

Peak level 52.1 %
Track quality 100.0 %
Test CRC 8E013819
Copy CRC 8E013819
Copy OK

Track 8
Filename D:\Pollux\Camel - The Snow Goose (SHM-CD) - 08 - Migration.wav

Peak level 98.8 %
Track quality 99.9 %
Test CRC DE90F1F3
Copy CRC DE90F1F3
Copy OK

Track 9
Filename D:\Pollux\Camel - The Snow Goose (SHM-CD) - 09 - Rhayader Alone.wav

Peak level 44.9 %
Track quality 99.9 %
Test CRC 0E173AA9
Copy CRC 0E173AA9
Copy OK

Track 10
Filename D:\Pollux\Camel - The Snow Goose (SHM-CD) - 10 - Flight Of The Snow Goose.wav

Peak level 98.8 %
Track quality 100.0 %
Test CRC 7FD0E80F
Copy CRC 7FD0E80F
Copy OK

Track 11
Filename D:\Pollux\Camel - The Snow Goose (SHM-CD) - 11 - Preparation.wav

Peak level 65.7 %
Track quality 100.0 %
Test CRC D633493F
Copy CRC D633493F
Copy OK

Track 12
Filename D:\Pollux\Camel - The Snow Goose (SHM-CD) - 12 - Dunkirk.wav

Peak level 98.8 %
Track quality 100.0 %
Test CRC 6CADD942
Copy CRC 6CADD942
Copy OK

Track 13
Filename D:\Pollux\Camel - The Snow Goose (SHM-CD) - 13 - Epitaph.wav

Peak level 38.7 %
Track quality 100.0 %
Test CRC 3BA935E4
Copy CRC 3BA935E4
Copy OK

Track 14
Filename D:\Pollux\Camel - The Snow Goose (SHM-CD) - 14 - Fritha Alone.wav

Peak level 29.7 %
Track quality 100.0 %
Test CRC A4D19BC7
Copy CRC A4D19BC7
Copy OK

Track 15
Filename D:\Pollux\Camel - The Snow Goose (SHM-CD) - 15 - La Princesse Perdue.wav

Pre-gap length 0:00:00.01

Peak level 98.8 %
Track quality 100.0 %
Test CRC 63D6711F
Copy CRC 63D6711F
Copy OK

Track 16
Filename D:\Pollux\Camel - The Snow Goose (SHM-CD) - 16 - The Great Marsh.wav

Peak level 16.5 %
Track quality 100.0 %
Test CRC 3C572681
Copy CRC 3C572681
Copy OK

Track 17
Filename D:\Pollux\Camel - The Snow Goose (SHM-CD) - 17 - Flight Of The Snow Goose (Single Edit)x.wav

Pre-gap length 0:00:03.07

Peak level 98.8 %
Track quality 100.0 %
Test CRC 7E88EFE7
Copy CRC 7E88EFE7
Copy OK

Track 18
Filename D:\Pollux\Camel - The Snow Goose (SHM-CD) - 18 - Rhayader (Single Edit)x.wav

Pre-gap length 0:00:01.30

Peak level 98.8 %
Track quality 100.0 %
Test CRC 01C2C90A
Copy CRC 01C2C90A
Copy OK

Track 19
Filename D:\Pollux\Camel - The Snow Goose (SHM-CD) - 19 - Rhayader Goes To Town (Live)x.wav

Pre-gap length 0:00:02.42

Peak level 98.8 %
Track quality 100.0 %
Test CRC 3896693A
Copy CRC 3896693A
Copy OK

Track 20
Filename D:\Pollux\Camel - The Snow Goose (SHM-CD) - 20 - The Snow Goose,Freefall (Live)x.wav

Peak level 98.8 %
Track quality 100.0 %
Test CRC 21F4A39E
Copy CRC 21F4A39E
Copy OK

No errors occured


End of status report

EAC extraction logfile from 9. August 2009, 11:09 for CD
Camel / BBC Radio One "In Concert" (SHM-CD)

Used drive : TSSTcorpCD/DVDW TS-H552D Adapter: 0 ID: 0
Read mode : Secure with NO C2, accurate stream, disable cache
Read offset correction : 6
Overread into Lead-In and Lead-Out : No

Used output format : C:\Users\Pollux\Downloads\Syrup098b7\Syrup.exe (User Defined Encoder)
320 kBit/s
Additional command line options : REACT %o %s %d "%a" "%g" "%t" "%n" "%x" "%y" "%m" "%e" "%f" "%b" %r

Other options :
Fill up missing offset samples with silence : Yes
Delete leading and trailing silent blocks : No
Native Win32 interface for Win NT & 2000


Track 1
Filename D:\Pollux\Camel - BBC Radio One 'In Concert' (SHM-CD) - 01 - Rhayader Goes To Town.wav

Pre-gap length 0:00:02.00

Peak level 98.8 %
Track quality 100.0 %
Test CRC DFEE8DB2
Copy CRC DFEE8DB2
Copy OK

Track 2
Filename D:\Pollux\Camel - BBC Radio One 'In Concert' (SHM-CD) - 02 - Sanctuary.wav

Peak level 51.6 %
Track quality 100.0 %
Test CRC 4BD67FD2
Copy CRC 4BD67FD2
Copy OK

Track 3
Filename D:\Pollux\Camel - BBC Radio One 'In Concert' (SHM-CD) - 03 - The Snow Goose.wav

Peak level 98.8 %
Track quality 100.0 %
Test CRC C80CBE77
Copy CRC C80CBE77
Copy OK

Track 4
Filename D:\Pollux\Camel - BBC Radio One 'In Concert' (SHM-CD) - 04 - Migration.wav

Peak level 98.8 %
Track quality 100.0 %
Test CRC 143EB635
Copy CRC 143EB635
Copy OK

Track 5
Filename D:\Pollux\Camel - BBC Radio One 'In Concert' (SHM-CD) - 05 - Rhayader Alone.wav

Peak level 41.5 %
Track quality 100.0 %
Test CRC 73B2BA7C
Copy CRC 73B2BA7C
Copy OK

Track 6
Filename D:\Pollux\Camel - BBC Radio One 'In Concert' (SHM-CD) - 06 - Flight Of The Snow Goose.wav

Peak level 98.8 %
Track quality 100.0 %
Test CRC 921EF1A6
Copy CRC 921EF1A6
Copy OK

Track 7
Filename D:\Pollux\Camel - BBC Radio One 'In Concert' (SHM-CD) - 07 - Preparation.wav

Peak level 92.1 %
Track quality 100.0 %
Test CRC 3F8FF23B
Copy CRC 3F8FF23B
Copy OK

Track 8
Filename D:\Pollux\Camel - BBC Radio One 'In Concert' (SHM-CD) - 08 - Dunkirk.wav

Peak level 98.8 %
Track quality 100.0 %
Test CRC F648305A
Copy CRC F648305A
Copy OK

Track 9
Filename D:\Pollux\Camel - BBC Radio One 'In Concert' (SHM-CD) - 09 - Epitaph.wav

Pre-gap length 0:00:00.01

Peak level 46.9 %
Track quality 100.0 %
Test CRC ACFABD4C
Copy CRC ACFABD4C
Copy OK

Track 10
Filename D:\Pollux\Camel - BBC Radio One 'In Concert' (SHM-CD) - 10 - La Princesse Perdue.wav

Peak level 98.8 %
Track quality 100.0 %
Test CRC 5431843A
Copy CRC 5431843A
Copy OK

Track 11
Filename D:\Pollux\Camel - BBC Radio One 'In Concert' (SHM-CD) - 11 - The Great Marsh.wav

Peak level 79.6 %
Track quality 100.0 %
Test CRC 3D27FA05
Copy CRC 3D27FA05
Copy OK

Track 12
Filename D:\Pollux\Camel - BBC Radio One 'In Concert' (SHM-CD) - 12 - Selections From The Snow Goose (BBC2 OGWT)x.wav

Pre-gap length 0:00:03.19

Peak level 98.8 %
Track quality 100.0 %
Test CRC 69FAD5BD
Copy CRC 69FAD5BD
Copy OK

No errors occured


End of status report


Camel - The Complete SHM-CD Set (1973 -1984) [12 Albums, 15 CDs] {2009 Japan Mini LP SHM-CD Remaster} [re-up]



––––––––––––––-
Camel - The Complete SHM-CD Set (1973 -1984) [12 Albums, 15 CDs] {2009 Japan Mini LP SHM-CD Remaster} [re-up]

Camel - Moonmadness (1976) [2CD]
EAC rip (secure mode) | FLAC (tracks)+CUE+LOG -> 786 Mb | MP3 @320 -> 306 Mb
Full Artwork @ 600 dpi (jpg) -> 110 Mb | 5% repair rar
© 2009 Univeral Japan | UICY-94134~35

Abandoning the lovely soundscapes of Snow Goose, Camel delved into layered guitar and synthesizers similar to those of Pink Floyd's Wish You Were Here on the impressive Moonmadness. Part of the reason behind the shift in musical direction was the label's insistence that Camel venture into more commercial territory after the experimental Snow Goose, and it is true that the music on Moonmadness is more akin to traditional English progressive rock, even though it does occasionally dip into jazz-fusion territory with syncopated rhythms and shimmering keyboards. Furthermore, the songs are a little more concise and accessible than those of its predecessor. That doesn't mean Camel has abandoned art. Moonmadness is indeed a concept album, based loosely on the personalities of each member – "Chord Change" is Peter Bardens, "Air Born" is Andy Latimer, "Lunar Sea" is Andy Ward and "Another Night" is Doug Ferguson. Certainly, it's a concept that is considerably less defined than that of Snow Goose, and the music isn't quite as challenging, yet that doesn't mean that Moonmadness is devoid of pleasure. In fact, with its long stretches of atmospheric instrumentals and spacy solos, it's quite rewarding.

tracklist:
CD1

01. Aristillus [Instrumental Version]
02. Song Within A Song
03. Chord Change [Instrumental Version]
04. Spirit Of The Water
05. Another Night [Album Version]
06. Air Born
07. Lunar Sea [Instrumental Studio Version]
08. Another Night [Single Version]
09. Spirit Of The Water [Demo Version]
10. Lunar Sea ["Live At The Hammersmith Odeon" Instrumental Version]

CD2
01. Song Within A Song [Live At The Hammersmith Odeon]
02. Excerpt From The Snow Goose (First Three Tracks) [Live At The Hammersmith Odeon]
03. Air Born [Live At Hammersmith Odeon]
04. Chord Change [Live At Hammersmith Odeon]
05. The White Rider [Live At Hammersmith Odeon]
06. Preparation/Dunkirk [Live At The Hammersmith Odeon Instrumental Version]
07. Another Night [Live At Hammersmith Odeon]
08. Lady Fantasy [Live At Hammersmith Odeon]

EAC extraction logfile from 9. August 2009, 23:07 for CD
Camel / Moonmadness (SHM-CD)

Used drive : TSSTcorpCD/DVDW TS-H552D Adapter: 0 ID: 0
Read mode : Secure with NO C2, accurate stream, disable cache
Read offset correction : 6
Overread into Lead-In and Lead-Out : No

Used output format : C:\Users\Pollux\Downloads\Syrup098b7\Syrup.exe (User Defined Encoder)
320 kBit/s
Additional command line options : REACT %o %s %d "%a" "%g" "%t" "%n" "%x" "%y" "%m" "%e" "%f" "%b" %r

Other options :
Fill up missing offset samples with silence : Yes
Delete leading and trailing silent blocks : No
Native Win32 interface for Win NT & 2000


Track 1
Filename D:\Pollux\Camel - Moonmadness (SHM-CD) - 01 - Aristillus.wav

Pre-gap length 0:00:02.00

Peak level 94.3 %
Track quality 100.0 %
Test CRC 2B3BB624
Copy CRC 2B3BB624
Copy OK

Track 2
Filename D:\Pollux\Camel - Moonmadness (SHM-CD) - 02 - Song within a song.wav

Peak level 98.8 %
Track quality 99.9 %
Test CRC 78966230
Copy CRC 78966230
Copy OK

Track 3
Filename D:\Pollux\Camel - Moonmadness (SHM-CD) - 03 - Chord change.wav

Pre-gap length 0:00:02.04

Peak level 98.8 %
Track quality 100.0 %
Test CRC 7E06EBBF
Copy CRC 7E06EBBF
Copy OK

Track 4
Filename D:\Pollux\Camel - Moonmadness (SHM-CD) - 04 - Spirit of the water.wav

Pre-gap length 0:00:01.39

Peak level 90.2 %
Track quality 100.0 %
Test CRC 8B5A28C8
Copy CRC 8B5A28C8
Copy OK

Track 5
Filename D:\Pollux\Camel - Moonmadness (SHM-CD) - 05 - Another night.wav

Pre-gap length 0:00:01.54

Peak level 98.8 %
Track quality 100.0 %
Test CRC 5742D35D
Copy CRC 5742D35D
Copy OK

Track 6
Filename D:\Pollux\Camel - Moonmadness (SHM-CD) - 06 - Air born.wav

Pre-gap length 0:00:01.35

Peak level 98.8 %
Track quality 100.0 %
Test CRC 2188E2DB
Copy CRC 2188E2DB
Copy OK

Track 7
Filename D:\Pollux\Camel - Moonmadness (SHM-CD) - 07 - Lunar sea.wav

Pre-gap length 0:00:01.25

Peak level 98.8 %
Track quality 100.0 %
Test CRC 720DEF77
Copy CRC 720DEF77
Copy OK

Track 8
Filename D:\Pollux\Camel - Moonmadness (SHM-CD) - 08 - Another night (single).wav

Pre-gap length 0:00:04.71

Peak level 98.8 %
Track quality 100.0 %
Test CRC C7384527
Copy CRC C7384527
Copy OK

Track 9
Filename D:\Pollux\Camel - Moonmadness (SHM-CD) - 09 - Spirit of the water (demo version).wav

Pre-gap length 0:00:01.29

Peak level 59.2 %
Track quality 99.9 %
Test CRC 50A57FB3
Copy CRC 50A57FB3
Copy OK

Track 10
Filename D:\Pollux\Camel - Moonmadness (SHM-CD) - 10 - Lunar sea (Live).wav

Pre-gap length 0:00:02.44

Peak level 98.8 %
Track quality 99.9 %
Test CRC FB93669C
Copy CRC FB93669C
Copy OK

No errors occured


End of status report

EAC extraction logfile from 10. August 2009, 0:06 for CD
Camel / Moonmadness (SHM-CD) [Bonus Disc]

Used drive : TSSTcorpCD/DVDW TS-H552D Adapter: 0 ID: 0
Read mode : Secure with NO C2, accurate stream, disable cache
Read offset correction : 6
Overread into Lead-In and Lead-Out : No

Used output format : C:\Users\Pollux\Downloads\Syrup098b7\Syrup.exe (User Defined Encoder)
320 kBit/s
Additional command line options : REACT %o %s %d "%a" "%g" "%t" "%n" "%x" "%y" "%m" "%e" "%f" "%b" %r

Other options :
Fill up missing offset samples with silence : Yes
Delete leading and trailing silent blocks : No
Native Win32 interface for Win NT & 2000


Track 1
Filename D:\Pollux\Camel - Moonmadness (SHM-CD) [Bonus Disc] - 01 - Song Within A Song.wav

Pre-gap length 0:00:02.00

Peak level 98.8 %
Track quality 100.0 %
Test CRC 06FC38DE
Copy CRC 06FC38DE
Copy OK

Track 2
Filename D:\Pollux\Camel - Moonmadness (SHM-CD) [Bonus Disc] - 02 - Excerpts From The Snow Goose.wav

Pre-gap length 0:00:24.39

Peak level 98.8 %
Track quality 100.0 %
Test CRC 888FE126
Copy CRC 888FE126
Copy OK

Track 3
Filename D:\Pollux\Camel - Moonmadness (SHM-CD) [Bonus Disc] - 03 - Air Born.wav

Pre-gap length 0:00:22.07

Peak level 98.8 %
Track quality 99.9 %
Test CRC 3A96215B
Copy CRC 3A96215B
Copy OK

Track 4
Filename D:\Pollux\Camel - Moonmadness (SHM-CD) [Bonus Disc] - 04 - Chord Change.wav

Pre-gap length 0:00:13.71

Peak level 98.8 %
Track quality 100.0 %
Test CRC 3111C5B0
Copy CRC 3111C5B0
Copy OK

Track 5
Filename D:\Pollux\Camel - Moonmadness (SHM-CD) [Bonus Disc] - 05 - The White Rider.wav

Pre-gap length 0:00:09.01

Peak level 98.8 %
Track quality 100.0 %
Test CRC 0A83ED67
Copy CRC 0A83ED67
Copy OK

Track 6
Filename D:\Pollux\Camel - Moonmadness (SHM-CD) [Bonus Disc] - 06 - Preparation , Dunkirk.wav

Pre-gap length 0:00:18.36

Peak level 98.8 %
Track quality 99.9 %
Test CRC DA2168FE
Copy CRC DA2168FE
Copy OK

Track 7
Filename D:\Pollux\Camel - Moonmadness (SHM-CD) [Bonus Disc] - 07 - Another Night.wav

Pre-gap length 0:00:55.05

Peak level 98.8 %
Track quality 100.0 %
Test CRC DCB11B19
Copy CRC DCB11B19
Copy OK

Track 8
Filename D:\Pollux\Camel - Moonmadness (SHM-CD) [Bonus Disc] - 08 - Lady Fantasy.wav

Pre-gap length 0:00:57.74

Peak level 98.8 %
Track quality 100.0 %
Test CRC B930FBF4
Copy CRC B930FBF4
Copy OK

No errors occured


End of status report


Camel - The Complete SHM-CD Set (1973 -1984) [12 Albums, 15 CDs] {2009 Japan Mini LP SHM-CD Remaster} [re-up]



–––––––––––––––
Camel - The Complete SHM-CD Set (1973 -1984) [12 Albums, 15 CDs] {2009 Japan Mini LP SHM-CD Remaster} [re-up]

Camel - Rain Dances (1977)
EAC rip (secure mode) | FLAC (tracks)+CUE+LOG -> 389 Mb | MP3 @320 -> 181 Mb
Full Artwork @ 600 dpi (jpg) -> 110 Mb | 5% repair rar
© 2009 Univeral Japan | UICY-94136

The band's fifth release, Rain Dances is Camel at its best, offering the most consistent and representative package in their saga. The addition of Caravan-cofounder Richard Sinclair proves profitable, as do a few colorist touches by Brian Eno on "Elke." Mel Collins' woodwinds are among the highlights, especially on "Tell Me" and the title track. From beginning to end, this project flows gracefully.

tracklist:
01. First Light
02. Metrognome
03. Tell Me
04. Highways Of The Sun
05. Unevensong
06. One Of These Days I'll Get An Early Night
07. Elke
08. Skylines
09. Rain Dances
10. Highways Of The Sun [Single Version]
11. First Light [BBC "Sight & Sound" In Concert]
12. Metrognome [BBC "Sight & Sound" In Concert]
13. Unevensong [BBC "Sight & Sound" In Concert]
14. Skylines [BBC "Sight & Sound" In Concert] G
15. Highways Of The Sun [BBC "Sight & Sound" In Concert]
16. One Of These Days I'll Get An Early Night [BBC "Sight & Sound" In Concert]

EAC extraction logfile from 15. August 2009, 17:17 for CD
Camel / Rain Dances (SHM-CD)

Used drive : TSSTcorpCD/DVDW TS-H552D Adapter: 0 ID: 0
Read mode : Secure with NO C2, accurate stream, disable cache
Read offset correction : 6
Overread into Lead-In and Lead-Out : No

Used output format : C:\Users\Pollux\Downloads\Syrup098b7\Syrup.exe (User Defined Encoder)
320 kBit/s
Additional command line options : REACT %o %s %d "%a" "%g" "%t" "%n" "%x" "%y" "%m" "%e" "%f" "%b" %r

Other options :
Fill up missing offset samples with silence : Yes
Delete leading and trailing silent blocks : No
Native Win32 interface for Win NT & 2000


Track 1
Filename D:\Pollux\Camel - Rain Dances (SHM-CD) - 01 - First Light.wav

Pre-gap length 0:00:02.00

Peak level 98.8 %
Track quality 99.9 %
Test CRC FD308353
Copy CRC FD308353
Copy OK

Track 2
Filename D:\Pollux\Camel - Rain Dances (SHM-CD) - 02 - Metrognome.wav

Peak level 98.8 %
Track quality 100.0 %
Test CRC 9643DF5D
Copy CRC 9643DF5D
Copy OK

Track 3
Filename D:\Pollux\Camel - Rain Dances (SHM-CD) - 03 - Tell Me.wav

Pre-gap length 0:00:00.47

Peak level 76.0 %
Track quality 100.0 %
Test CRC 6B054747
Copy CRC 6B054747
Copy OK

Track 4
Filename D:\Pollux\Camel - Rain Dances (SHM-CD) - 04 - Highways To The Sun.wav

Pre-gap length 0:00:00.66

Peak level 98.8 %
Track quality 100.0 %
Test CRC F1E74629
Copy CRC F1E74629
Copy OK

Track 5
Filename D:\Pollux\Camel - Rain Dances (SHM-CD) - 05 - Unevensong.wav

Peak level 98.8 %
Track quality 100.0 %
Test CRC E4E1F14B
Copy CRC E4E1F14B
Copy OK

Track 6
Filename D:\Pollux\Camel - Rain Dances (SHM-CD) - 06 - One Of These Days I'll Get An Early Night.wav

Peak level 98.8 %
Track quality 100.0 %
Test CRC FA64528A
Copy CRC FA64528A
Copy OK

Track 7
Filename D:\Pollux\Camel - Rain Dances (SHM-CD) - 07 - Elke.wav

Peak level 61.2 %
Track quality 100.0 %
Test CRC 6F2A9A86
Copy CRC 6F2A9A86
Copy OK

Track 8
Filename D:\Pollux\Camel - Rain Dances (SHM-CD) - 08 - Skylines.wav

Pre-gap length 0:00:00.49

Peak level 98.8 %
Track quality 100.0 %
Test CRC D518A138
Copy CRC D518A138
Copy OK

Track 9
Filename D:\Pollux\Camel - Rain Dances (SHM-CD) - 09 - Rain Dances.wav

Pre-gap length 0:00:02.45

Peak level 77.9 %
Track quality 100.0 %
Test CRC EC589522
Copy CRC EC589522
Copy OK

Track 10
Filename D:\Pollux\Camel - Rain Dances (SHM-CD) - 10 - Highways To The Sun (single version).wav

Pre-gap length 0:00:02.15

Peak level 98.8 %
Track quality 100.0 %
Test CRC B621EFD5
Copy CRC B621EFD5
Copy OK

Track 11
Filename D:\Pollux\Camel - Rain Dances (SHM-CD) - 11 - First Light (BBC 'Sight & Sound' 10-01-77).wav

Pre-gap length 0:00:04.18

Peak level 98.8 %
Track quality 100.0 %
Test CRC F95E3035
Copy CRC F95E3035
Copy OK

Track 12
Filename D:\Pollux\Camel - Rain Dances (SHM-CD) - 12 - Metrognome (BBC 'Sight & Sound' 10-01-77).wav

Peak level 98.8 %
Track quality 100.0 %
Test CRC 3FE50CC2
Copy CRC 3FE50CC2
Copy OK

Track 13
Filename D:\Pollux\Camel - Rain Dances (SHM-CD) - 13 - Unevensong (BBC 'Sight & Sound' 10-01-77).wav

Peak level 98.8 %
Track quality 100.0 %
Test CRC 572D3571
Copy CRC 572D3571
Copy OK

Track 14
Filename D:\Pollux\Camel - Rain Dances (SHM-CD) - 14 - Skylines (BBC 'Sight & Sound' 10-01-77).wav

Peak level 98.8 %
Track quality 100.0 %
Test CRC 3CC8357D
Copy CRC 3CC8357D
Copy OK

Track 15
Filename D:\Pollux\Camel - Rain Dances (SHM-CD) - 15 - Highways To The Sun (BBC 'Sight & Sound' 10-01-77).wav

Peak level 98.8 %
Track quality 100.0 %
Test CRC D9B22DCA
Copy CRC D9B22DCA
Copy OK

Track 16
Filename D:\Pollux\Camel - Rain Dances (SHM-CD) - 16 - One Of These Days I'll Get An Early Night (BBC 'Sight & Sound' 10-01-77).wav

Peak level 98.8 %
Track quality 100.0 %
Test CRC 4FC8B319
Copy CRC 4FC8B319
Copy OK

No errors occured


End of status report


Camel - The Complete SHM-CD Set (1973 -1984) [12 Albums, 15 CDs] {2009 Japan Mini LP SHM-CD Remaster} [re-up]



––––––––––––––––-
Camel - The Complete SHM-CD Set (1973 -1984) [12 Albums, 15 CDs] {2009 Japan Mini LP SHM-CD Remaster} [re-up]

Camel - Breathless (1978)
EAC rip (secure mode) | FLAC (tracks)+CUE+LOG -> 315 Mb | MP3 @320 -> 105 Mb
Full Artwork @ 600 dpi (jpg) -> 38 Mb | 5% repair rar
© 2009 Univeral Japan | UICY-94138

With Rain Dances, Camel began exploring shorter, more concise songs, but it wasn't until its follow-up, Breathless, that they truly made a stab at writing pop songs. Although they didn't completely abandon improvisational prog rock – there are several fine, jazzy interludes – most of the record is comprised of shorter songs designed for radio play. While the group didn't quite achieve that goal, Breathless is nevertheless a more accessible record than Camel's other albums, which tend to focus on instrumentals. Here, they try to be a straightforward prog rock band, and while the results are occasionally a little muddled, it is on the whole surprisingly successful.

tracklist:
01. Breathless
02. Echoes
03. Wing and Prayer
04. Down on the Farm
05. Starlight Ride
06. Summer Lightening
07. You Make me Smile
08. The Sleeper
09. Rainbow's End

EAC extraction logfile from 18. August 2009, 23:05 for CD
Camel / Breathless (SHM-CD)

Used drive : TSSTcorpCD/DVDW TS-H552D Adapter: 0 ID: 0
Read mode : Secure with NO C2, accurate stream, disable cache
Read offset correction : 6
Overread into Lead-In and Lead-Out : No

Used output format : C:\Users\Pollux\Downloads\Syrup098b7\Syrup.exe (User Defined Encoder)
320 kBit/s
Additional command line options : REACT %o %s %d "%a" "%g" "%t" "%n" "%x" "%y" "%m" "%e" "%f" "%b" %r

Other options :
Fill up missing offset samples with silence : Yes
Delete leading and trailing silent blocks : No
Native Win32 interface for Win NT & 2000


Track 1
Filename D:\Pollux\Camel - Breathless (SHM-CD) - 01 - Breathless.wav

Pre-gap length 0:00:02.00

Peak level 99.8 %
Track quality 99.9 %
Test CRC 35196038
Copy CRC 35196038
Copy OK

Track 2
Filename D:\Pollux\Camel - Breathless (SHM-CD) - 02 - Echoes.wav

Pre-gap length 0:00:02.67

Peak level 99.8 %
Track quality 100.0 %
Test CRC D94757F7
Copy CRC D94757F7
Copy OK

Track 3
Filename D:\Pollux\Camel - Breathless (SHM-CD) - 03 - Wing and a Prayer.wav

Pre-gap length 0:00:02.73

Peak level 99.8 %
Track quality 100.0 %
Test CRC 6C1986BC
Copy CRC 6C1986BC
Copy OK

Track 4
Filename D:\Pollux\Camel - Breathless (SHM-CD) - 04 - Down on the Farm.wav

Pre-gap length 0:00:02.67

Peak level 99.8 %
Track quality 99.9 %
Test CRC 440B56C4
Copy CRC 440B56C4
Copy OK

Track 5
Filename D:\Pollux\Camel - Breathless (SHM-CD) - 05 - Starlight Ride.wav

Pre-gap length 0:00:02.63

Peak level 99.8 %
Track quality 100.0 %
Test CRC 23A35AD7
Copy CRC 23A35AD7
Copy OK

Track 6
Filename D:\Pollux\Camel - Breathless (SHM-CD) - 06 - Summer Lightning.wav

Pre-gap length 0:00:02.61

Peak level 99.8 %
Track quality 100.0 %
Test CRC C9137C65
Copy CRC C9137C65
Copy OK

Track 7
Filename D:\Pollux\Camel - Breathless (SHM-CD) - 07 - You Make Me Smile.wav

Pre-gap length 0:00:02.69

Peak level 99.8 %
Track quality 100.0 %
Test CRC BE2F2910
Copy CRC BE2F2910
Copy OK

Track 8
Filename D:\Pollux\Camel - Breathless (SHM-CD) - 08 - The Sleeper.wav

Pre-gap length 0:00:02.65

Peak level 99.8 %
Track quality 100.0 %
Test CRC A9096950
Copy CRC A9096950
Copy OK

Track 9
Filename D:\Pollux\Camel - Breathless (SHM-CD) - 09 - Rainbow's End.wav

Pre-gap length 0:00:02.65

Peak level 99.8 %
Track quality 100.0 %
Test CRC B3C362B9
Copy CRC B3C362B9
Copy OK

No errors occured


End of status report


Camel - The Complete SHM-CD Set (1973 -1984) [12 Albums, 15 CDs] {2009 Japan Mini LP SHM-CD Remaster} [re-up]



–––––––––––––-
Camel - The Complete SHM-CD Set (1973 -1984) [12 Albums, 15 CDs] {2009 Japan Mini LP SHM-CD Remaster} [re-up]

Camel - A Live Record (1978) [2CD]
EAC rip (secure mode) | FLAC (tracks)+CUE+LOG -> 815 Mb | MP3 @320 -> 333 Mb
Full Artwork @ 600 dpi (jpg) -> 68 Mb | 5% repair rar
© 2009 Univeral Japan | UICY-94144~45

This newly remastered 2 cd set "A Live Record" provides a great retrospective for the early years of progressive rock greats Camel. The set contains portions of live concerts from the years 1974-1977 with an amazing 7 bonus tracks not on the original lp version. The second disk contains an inspired performance of their entire "Snow Goose" lp with the London Symphony Orchestra. "Snow Goose" was arguably the band's best album. The early period of Camel which appeared on their first four albums featured Andrew Latimer on guitar, flute and vocals, Peter Bardens on keyboards and vocals, Doug Ferguson on bass and vocals and Andy Ward on drums and vocals. After their "Moonmadness" album Doug Ferguson left the band to be replaced by bassit Richard Sinclair from Caravan and Mel Collins from King Crimson was also added on saxophone and flute. This early period of the band tended to focus on instrumental material with a few vocals added. After the "Snow Goose" album Decca increased pressure on the band to include more vocals for commercial appeal. Highlights of the disk are many. The "Snow Goose" material mentioned earlier and favorites like "Another Night", "Lady Fantasy", and "Chord Change" are included. Andy Ward's drumming is solid but jazzy at the same time as heard in the great live version of "Lunar Sea" included here. The sweet "Song Within A Song" illustrates what lyrical writers Andrew Latimer and Peter Bardens were. The disk also contains a version of "Liggin" At Louis'" from Peter Barden's solo career. The band were fond of changing tempo and feel during songs as in "Lady Fantasy" when the song starts out soft and slow and later features some vicious guitar work by Latimer. He is one of a number of unsung guitarists from the seventies. His playing while lyrical and not overly flashy remains interesting. He reminds me at times of Jeff Beck during his quieter moments or Andy Powell or Ted Turner from Wishbone Ash with whom Camel sometimes toured. Camel's first four albums are highly recommended especially "Snow Goose" and "Moonmadness". Each of these albums have been remastered with improved sound and bonus tracks. These 4 albums contain more bonus live material from the same concerts featured on this newly remastered version of "A Live Record" not available here due to time constraints.

tracklist:
CD1

01. First Light
02. Metrognome
03. Unevensong
04. Skylines
05. A Song Within a Song
06. Lunar Sea
07. Raindances
08. Never Let Go
09. Chord Change
10. Ligging at Louis'
11. Lady Fantasy

CD2
01. Spoken introduction by Peter Bardens
02. The Great Marsh
03. Rhayader
04. Rhayader goes to Town
05. Sanctuary
06. Fritha
07. The Snow Goose
08. Friendship
09. Migration
10. Rhayader Alone
11. Flight of the Snow Goose
12. Preparation
13. Dunkirk
14. Epitaph
15. Fritha Alone
16. La Princesse Perdue
17. The Great Marsh
18. The White Rider
19. Another Night

EAC extraction logfile from 5. September 2009, 0:40 for CD
Camel / A Live Record (CD1)

Used drive : TSSTcorpCD/DVDW TS-H552D Adapter: 0 ID: 0
Read mode : Secure with NO C2, accurate stream, disable cache
Read offset correction : 6
Overread into Lead-In and Lead-Out : No

Used output format : C:\Users\Pollux\Downloads\Syrup098b7\Syrup.exe (User Defined Encoder)
320 kBit/s
Additional command line options : REACT %o %s %d "%a" "%g" "%t" "%n" "%x" "%y" "%m" "%e" "%f" "%b" %r

Other options :
Fill up missing offset samples with silence : Yes
Delete leading and trailing silent blocks : No
Native Win32 interface for Win NT & 2000


Track 1
Filename D:\Pollux\Camel - A Live Record (CD1) - 01 - First Light.wav

Pre-gap length 0:00:02.00

Peak level 98.8 %
Track quality 100.0 %
Test CRC 06F0CDDE
Copy CRC 06F0CDDE
Copy OK

Track 2
Filename D:\Pollux\Camel - A Live Record (CD1) - 02 - Metrognome.wav

Peak level 98.8 %
Track quality 100.0 %
Test CRC 8297EBF2
Copy CRC 8297EBF2
Copy OK

Track 3
Filename D:\Pollux\Camel - A Live Record (CD1) - 03 - Unevensong.wav

Pre-gap length 0:00:35.65

Peak level 98.8 %
Track quality 99.9 %
Test CRC 0B1C127B
Copy CRC 0B1C127B
Copy OK

Track 4
Filename D:\Pollux\Camel - A Live Record (CD1) - 04 - Skylines.wav

Pre-gap length 0:00:01.12

Peak level 98.8 %
Track quality 100.0 %
Test CRC A9A25513
Copy CRC A9A25513
Copy OK

Track 5
Filename D:\Pollux\Camel - A Live Record (CD1) - 05 - A Song Within A Song.wav

Pre-gap length 0:00:01.06

Peak level 98.8 %
Track quality 100.0 %
Test CRC 126FA2D5
Copy CRC 126FA2D5
Copy OK

Track 6
Filename D:\Pollux\Camel - A Live Record (CD1) - 06 - Lunar Sea.wav

Peak level 98.8 %
Track quality 100.0 %
Test CRC C56AD475
Copy CRC C56AD475
Copy OK

Track 7
Filename D:\Pollux\Camel - A Live Record (CD1) - 07 - Raindances.wav

Peak level 98.8 %
Track quality 100.0 %
Test CRC 6978683D
Copy CRC 6978683D
Copy OK

Track 8
Filename D:\Pollux\Camel - A Live Record (CD1) - 08 - Never Let Go.wav

Pre-gap length 0:00:11.03

Peak level 98.8 %
Track quality 100.0 %
Test CRC EFF6C03B
Copy CRC EFF6C03B
Copy OK

Track 9
Filename D:\Pollux\Camel - A Live Record (CD1) - 09 - Chord Change.wav

Pre-gap length 0:00:01.02

Peak level 98.8 %
Track quality 100.0 %
Test CRC A6F8A920
Copy CRC A6F8A920
Copy OK

Track 10
Filename D:\Pollux\Camel - A Live Record (CD1) - 10 - Ligging At Louis'.wav

Pre-gap length 0:00:02.41

Peak level 82.2 %
Track quality 100.0 %
Test CRC 5A1DB9DD
Copy CRC 5A1DB9DD
Copy OK

Track 11
Filename D:\Pollux\Camel - A Live Record (CD1) - 11 - Lady Fantasy- Encounter , Smiles For You , Lady Fantasy.wav

Pre-gap length 0:00:00.61

Peak level 98.8 %
Track quality 100.0 %
Test CRC 63F7C5C6
Copy CRC 63F7C5C6
Copy OK

No errors occured


End of status report

EAC extraction logfile from 5. September 2009, 9:00 for CD
Camel / A Live Record (CD2)

Used drive : TSSTcorpCD/DVDW TS-H552D Adapter: 0 ID: 0
Read mode : Secure with NO C2, accurate stream, disable cache
Read offset correction : 6
Overread into Lead-In and Lead-Out : No

Used output format : C:\Users\Pollux\Downloads\Syrup098b7\Syrup.exe (User Defined Encoder)
320 kBit/s
Additional command line options : REACT %o %s %d "%a" "%g" "%t" "%n" "%x" "%y" "%m" "%e" "%f" "%b" %r

Other options :
Fill up missing offset samples with silence : Yes
Delete leading and trailing silent blocks : No
Native Win32 interface for Win NT & 2000


Track 1
Filename D:\Pollux\Camel - A Live Record (CD2) - 01 - Spoken Introduction by Peter Bardens.wav

Pre-gap length 0:00:02.00

Peak level 34.0 %
Track quality 100.0 %
Test CRC 6696DCD4
Copy CRC 6696DCD4
Copy OK

Track 2
Filename D:\Pollux\Camel - A Live Record (CD2) - 02 - The Great Marsh.wav

Peak level 68.5 %
Track quality 100.0 %
Test CRC D289EFBD
Copy CRC D289EFBD
Copy OK

Track 3
Filename D:\Pollux\Camel - A Live Record (CD2) - 03 - Rhayader.wav

Peak level 77.5 %
Track quality 100.0 %
Test CRC 6DA8EEA2
Copy CRC 6DA8EEA2
Copy OK

Track 4
Filename D:\Pollux\Camel - A Live Record (CD2) - 04 - Rhayader Goes To Town.wav

Peak level 98.8 %
Track quality 100.0 %
Test CRC DDB26EB9
Copy CRC DDB26EB9
Copy OK

Track 5
Filename D:\Pollux\Camel - A Live Record (CD2) - 05 - Sanctuary.wav

Peak level 50.6 %
Track quality 100.0 %
Test CRC 2C661169
Copy CRC 2C661169
Copy OK

Track 6
Filename D:\Pollux\Camel - A Live Record (CD2) - 06 - Fritha.wav

Peak level 20.3 %
Track quality 99.8 %
Test CRC 1A8662B8
Copy CRC 1A8662B8
Copy OK

Track 7
Filename D:\Pollux\Camel - A Live Record (CD2) - 07 - The Snow Goose.wav

Peak level 90.3 %
Track quality 100.0 %
Test CRC 0F1331B0
Copy CRC 0F1331B0
Copy OK

Track 8
Filename D:\Pollux\Camel - A Live Record (CD2) - 08 - Friendship.wav

Peak level 20.9 %
Track quality 100.0 %
Test CRC 1D4412C1
Copy CRC 1D4412C1
Copy OK

Track 9
Filename D:\Pollux\Camel - A Live Record (CD2) - 09 - Migration.wav

Peak level 98.8 %
Track quality 100.0 %
Test CRC 4ADAFD9C
Copy CRC 4ADAFD9C
Copy OK

Track 10
Filename D:\Pollux\Camel - A Live Record (CD2) - 10 - Rhayader Alone.wav

Peak level 23.7 %
Track quality 99.9 %
Test CRC 58875FEF
Copy CRC 58875FEF
Copy OK

Track 11
Filename D:\Pollux\Camel - A Live Record (CD2) - 11 - Flight Of The Snow Goose.wav

Peak level 98.8 %
Track quality 99.9 %
Test CRC 763D1BBC
Copy CRC 763D1BBC
Copy OK

Track 12
Filename D:\Pollux\Camel - A Live Record (CD2) - 12 - Preparation.wav

Peak level 38.5 %
Track quality 100.0 %
Test CRC E2D3E00D
Copy CRC E2D3E00D
Copy OK

Track 13
Filename D:\Pollux\Camel - A Live Record (CD2) - 13 - Dunkirk.wav

Peak level 98.8 %
Track quality 100.0 %
Test CRC 41CC7FC7
Copy CRC 41CC7FC7
Copy OK

Track 14
Filename D:\Pollux\Camel - A Live Record (CD2) - 14 - Epitaph.wav

Peak level 58.1 %
Track quality 99.9 %
Test CRC DD33CAE5
Copy CRC DD33CAE5
Copy OK

Track 15
Filename D:\Pollux\Camel - A Live Record (CD2) - 15 - Fritha Alone.wav

Peak level 21.8 %
Track quality 100.0 %
Test CRC 98707ECC
Copy CRC 98707ECC
Copy OK

Track 16
Filename D:\Pollux\Camel - A Live Record (CD2) - 16 - La Princesse Perdue.wav

Peak level 98.8 %
Track quality 100.0 %
Test CRC 183F76AE
Copy CRC 183F76AE
Copy OK

Track 17
Filename D:\Pollux\Camel - A Live Record (CD2) - 17 - The Great Marsh.wav

Peak level 30.9 %
Track quality 100.0 %
Test CRC C5F83CF4
Copy CRC C5F83CF4
Copy OK

Track 18
Filename D:\Pollux\Camel - A Live Record (CD2) - 18 - The White Rider.wav

Pre-gap length 0:00:02.25

Peak level 98.8 %
Track quality 100.0 %
Test CRC 4C1A3E33
Copy CRC 4C1A3E33
Copy OK

Track 19
Filename D:\Pollux\Camel - A Live Record (CD2) - 19 - Another Night.wav

Pre-gap length 0:00:03.44

Peak level 98.8 %
Track quality 100.0 %
Test CRC EF4C2A28
Copy CRC EF4C2A28
Copy OK

No errors occured


End of status report


Camel - The Complete SHM-CD Set (1973 -1984) [12 Albums, 15 CDs] {2009 Japan Mini LP SHM-CD Remaster} [re-up]



––––––––––––––––––
Camel - The Complete SHM-CD Set (1973 -1984) [12 Albums, 15 CDs] {2009 Japan Mini LP SHM-CD Remaster} [re-up]

Camel - I Can See Your House From Here (1979)
EAC rip (secure mode) | FLAC (tracks)+CUE+LOG -> 312 Mb | MP3 @320 -> 109 Mb
Full Artwork @ 600 dpi (jpg) -> 27 Mb | 5% repair rar
© 2009 Univeral Japan | UICY-94139

Although not an honest representation of the band's character, this is undoubtedly their most popular work. The one-time addition of American Kit Watkins produces some fine keyboard lead work. Rupert Hine's resourceful production and appearances by Phil Collins and Mel Collins round out this strong import release. "Survival" and "Who We Are" feature some fine orchestrations, and guitarist Latimer delivers some exceptional lead work on the album's closer, "Ice."

tracklist:
01. Wait
02. Your Love Is Stranger Than Mine
03. Eye Of The Storm
04. Who We Are
05. Survival
06. Hymn Ho Her
07. Neon Magic
08. Remote Romance
09. Ice

EAC extraction logfile from 20. August 2009, 23:30 for CD
Camel / I Can See Your House From Here (SHM-CD)

Used drive : TSSTcorpCD/DVDW TS-H552D Adapter: 0 ID: 0
Read mode : Secure with NO C2, accurate stream, disable cache
Read offset correction : 6
Overread into Lead-In and Lead-Out : No

Used output format : C:\Users\Pollux\Downloads\Syrup098b7\Syrup.exe (User Defined Encoder)
320 kBit/s
Additional command line options : REACT %o %s %d "%a" "%g" "%t" "%n" "%x" "%y" "%m" "%e" "%f" "%b" %r

Other options :
Fill up missing offset samples with silence : Yes
Delete leading and trailing silent blocks : No
Native Win32 interface for Win NT & 2000


Track 1
Filename D:\Pollux\Camel - I Can See Your House From Here (SHM-CD) - 01 - Wait.wav

Pre-gap length 0:00:02.00

Peak level 99.8 %
Track quality 100.0 %
Test CRC 9396DA25
Copy CRC 9396DA25
Copy OK

Track 2
Filename D:\Pollux\Camel - I Can See Your House From Here (SHM-CD) - 02 - Your Love Is Stranger Than Mine.wav

Pre-gap length 0:00:01.70

Peak level 99.8 %
Track quality 100.0 %
Test CRC 2F070DCE
Copy CRC 2F070DCE
Copy OK

Track 3
Filename D:\Pollux\Camel - I Can See Your House From Here (SHM-CD) - 03 - Eye Of The Storm.wav

Pre-gap length 0:00:03.02

Peak level 98.8 %
Track quality 100.0 %
Test CRC 770C8382
Copy CRC 770C8382
Copy OK

Track 4
Filename D:\Pollux\Camel - I Can See Your House From Here (SHM-CD) - 04 - Who Are We.wav

Pre-gap length 0:00:00.69

Peak level 99.8 %
Track quality 100.0 %
Test CRC 9EBC86CD
Copy CRC 9EBC86CD
Copy OK

Track 5
Filename D:\Pollux\Camel - I Can See Your House From Here (SHM-CD) - 05 - Survival.wav

Pre-gap length 0:00:02.61

Peak level 71.0 %
Track quality 100.0 %
Test CRC 8895752E
Copy CRC 8895752E
Copy OK

Track 6
Filename D:\Pollux\Camel - I Can See Your House From Here (SHM-CD) - 06 - Hymn To Her.wav

Pre-gap length 0:00:00.69

Peak level 99.8 %
Track quality 100.0 %
Test CRC 64E842BE
Copy CRC 64E842BE
Copy OK

Track 7
Filename D:\Pollux\Camel - I Can See Your House From Here (SHM-CD) - 07 - Neon Magic.wav

Pre-gap length 0:00:00.70

Peak level 99.8 %
Track quality 100.0 %
Test CRC D4CC89FF
Copy CRC D4CC89FF
Copy OK

Track 8
Filename D:\Pollux\Camel - I Can See Your House From Here (SHM-CD) - 08 - Remote Romance.wav

Peak level 99.8 %
Track quality 99.9 %
Test CRC 664B341D
Copy CRC 664B341D
Copy OK

Track 9
Filename D:\Pollux\Camel - I Can See Your House From Here (SHM-CD) - 09 - Ice.wav

Pre-gap length 0:00:03.13

Peak level 99.8 %
Track quality 99.9 %
Test CRC 6C1F5824
Copy CRC 6C1F5824
Copy OK

No errors occured


End of status report


Camel - The Complete SHM-CD Set (1973 -1984) [12 			  		   	  		      		 			  	 			   		  	   		      	 			   		   	  		  	   		      	 			   		 		   		 	 				 Albums, 15 CDs] {2009 Japan Mini LP SHM-CD Remaster} [re-up]



–––––––––––––––––-
Camel - The Complete SHM-CD Set (1973 -1984) [12 Albums, 15 CDs] {2009 Japan Mini LP SHM-CD Remaster} [re-up]

Camel - Nude (1981)
EAC rip (secure mode) | FLAC (tracks)+CUE+LOG -> 283 Mb | MP3 @320 -> 107 Mb
Full Artwork @ 600 dpi (jpg) -> 35 Mb | 5% repair rar
© 2009 Univeral Japan | UICY-94140

A new, larger version of Camel debuted on Nude, a concept album about a Japanese soldier stranded on a deserted island during World War II and staying there, oblivious to the outside world, for 29 years. More ambitious than the preceding I Can See Your House from Here, Nude is in many ways just as impressive. Although it's a less accessible effort, it has a number of quite intriguing passages, particularly since it boasts heavier improvisation, orchestration, and even some worldbeat influences. It's not as spacy as Camel's earlier progressive rock records, yet it is quite atmospheric, creating its own entrancing world.

tracklist:
01. City Life
02. Nude
03. Drafted
04. Docks
05. Beached
06. Landscapes
07. Changing Places
08. Pomp & Circumstance
09. Please Come Home
10. Reflections
11. Captured
12. The Homecoming
13. Lies
The Last Farewell
14. The Birthday Cake
15. Nude's Return

EAC extraction logfile from 24. August 2009, 16:10 for CD
Camel / Nude (SHM-CD)

Used drive : TSSTcorpCD/DVDW TS-H552D Adapter: 0 ID: 0
Read mode : Secure with NO C2, accurate stream, disable cache
Read offset correction : 6
Overread into Lead-In and Lead-Out : No

Used output format : C:\Users\Pollux\Downloads\Syrup098b7\Syrup.exe (User Defined Encoder)
320 kBit/s
Additional command line options : REACT %o %s %d "%a" "%g" "%t" "%n" "%x" "%y" "%m" "%e" "%f" "%b" %r

Other options :
Fill up missing offset samples with silence : Yes
Delete leading and trailing silent blocks : No
Native Win32 interface for Win NT & 2000


Track 1
Filename D:\Pollux\Camel - Nude (SHM-CD) - 01 - City Life.wav

Pre-gap length 0:00:02.00

Peak level 99.8 %
Track quality 100.0 %
Test CRC 4427AA99
Copy CRC 4427AA99
Copy OK

Track 2
Filename D:\Pollux\Camel - Nude (SHM-CD) - 02 - Nude.wav

Peak level 19.0 %
Track quality 100.0 %
Test CRC 2EF17A24
Copy CRC 2EF17A24
Copy OK

Track 3
Filename D:\Pollux\Camel - Nude (SHM-CD) - 03 - Drafted.wav

Peak level 99.8 %
Track quality 100.0 %
Test CRC 2CD39FCA
Copy CRC 2CD39FCA
Copy OK

Track 4
Filename D:\Pollux\Camel - Nude (SHM-CD) - 04 - Docks.wav

Peak level 99.8 %
Track quality 99.9 %
Test CRC BE81F41C
Copy CRC BE81F41C
Copy OK

Track 5
Filename D:\Pollux\Camel - Nude (SHM-CD) - 05 - Beached.wav

Peak level 99.8 %
Track quality 100.0 %
Test CRC 16473F0D
Copy CRC 16473F0D
Copy OK

Track 6
Filename D:\Pollux\Camel - Nude (SHM-CD) - 06 - Landscapes.wav

Pre-gap length 0:00:01.41

Peak level 90.8 %
Track quality 100.0 %
Test CRC CDB264ED
Copy CRC CDB264ED
Copy OK

Track 7
Filename D:\Pollux\Camel - Nude (SHM-CD) - 07 - Changing Places.wav

Pre-gap length 0:00:02.61

Peak level 99.8 %
Track quality 100.0 %
Test CRC 3434BD37
Copy CRC 3434BD37
Copy OK

Track 8
Filename D:\Pollux\Camel - Nude (SHM-CD) - 08 - Pomp And Circumstance.wav

Peak level 92.5 %
Track quality 99.9 %
Test CRC 8917E166
Copy CRC 8917E166
Copy OK

Track 9
Filename D:\Pollux\Camel - Nude (SHM-CD) - 09 - Please Come Home.wav

Peak level 91.0 %
Track quality 100.0 %
Test CRC 54CB2125
Copy CRC 54CB2125
Copy OK

Track 10
Filename D:\Pollux\Camel - Nude (SHM-CD) - 10 - Reflections.wav

Peak level 66.2 %
Track quality 100.0 %
Test CRC DBCA283F
Copy CRC DBCA283F
Copy OK

Track 11
Filename D:\Pollux\Camel - Nude (SHM-CD) - 11 - Captured.wav

Peak level 99.8 %
Track quality 100.0 %
Test CRC 3DDEA62D
Copy CRC 3DDEA62D
Copy OK

Track 12
Filename D:\Pollux\Camel - Nude (SHM-CD) - 12 - The Homecoming.wav

Peak level 99.8 %
Track quality 100.0 %
Test CRC B1665342
Copy CRC B1665342
Copy OK

Track 13
Filename D:\Pollux\Camel - Nude (SHM-CD) - 13 - Lies.wav

Peak level 99.8 %
Track quality 100.0 %
Test CRC 06923C3C
Copy CRC 06923C3C
Copy OK

Track 14
Filename D:\Pollux\Camel - Nude (SHM-CD) - 14 - The Last Farewell - The Birthday Cake.wav

Peak level 34.1 %
Track quality 100.0 %
Test CRC CCCCC0DF
Copy CRC CCCCC0DF
Copy OK

Track 15
Filename D:\Pollux\Camel - Nude (SHM-CD) - 15 - The Last Farewell - Nude's Return.wav

Peak level 99.8 %
Track quality 100.0 %
Test CRC 1021B77D
Copy CRC 1021B77D
Copy OK

No errors occured


End of status report


Camel - The Complete SHM-CD Set (1973 -1984) [12 Albums, 15 CDs] {2009 Japan Mini LP SHM-CD Remaster} [re-up]



––––––––––––––––––
Camel - The Complete SHM-CD Set (1973 -1984) [12 Albums, 15 CDs] {2009 Japan Mini LP SHM-CD Remaster} [re-up]

Camel - The Single Factor (1982)
EAC rip (secure mode) | FLAC (tracks)+CUE+LOG -> 284 Mb | MP3 @320 -> 101 Mb
Full Artwork @ 600 dpi (jpg) -> 31 Mb | 5% repair rar
© 2009 Univeral Japan | UICY-94141

Following the ambitious song cycle Nude, Camel attempted their version of an Alan Parsons Project album with The Single Factor. Considering that Parsons was having hits that year with songs like "Eye in the Sky," it's not surprising that Camel tried to capture the same audience, yet their talent didn't lay with pop music – it lay with atmospheric instrumentals and creating detailed soundscapes. Consequently, The Single Factor sounds a little forced and often fails to capture the group's magic, even though there a few strong moments on the record.

tracklist:
01. No Easy Answer
02. You Are the One
03. Heroes
04. Selva
05. Lullabye
06. Sasquatch
07. Manic
08. Camelogue
09. Today's Goodbye
10. A Heart Desire
11. End Peace
12. You Are The One (Edited Version) (bonus track)

EAC extraction logfile from 24. August 2009, 19:46 for CD
Camel / The Single Factor (SHM-CD)

Used drive : TSSTcorpCD/DVDW TS-H552D Adapter: 0 ID: 0
Read mode : Secure with NO C2, accurate stream, disable cache
Read offset correction : 6
Overread into Lead-In and Lead-Out : No

Used output format : C:\Users\Pollux\Downloads\Syrup098b7\Syrup.exe (User Defined Encoder)
320 kBit/s
Additional command line options : REACT %o %s %d "%a" "%g" "%t" "%n" "%x" "%y" "%m" "%e" "%f" "%b" %r

Other options :
Fill up missing offset samples with silence : Yes
Delete leading and trailing silent blocks : No
Native Win32 interface for Win NT & 2000


Track 1
Filename D:\Pollux\Camel - The Single Factor (SHM-CD) - 01 - No Easy Answer.wav

Pre-gap length 0:00:02.00

Peak level 99.8 %
Track quality 100.0 %
Test CRC 9C2DEDBF
Copy CRC 9C2DEDBF
Copy OK

Track 2
Filename D:\Pollux\Camel - The Single Factor (SHM-CD) - 02 - You Are The One.wav

Pre-gap length 0:00:01.21

Peak level 99.8 %
Track quality 100.0 %
Test CRC 7C860256
Copy CRC 7C860256
Copy OK

Track 3
Filename D:\Pollux\Camel - The Single Factor (SHM-CD) - 03 - Heroes.wav

Pre-gap length 0:00:02.44

Peak level 99.8 %
Track quality 100.0 %
Test CRC 13433C32
Copy CRC 13433C32
Copy OK

Track 4
Filename D:\Pollux\Camel - The Single Factor (SHM-CD) - 04 - Selva.wav

Pre-gap length 0:00:01.46

Peak level 83.5 %
Track quality 100.0 %
Test CRC 71337E1F
Copy CRC 71337E1F
Copy OK

Track 5
Filename D:\Pollux\Camel - The Single Factor (SHM-CD) - 05 - Lullabye.wav

Pre-gap length 0:00:03.61

Peak level 65.1 %
Track quality 100.0 %
Test CRC E84EF27F
Copy CRC E84EF27F
Copy OK

Track 6
Filename D:\Pollux\Camel - The Single Factor (SHM-CD) - 06 - Sasquatch.wav

Pre-gap length 0:00:02.60

Peak level 99.8 %
Track quality 100.0 %
Test CRC B668EFF9
Copy CRC B668EFF9
Copy OK

Track 7
Filename D:\Pollux\Camel - The Single Factor (SHM-CD) - 07 - Manic.wav

Pre-gap length 0:00:01.48

Peak level 99.8 %
Track quality 100.0 %
Test CRC BDE5A4B8
Copy CRC BDE5A4B8
Copy OK

Track 8
Filename D:\Pollux\Camel - The Single Factor (SHM-CD) - 08 - Camelogue.wav

Pre-gap length 0:00:01.55

Peak level 99.8 %
Track quality 100.0 %
Test CRC 011115C5
Copy CRC 011115C5
Copy OK

Track 9
Filename D:\Pollux\Camel - The Single Factor (SHM-CD) - 09 - Today's Goodbye.wav

Pre-gap length 0:00:01.21

Peak level 99.8 %
Track quality 100.0 %
Test CRC 3B82E399
Copy CRC 3B82E399
Copy OK

Track 10
Filename D:\Pollux\Camel - The Single Factor (SHM-CD) - 10 - A Heart's Desire.wav

Pre-gap length 0:00:02.29

Peak level 60.3 %
Track quality 99.8 %
Test CRC 48C191A5
Copy CRC 48C191A5
Copy OK

Track 11
Filename D:\Pollux\Camel - The Single Factor (SHM-CD) - 11 - End Peace.wav

Peak level 99.8 %
Track quality 99.9 %
Test CRC A61415E0
Copy CRC A61415E0
Copy OK

Track 12
Filename D:\Pollux\Camel - The Single Factor (SHM-CD) - 12 - You Are The One (Edited Version).wav

Pre-gap length 0:00:01.61

Peak level 99.8 %
Track quality 99.9 %
Test CRC 10172CFB
Copy CRC 10172CFB
Copy OK

No errors occured


End of status report


Camel - The Complete SHM-CD Set (1973 -1984) [12 Albums, 15 CDs] {2009 Japan Mini LP SHM-CD Remaster} [re-up]



––––––––––––––––––
Camel - The Complete SHM-CD Set (1973 -1984) [12 Albums, 15 CDs] {2009 Japan Mini LP SHM-CD Remaster} [re-up]

Camel - Pressure Points (1984)
EAC rip (secure mode) | FLAC (tracks)+CUE+LOG -> 334 Mb | MP3 @320 -> 111 Mb
Full Artwork @ 600 dpi (jpg) -> 25 Mb | 5% repair rar
© 2009 Univeral Japan | UICY-94143

Unlike many bands whose careers had begun in the 1970s, CAMEL continued to enjoy much success in the 1980s, producing fine studio albums such as Stationary Traveller. Although destined to be Camel's final studio album for Decca Records, it was a fine effort. The subsequent tour to promote the album was equally memorable and was captured by Decca at Hammersmith Odeon on 11th May 1984 and released as the album Pressure Points later that year. The concert saw CAMEL joined by former member PETER BARDENS for certain songs during the set, including a rousing version of Lady Fantasy, not featured on the original album.

tracklist:
01. Pressure Points
02. Drafted
03. Captured
04. Lies
05. Sasquatch
06. West Berlin
07. Fingertips
08. Wait
09. Rhayader
10. Rhayader Goes To Town

EAC extraction logfile from 26. August 2009, 18:15 for CD
Camel / Pressure Points (SHM-CD)

Used drive : TSSTcorpCD/DVDW TS-H552D Adapter: 0 ID: 0
Read mode : Secure with NO C2, accurate stream, disable cache
Read offset correction : 6
Overread into Lead-In and Lead-Out : No

Used output format : C:\Users\Pollux\Downloads\Syrup098b7\Syrup.exe (User Defined Encoder)
320 kBit/s
Additional command line options : REACT %o %s %d "%a" "%g" "%t" "%n" "%x" "%y" "%m" "%e" "%f" "%b" %r

Other options :
Fill up missing offset samples with silence : Yes
Delete leading and trailing silent blocks : No
Native Win32 interface for Win NT & 2000


Track 1
Filename D:\Pollux\Camel - Pressure Points (SHM-CD) - 01 - Pressure Points.wav

Pre-gap length 0:00:02.00

Peak level 99.8 %
Track quality 100.0 %
Test CRC 37E3F446
Copy CRC 37E3F446
Copy OK

Track 2
Filename D:\Pollux\Camel - Pressure Points (SHM-CD) - 02 - Drafted.wav

Peak level 99.8 %
Track quality 100.0 %
Test CRC B5578915
Copy CRC B5578915
Copy OK

Track 3
Filename D:\Pollux\Camel - Pressure Points (SHM-CD) - 03 - Captured.wav

Peak level 99.8 %
Track quality 100.0 %
Test CRC 4F8AE1E3
Copy CRC 4F8AE1E3
Copy OK

Track 4
Filename D:\Pollux\Camel - Pressure Points (SHM-CD) - 04 - Lies.wav

Peak level 99.8 %
Track quality 100.0 %
Test CRC C1A86E16
Copy CRC C1A86E16
Copy OK

Track 5
Filename D:\Pollux\Camel - Pressure Points (SHM-CD) - 05 - Sasquatch.wav

Peak level 99.8 %
Track quality 99.9 %
Test CRC 1D073C55
Copy CRC 1D073C55
Copy OK

Track 6
Filename D:\Pollux\Camel - Pressure Points (SHM-CD) - 06 - West Berlin.wav

Peak level 99.8 %
Track quality 100.0 %
Test CRC 239C3367
Copy CRC 239C3367
Copy OK

Track 7
Filename D:\Pollux\Camel - Pressure Points (SHM-CD) - 07 - Fingertips.wav

Peak level 99.8 %
Track quality 99.9 %
Test CRC C1A0A355
Copy CRC C1A0A355
Copy OK

Track 8
Filename D:\Pollux\Camel - Pressure Points (SHM-CD) - 08 - Wait.wav

Peak level 99.8 %
Track quality 99.9 %
Test CRC FDACD856
Copy CRC FDACD856
Copy OK

Track 9
Filename D:\Pollux\Camel - Pressure Points (SHM-CD) - 09 - Rhayader.wav

Peak level 99.8 %
Track quality 100.0 %
Test CRC D8BE7815
Copy CRC D8BE7815
Copy OK

Track 10
Filename D:\Pollux\Camel - Pressure Points (SHM-CD) - 10 - Rhayader Goes To Town.wav

Peak level 99.8 %
Track quality 100.0 %
Test CRC 98665FE2
Copy CRC 98665FE2
Copy OK

No errors occured


End of status report


Camel - The Complete SHM-CD Set (1973 -1984) [12 Albums, 15 CDs] {2009 Japan Mini LP SHM-CD Remaster} [re-up]



––––––––––––––––-
Camel - The Complete SHM-CD Set (1973 -1984) [12 Albums, 15 CDs] {2009 Japan Mini LP SHM-CD Remaster} [re-up]

Camel - Stationary Traveller (1984)
EAC rip (secure mode) | FLAC (tracks)+CUE+LOG -> 286 Mb | MP3 @320 -> 100 Mb
Full Artwork @ 600 dpi (jpg) -> 33 Mb | 5% repair rar
© 2009 Univeral Japan | UICY-94142

Although Stationary Traveller is a concept album, it musically falls into line with its predecessor The Single Factor, which found Camel trying to refashion themselves as the Alan Parsons Project. Where The Single Factor suffered from Camel's attempts to write pop hooks, Stationary Traveller finds the band breaking down the barriers, opening up their relatively concise songs with long, atmospheric instrumental passages. The album's lyrics, which were written by Susan Hoover, is about the divided Berlin and its political, emotional and physical divides. Often, the lyrics and music – which work as individual entities – don't quite work together, since they follow different emotional directions, yet the record remains a worthwhile listen, especially since it features Andy Latimer on pan flute.

tracklist:
01. Pressure Points (instrumental)
02. Refugee
03. Vopos
04. Cloak and Dagger Man
05. Stationary Traveller (instrumental)
06. West Berlin
07. Fingertips
08. Missing (instrumental)
09. After Words (instrumental)
10. Long Goodbyes

EAC extraction logfile from 26. August 2009, 8:50 for CD
Camel / Stationary Traveller

Used drive : TSSTcorpCD/DVDW TS-H552D Adapter: 0 ID: 0
Read mode : Secure with NO C2, accurate stream, disable cache
Read offset correction : 6
Overread into Lead-In and Lead-Out : No

Used output format : C:\Users\Pollux\Downloads\Syrup098b7\Syrup.exe (User Defined Encoder)
320 kBit/s
Additional command line options : REACT %o %s %d "%a" "%g" "%t" "%n" "%x" "%y" "%m" "%e" "%f" "%b" %r

Other options :
Fill up missing offset samples with silence : Yes
Delete leading and trailing silent blocks : No
Native Win32 interface for Win NT & 2000


Track 1
Filename D:\Pollux\Camel - Stationary Traveller - 01 - Pressure Points (Instrumental).wav

Pre-gap length 0:00:02.00

Peak level 99.8 %
Track quality 100.0 %
Test CRC C76B2F6E
Copy CRC C76B2F6E
Copy OK

Track 2
Filename D:\Pollux\Camel - Stationary Traveller - 02 - Refugee.wav

Pre-gap length 0:00:01.49

Peak level 99.8 %
Track quality 100.0 %
Test CRC FBD76459
Copy CRC FBD76459
Copy OK

Track 3
Filename D:\Pollux\Camel - Stationary Traveller - 03 - Vopos.wav

Pre-gap length 0:00:01.62

Peak level 99.8 %
Track quality 100.0 %
Test CRC 4B32A34B
Copy CRC 4B32A34B
Copy OK

Track 4
Filename D:\Pollux\Camel - Stationary Traveller - 04 - Cloak And Dagger Man.wav

Pre-gap length 0:00:01.52

Peak level 99.8 %
Track quality 100.0 %
Test CRC FC446D73
Copy CRC FC446D73
Copy OK

Track 5
Filename D:\Pollux\Camel - Stationary Traveller - 05 - Stationary Traveller (Instrumental).wav

Pre-gap length 0:00:02.24

Peak level 99.8 %
Track quality 100.0 %
Test CRC A4E8FE60
Copy CRC A4E8FE60
Copy OK

Track 6
Filename D:\Pollux\Camel - Stationary Traveller - 06 - West Berlin.wav

Pre-gap length 0:00:01.61

Peak level 99.8 %
Track quality 100.0 %
Test CRC B2452587
Copy CRC B2452587
Copy OK

Track 7
Filename D:\Pollux\Camel - Stationary Traveller - 07 - Fingertips.wav

Pre-gap length 0:00:02.40

Peak level 99.8 %
Track quality 100.0 %
Test CRC 50176C6C
Copy CRC 50176C6C
Copy OK

Track 8
Filename D:\Pollux\Camel - Stationary Traveller - 08 - Missing (Instrumental).wav

Pre-gap length 0:00:02.03

Peak level 99.8 %
Track quality 100.0 %
Test CRC 1157E544
Copy CRC 1157E544
Copy OK

Track 9
Filename D:\Pollux\Camel - Stationary Traveller - 09 - After Words (Instrumental).wav

Pre-gap length 0:00:03.38

Peak level 22.9 %
Track quality 100.0 %
Test CRC 6E1C3A17
Copy CRC 6E1C3A17
Copy OK

Track 10
Filename D:\Pollux\Camel - Stationary Traveller - 10 - Long Goodbyes.wav

Pre-gap length 0:00:01.61

Peak level 99.8 %
Track quality 100.0 %
Test CRC 423EC5B0
Copy CRC 423EC5B0
Copy OK

No errors occured


End of status report


Camel - The Complete SHM-CD Set (1973 -1984) [12 Albums, 15 CDs] {2009 Japan Mini LP SHM-CD Remaster} [re-up]

Camel - The Complete SHM-CD Set (1973 -1984) [12 Albums, 15 CDs] {2009 Japan Mini LP SHM-CD Remaster} [re-up]



Camel - Camel (1973)
Nitroflare

Camel - Mirage (1974)
Nitroflare

Camel - The Snow Goose (1975) [2CD]
Nitroflare

Camel - Moonmadness (1976) [2CD]
Nitroflare

Camel - Rain Dances (1977)
Nitroflare

Camel - Breathless (1978)
Nitroflare

Camel - A Live Record (1978) [2CD]
Nitroflare

Camel - I Can See Your House From Here (1979)
Nitroflare

Camel - Nude (1981)
Nitroflare

Camel - The Single Factor (1982)
Nitroflare

Camel - Pressure Points (1984)
Nitroflare

Camel - Stationary Traveller (1984)
Nitroflare