Subcategories

Canned Heat - Canned Heat Blues Band (1999) {Ruf Records RUF-1040}

Posted By: ruskaval
Canned Heat - Canned Heat Blues Band (1999) {Ruf Records RUF-1040}

Canned Heat - Canned Heat Blues Band (1999) {Ruf Records RUF-1040}
EAC rip (secure mode) | FLAC (tracks)+CUE+LOG -> 321 Mb | MP3 @320 -> 118 Mb
Full Artwork @ 600 dpi (png) -> 259 Mb | 5% repair rar
© 1999 Ruf Records | RUF-1040
Blues / Blues-Rock / Boogie Rock / Modern Electric Blues

I cannot for the life of me find a thing wrong or amiss with this cd. I've been playing it for years and always love it. I know all about Canned Heat's tragic and illustrious past, and I'm not knocking those old records (most of them were great); but, it should be said by someone - the Canned Heat albums beginning with "Reheated" straight to the present - leave the old ones in the dust. Leaving behind the excessive reverence for the past (if you can, and you know who you are), there's one thing that has never changed about this band.

And that is their love, respect and sheer mastery of the blues. This particular album is quite possibly the band's greatest work so far. It would seem quite odd for anyone who likes the blues to dislike this cd. And 'Iron Horse', the third track, is hands-down the single greatest Canned Heat blues boogie to date. Check out "Blues Band" by Canned Heat, one of the greatest bands on the planet.

Track Listing

01 - Stranger
02 - Quiet woman
03 - Iron horse
04 - Jr.'s shuffle
05 - Creole queen
06 - Keep it to yourself
07 - Boogie music
08 - Goin' up the country
09 - See these tears
10 - One kind favour
11 - Oh baby
12 - Gorgo boogie

Exact Audio Copy V1.0 beta 3 from 29. August 2011

EAC extraction logfile from 18. January 2014, 19:48

Canned Heat / Canned Heat Blues Band

Used drive : PLEXTOR CD-R PREMIUM2 Adapter: 4 ID: 0

Read mode : Secure
Utilize accurate stream : Yes
Defeat audio cache : Yes
Make use of C2 pointers : No

Read offset correction : 30
Overread into Lead-In and Lead-Out : Yes
Fill up missing offset samples with silence : Yes
Delete leading and trailing silent blocks : No
Null samples used in CRC calculations : Yes
Used interface : Native Win32 interface for Win NT & 2000
Gap handling : Appended to previous track

Used output format : User Defined Encoder
Selected bitrate : 1024 kBit/s
Quality : High
Add ID3 tag : No
Command line compressor : C:\Program Files (x86)\Exact Audio Copy\Flac\flac.exe
Additional command line options : -8 -V -T "ARTIST=%artist%" -T "TITLE=%title%" -T "ALBUM=%albumtitle%" -T "DATE=%year%" -T "TRACKNUMBER=%tracknr%" -T "TOTALTRACKS=%numtracks%" -T "GENRE=%genre%" -T "ALBUMARTIST=%albumartist%" -T "ALBUM ARTIST=%albumartist%" -T "COMMENT=EAC Secure Mode, Test & Copy, AccurateRip, FLAC -8" %source%


TOC of the extracted CD

Track | Start | Length | Start sector | End sector
––––––––––––––––––––––––––––-
1 | 0:00.00 | 5:06.37 | 0 | 22986
2 | 5:06.37 | 4:33.03 | 22987 | 43464
3 | 9:39.40 | 5:12.57 | 43465 | 66921
4 | 14:52.22 | 4:14.32 | 66922 | 86003
5 | 19:06.54 | 3:45.26 | 86004 | 102904
6 | 22:52.05 | 4:17.20 | 102905 | 122199
7 | 27:09.25 | 4:32.57 | 122200 | 142656
8 | 31:42.07 | 3:19.48 | 142657 | 157629
9 | 35:01.55 | 2:28.60 | 157630 | 168789
10 | 37:30.40 | 4:25.22 | 168790 | 188686
11 | 41:55.62 | 4:31.28 | 188687 | 209039
12 | 46:27.15 | 3:44.10 | 209040 | 225849


Track 1

Filename G:\FLAC\01 - Stranger.wav

Pre-gap length 0:00:02.00

Peak level 100.0 %
Extraction speed 1.9 X
Track quality 100.0 %
Test CRC 675C7D15
Copy CRC 675C7D15
Accurately ripped (confidence 2) [D89895D2] (AR v1)
Copy OK

Track 2

Filename G:\FLAC\02 - Quiet woman.wav

Pre-gap length 0:00:01.07

Peak level 99.8 %
Extraction speed 1.9 X
Track quality 100.0 %
Test CRC B02A4B22
Copy CRC B02A4B22
Accurately ripped (confidence 2) [00B81011] (AR v1)
Copy OK

Track 3

Filename G:\FLAC\03 - Iron horse.wav

Peak level 99.1 %
Extraction speed 1.9 X
Track quality 100.0 %
Test CRC 58CE20E4
Copy CRC 58CE20E4
Accurately ripped (confidence 2) [B98E46AA] (AR v1)
Copy OK

Track 4

Filename G:\FLAC\04 - Jr.'s shuffle.wav

Peak level 97.9 %
Extraction speed 1.9 X
Track quality 100.0 %
Test CRC 319E47A6
Copy CRC 319E47A6
Accurately ripped (confidence 2) [908D5998] (AR v1)
Copy OK

Track 5

Filename G:\FLAC\05 - Creole queen.wav

Peak level 100.0 %
Extraction speed 1.9 X
Track quality 100.0 %
Test CRC 4FA98478
Copy CRC 4FA98478
Accurately ripped (confidence 2) [C0952182] (AR v1)
Copy OK

Track 6

Filename G:\FLAC\06 - Keep it to yourself.wav

Peak level 95.5 %
Extraction speed 1.8 X
Track quality 99.9 %
Test CRC A6E7C00D
Copy CRC A6E7C00D
Accurately ripped (confidence 2) [ABB10AA5] (AR v1)
Copy OK

Track 7

Filename G:\FLAC\07 - Boogie music.wav

Peak level 99.7 %
Extraction speed 1.9 X
Track quality 100.0 %
Test CRC A002F152
Copy CRC A002F152
Accurately ripped (confidence 2) [01C44E4A] (AR v1)
Copy OK

Track 8

Filename G:\FLAC\08 - Goin' up the country.wav

Peak level 95.4 %
Extraction speed 1.9 X
Track quality 100.0 %
Test CRC 0AA4841C
Copy CRC 0AA4841C
Accurately ripped (confidence 2) [A609D13D] (AR v1)
Copy OK

Track 9

Filename G:\FLAC\09 - See these tears.wav

Peak level 98.7 %
Extraction speed 1.9 X
Track quality 100.0 %
Test CRC 95D8AB4D
Copy CRC 95D8AB4D
Accurately ripped (confidence 2) [FB237DBE] (AR v1)
Copy OK

Track 10

Filename G:\FLAC\10 - One kind favour.wav

Peak level 99.9 %
Extraction speed 1.8 X
Track quality 99.9 %
Test CRC E695F278
Copy CRC E695F278
Accurately ripped (confidence 2) [84E72388] (AR v1)
Copy OK

Track 11

Filename G:\FLAC\11 - Oh baby.wav

Pre-gap length 0:00:01.30

Peak level 99.3 %
Extraction speed 1.9 X
Track quality 100.0 %
Test CRC 8605ED83
Copy CRC 8605ED83
Accurately ripped (confidence 2) [41F4C66F] (AR v1)
Copy OK

Track 12

Filename G:\FLAC\12 - Gorgo boogie.wav

Peak level 70.5 %
Extraction speed 1.9 X
Track quality 100.0 %
Test CRC A58BB019
Copy CRC A58BB019
Accurately ripped (confidence 2) [20415D16] (AR v1)
Copy OK


All tracks accurately ripped

No errors occurred

End of status report

==== Log checksum BA8031430C8B76031301A6853402EA7B2F3791AE607D60276EB1D668CDAB0050 ====


Canned Heat - Canned Heat Blues Band (1999) {Ruf Records RUF-1040}

Canned Heat - Canned Heat Blues Band (1999) {Ruf Records RUF-1040}



===