Subcategories

Canned Heat - On The Road Again - BLACK BOX (2007) {2CD Box Set Weton-Wesgram BB2194 - live and re-recordings}

Posted By: ruskaval
Canned Heat - On The Road Again - BLACK BOX (2007) {2CD Box Set Weton-Wesgram BB2194 - live and re-recordings}

Canned Heat - On The Road Again - BLACK BOX (2007) {2CD Box Set Weton-Wesgram BB2194 - live and re-recordings}
EAC rip (secure mode) | FLAC (tracks)+CUE+LOG -> 856 Mb | MP3 @320 -> 311 Mb
Full Artwork @ 600 dpi (png) -> 75 Mb | 5% repair rar
© 2007 Weton-Wesgram | BB2194
Rock / Blues Rock

Canned Heat rose to fame because their knowledge and love of blues music was both wide and deep. Emerging in 1966, Canned Heat was founded by blues historians and record collectors Alan “Blind Owl” Wilson and Bob “The Bear” Hite. Hite took the name “Canned Heat” from a 1928 recording by Tommy Johnson. They were joined by Henry “The Sunflower” Vestine, another ardent record collector who was a former member of Frank Zappa’s Mothers of Invention. Rounding out the band in 1967 were Larry “The Mole” Taylor on bass, an experienced session musician who had played with Jerry Lee Lewis and The Monkees and Adolfo “Fito” de la Parra on drums who had played in two of the biggest Latin American bands, Los Sinners and Los Hooligans.

The band attained three worldwide hits, “On The Road Again” in 1968, “Let’s Work Together” in 1970 and “Going Up The Country” in 1969 became rock anthems throughout the world with the later being adopted as the unofficial theme song for the film Woodstock and the “Woodstock Generation.”

They secured their niche in the pages of rock ‘n roll history with their performances at the 1967 Monterey Pop Festival (along with Jimi Hendrix, Janis Joplin and The Who) and the headlining slot at the original Woodstock Festival in 1969. The band can boast of collaborations with John Mayall and Little Richard and later with blues icon, John Lee Hooker, the musician that they initially got much of their musical inspiration from in the first place. This union produced the spirited and revered album, “Hooker ‘n Heat.” The band is also credited with bringing a number of other forgotten bluesmen to the forefront of modern blues including Sunnyland Slim, who they found driving a taxi in Chicago, Skip James, who they found in a hospital in Tunica, Mississippi and took to the Newport Festival, Memphis Slim and Clarence “Gatemouth” Brown with whom they recorded in France and Albert Collins.

On September 3rd, 1970, the band was shattered by the suicide of Alan Wilson. His death sparked reconstruction within the group and member changes have continued throughout the past three decades. On April 5th, 1981, at the Palamino in Los Angeles, gargantuan vocalist,Bob Hite, collapsed and died of a heart attack and on October 20th, 1997, Henry Vestine died in Paris, France following the final gig of a European tour. In 2008, singer/harmonica frontman Robert Lucas passed away from a drug overdose.

Despite these untimely deaths and assorted musical trends, Canned Heat has survived. They have performed at world-renowned venues such as Paris’ Olympia, both Fillmore Auditoriums, The Kaleidoscope, Carnegie Hall (with John Lee Hooker), Madison Square Garden and even Royal Albert Hall and have played more biker festivals and charity events than any other band in the world. They and/or their music have been featured on television (In Concert, David Frost, MervGriffin, Midnight Special, Playboy After Dark, etc.), and in films (“Woodstock,” “Flashback,” and “Forrest Gump”) etc. Their legend has recently been heard and felt in various television commercials (“On The Road Again” for Miller Beer, “Goin’ Up The Country” for Pepsi, Chevrolet and McDonalds, “Let’s Work Together” for Lloyd’s Bank, England’s Electric Company and for Target Stores along with other songs for 7-Up, Levi’s and Heineken Beer).

Now, more than fifty years later and with thirty-eight albums to their credit, Canned Heat is still going strong. They have been anchored throughout the past forty-five years by the steady hand of drummer/band leader Adolfo “Fito” de la Parra. Joining “Fito” is original bassist Larry “The Mole” Taylor and New Orleans legend, Dale Spalding on harmonica, guitar and lead vocals. Chicago great Harvey Mandel is the regular guitarist but has been temporarily replaced by John “JP” Paulus while “The Snake” deals with serious health issues.

tracklist:
CD1

01 - On the road again
02 - Rollin' and thumblin' (part 1)
03 - Dimples
04 - I wish you would
05 - Kings of the boogie
06 - Amphetamine Annie
07 - Strut my stuff
08 - Let's work together
09 - Pretty thing
10 - Sweet sixteen
11 - Chicken shack boogie
12 - Spoonful
13 - Open up your back door
14 - Hot money

Canned Heat - On The Road Again - BLACK BOX (2007) {2CD Box Set Weton-Wesgram BB2194 - live and re-recordings}


CD2
01 - Going up the country
02 - Can't hold on.flac
03 - I'd rather be a devil
04 - Human condition
05 - She's looking good
06 - Big road blues
07 - Got my mojo working
08 - Louise
09 - Just got to be there
10 - Hell's on down the line
11 - Bullfrog blues
12 - Refried hockey boogie
13 - House of blue lights
14 - Same all over

Canned Heat - On The Road Again - BLACK BOX (2007) {2CD Box Set Weton-Wesgram BB2194 - live and re-recordings}


Exact Audio Copy V1.0 beta 3 from 29. August 2011

EAC extraction logfile from 2. February 2014, 0:42

Canned Heat / On The Road Again - BLACK BOX CD1

Used drive : PLEXTOR CD-R PREMIUM2 Adapter: 4 ID: 0

Read mode : Secure
Utilize accurate stream : Yes
Defeat audio cache : Yes
Make use of C2 pointers : No

Read offset correction : 30
Overread into Lead-In and Lead-Out : Yes
Fill up missing offset samples with silence : Yes
Delete leading and trailing silent blocks : No
Null samples used in CRC calculations : Yes
Used interface : Native Win32 interface for Win NT & 2000
Gap handling : Appended to previous track

Used output format : User Defined Encoder
Selected bitrate : 1024 kBit/s
Quality : High
Add ID3 tag : No
Command line compressor : C:\Program Files (x86)\Exact Audio Copy\Flac\flac.exe
Additional command line options : -8 -V -T "ARTIST=%artist%" -T "TITLE=%title%" -T "ALBUM=%albumtitle%" -T "DATE=%year%" -T "TRACKNUMBER=%tracknr%" -T "TOTALTRACKS=%numtracks%" -T "GENRE=%genre%" -T "ALBUMARTIST=%albumartist%" -T "ALBUM ARTIST=%albumartist%" -T "COMMENT=EAC Secure Mode, Test & Copy, AccurateRip, FLAC -8" %source%


TOC of the extracted CD

Track | Start | Length | Start sector | End sector
––––––––––––––––––––––––––––-
1 | 0:00.00 | 4:33.22 | 0 | 20496
2 | 4:33.22 | 2:15.57 | 20497 | 30678
3 | 6:49.04 | 2:19.25 | 30679 | 41128
4 | 9:08.29 | 8:05.23 | 41129 | 77526
5 | 17:13.52 | 3:29.64 | 77527 | 93265
6 | 20:43.41 | 5:45.65 | 93266 | 119205
7 | 26:29.31 | 2:48.11 | 119206 | 131816
8 | 29:17.42 | 3:55.66 | 131817 | 149507
9 | 33:13.33 | 1:58.65 | 149508 | 158422
10 | 35:12.23 | 10:48.62 | 158423 | 207084
11 | 46:01.10 | 3:49.70 | 207085 | 224329
12 | 49:51.05 | 2:28.23 | 224330 | 235452
13 | 52:19.28 | 3:44.36 | 235453 | 252288
14 | 56:03.64 | 3:32.49 | 252289 | 268237


Track 1

Filename G:\FLAC\01 - On the road again.wav

Pre-gap length 0:00:02.00

Peak level 82.8 %
Extraction speed 1.9 X
Track quality 100.0 %
Test CRC 62E7D004
Copy CRC 62E7D004
Accurately ripped (confidence 3) [51AE2286] (AR v2)
Copy OK

Track 2

Filename G:\FLAC\02 - Rollin' and thumblin' (part 1).wav

Pre-gap length 0:00:02.00

Peak level 84.9 %
Extraction speed 1.8 X
Track quality 99.9 %
Test CRC 3AF9FA47
Copy CRC 3AF9FA47
Accurately ripped (confidence 3) [4D7FA070] (AR v2)
Copy OK

Track 3

Filename G:\FLAC\03 - Dimples.wav

Pre-gap length 0:00:02.00

Peak level 90.9 %
Extraction speed 1.8 X
Track quality 100.0 %
Test CRC 377BE27B
Copy CRC 377BE27B
Accurately ripped (confidence 3) [ED4F8CCA] (AR v2)
Copy OK

Track 4

Filename G:\FLAC\04 - I wish you would.wav

Pre-gap length 0:00:02.00

Peak level 87.1 %
Extraction speed 1.9 X
Track quality 100.0 %
Test CRC EAD62860
Copy CRC EAD62860
Accurately ripped (confidence 3) [5143C3B0] (AR v2)
Copy OK

Track 5

Filename G:\FLAC\05 - Kings of the boogie.wav

Pre-gap length 0:00:02.00

Peak level 82.4 %
Extraction speed 1.8 X
Track quality 100.0 %
Test CRC F735D16F
Copy CRC F735D16F
Accurately ripped (confidence 3) [6F028D37] (AR v2)
Copy OK

Track 6

Filename G:\FLAC\06 - Amphetamine Annie.wav

Pre-gap length 0:00:01.74

Peak level 76.4 %
Extraction speed 1.9 X
Track quality 100.0 %
Test CRC 639D820D
Copy CRC 639D820D
Accurately ripped (confidence 3) [F6F05752] (AR v2)
Copy OK

Track 7

Filename G:\FLAC\07 - Strut my stuff.wav

Pre-gap length 0:00:02.00

Peak level 68.6 %
Extraction speed 1.9 X
Track quality 100.0 %
Test CRC 1E752755
Copy CRC 1E752755
Accurately ripped (confidence 3) [04CDC730] (AR v2)
Copy OK

Track 8

Filename G:\FLAC\08 - Let's work together.wav

Pre-gap length 0:00:02.00

Peak level 79.4 %
Extraction speed 1.9 X
Track quality 100.0 %
Test CRC B638D730
Copy CRC B638D730
Accurately ripped (confidence 3) [319BEA64] (AR v2)
Copy OK

Track 9

Filename G:\FLAC\09 - Pretty thing.wav

Pre-gap length 0:00:02.00

Peak level 81.8 %
Extraction speed 1.7 X
Track quality 99.9 %
Test CRC B0882D7C
Copy CRC B0882D7C
Accurately ripped (confidence 3) [35C711DC] (AR v2)
Copy OK

Track 10

Filename G:\FLAC\10 - Sweet sixteen.wav

Pre-gap length 0:00:02.00

Peak level 79.1 %
Extraction speed 1.9 X
Track quality 100.0 %
Test CRC FD742083
Copy CRC FD742083
Accurately ripped (confidence 3) [CD2300F2] (AR v2)
Copy OK

Track 11

Filename G:\FLAC\11 - Chicken shack boogie.wav

Pre-gap length 0:00:02.00

Peak level 87.5 %
Extraction speed 1.8 X
Track quality 100.0 %
Test CRC C89B0031
Copy CRC C89B0031
Accurately ripped (confidence 3) [6E2C2D85] (AR v2)
Copy OK

Track 12

Filename G:\FLAC\12 - Spoonful.wav

Pre-gap length 0:00:02.00

Peak level 91.7 %
Extraction speed 1.8 X
Track quality 100.0 %
Test CRC ACD0D392
Copy CRC ACD0D392
Accurately ripped (confidence 3) [A6427269] (AR v2)
Copy OK

Track 13

Filename G:\FLAC\13 - Open up your back door.wav

Pre-gap length 0:00:02.00

Peak level 65.6 %
Extraction speed 1.8 X
Track quality 100.0 %
Test CRC C2EE5978
Copy CRC C2EE5978
Accurately ripped (confidence 3) [16897DD6] (AR v2)
Copy OK

Track 14

Filename G:\FLAC\14 - Hot money.wav

Pre-gap length 0:00:02.00

Peak level 68.6 %
Extraction speed 1.9 X
Track quality 100.0 %
Test CRC A2951288
Copy CRC A2951288
Accurately ripped (confidence 3) [0B809388] (AR v2)
Copy OK


All tracks accurately ripped

No errors occurred

End of status report

==== Log checksum DC2DFD83FD8F9736FD03922CADEE02775244EA560DBADEB6FE37AAE7355C2328 ====

Exact Audio Copy V1.0 beta 3 from 29. August 2011

EAC extraction logfile from 3. February 2014, 18:49

Canned Heat / On The Road Again - BLACK BOX CD2

Used drive : PLEXTOR CD-R PREMIUM2 Adapter: 4 ID: 0

Read mode : Secure
Utilize accurate stream : Yes
Defeat audio cache : Yes
Make use of C2 pointers : No

Read offset correction : 30
Overread into Lead-In and Lead-Out : Yes
Fill up missing offset samples with silence : Yes
Delete leading and trailing silent blocks : No
Null samples used in CRC calculations : Yes
Used interface : Native Win32 interface for Win NT & 2000
Gap handling : Appended to previous track

Used output format : User Defined Encoder
Selected bitrate : 1024 kBit/s
Quality : High
Add ID3 tag : No
Command line compressor : C:\Program Files (x86)\Exact Audio Copy\Flac\flac.exe
Additional command line options : -8 -V -T "ARTIST=%artist%" -T "TITLE=%title%" -T "ALBUM=%albumtitle%" -T "DATE=%year%" -T "TRACKNUMBER=%tracknr%" -T "TOTALTRACKS=%numtracks%" -T "GENRE=%genre%" -T "ALBUMARTIST=%albumartist%" -T "ALBUM ARTIST=%albumartist%" -T "COMMENT=EAC Secure Mode, Test & Copy, AccurateRip, FLAC -8" %source%


TOC of the extracted CD

Track | Start | Length | Start sector | End sector
––––––––––––––––––––––––––––-
1 | 0:00.00 | 2:57.54 | 0 | 13328
2 | 2:57.54 | 2:27.28 | 13329 | 24381
3 | 5:25.07 | 5:16.54 | 24382 | 48135
4 | 10:41.61 | 5:37.39 | 48136 | 73449
5 | 16:19.25 | 3:20.54 | 73450 | 88503
6 | 19:40.04 | 2:06.33 | 88504 | 97986
7 | 21:46.37 | 2:38.20 | 97987 | 109856
8 | 24:24.57 | 3:05.43 | 109857 | 123774
9 | 27:30.25 | 4:08.20 | 123775 | 142394
10 | 31:38.45 | 4:01.03 | 142395 | 160472
11 | 35:39.48 | 7:11.41 | 160473 | 192838
12 | 42:51.14 | 23:11.41 | 192839 | 297204
13 | 66:02.55 | 3:36.34 | 297205 | 313438
14 | 69:39.14 | 2:50.16 | 313439 | 326204


Track 1

Filename G:\FLAC\01 - Going up the country.wav

Pre-gap length 0:00:02.00

Peak level 82.9 %
Extraction speed 1.9 X
Track quality 100.0 %
Test CRC FF722B44
Copy CRC FF722B44
Accurately ripped (confidence 2) [A0F711E6] (AR v2)
Copy OK

Track 2

Filename G:\FLAC\02 - Can't hold on.wav

Pre-gap length 0:00:02.00

Peak level 79.8 %
Extraction speed 1.8 X
Track quality 99.9 %
Test CRC 02EA61BF
Copy CRC 02EA61BF
Accurately ripped (confidence 2) [CC8C5A12] (AR v2)
Copy OK

Track 3

Filename G:\FLAC\03 - I'd rather be a devil.wav

Pre-gap length 0:00:02.00

Peak level 83.5 %
Extraction speed 1.8 X
Track quality 99.9 %
Test CRC 8DECC201
Copy CRC 8DECC201
Accurately ripped (confidence 2) [A086B1F4] (AR v2)
Copy OK

Track 4

Filename G:\FLAC\04 - Human condition.wav

Pre-gap length 0:00:02.00

Peak level 68.3 %
Extraction speed 1.9 X
Track quality 100.0 %
Test CRC D012B812
Copy CRC D012B812
Accurately ripped (confidence 2) [E129C304] (AR v2)
Copy OK

Track 5

Filename G:\FLAC\05 - She's looking good.wav

Pre-gap length 0:00:02.00

Peak level 69.6 %
Extraction speed 1.9 X
Track quality 100.0 %
Test CRC C2D69C02
Copy CRC C2D69C02
Accurately ripped (confidence 2) [15F3CE87] (AR v2)
Copy OK

Track 6

Filename G:\FLAC\06 - Big road blues.wav

Pre-gap length 0:00:02.00

Peak level 84.3 %
Extraction speed 1.8 X
Track quality 100.0 %
Test CRC 3AA7019C
Copy CRC 3AA7019C
Accurately ripped (confidence 2) [9A042E45] (AR v2)
Copy OK

Track 7

Filename G:\FLAC\07 - Got my mojo working.wav

Pre-gap length 0:00:02.00

Peak level 89.5 %
Extraction speed 1.8 X
Track quality 100.0 %
Test CRC 2C498160
Copy CRC 2C498160
Accurately ripped (confidence 2) [AFF1B71E] (AR v2)
Copy OK

Track 8

Filename G:\FLAC\08 - Louise.wav

Pre-gap length 0:00:02.00

Peak level 99.8 %
Extraction speed 1.8 X
Track quality 99.9 %
Test CRC 79FDD7C0
Copy CRC 79FDD7C0
Accurately ripped (confidence 2) [A9ED4EB5] (AR v2)
Copy OK

Track 9

Filename G:\FLAC\09 - Just got to be there.wav

Pre-gap length 0:00:02.00

Peak level 76.5 %
Extraction speed 1.9 X
Track quality 100.0 %
Test CRC 83E23BC1
Copy CRC 83E23BC1
Accurately ripped (confidence 2) [D96987A5] (AR v2)
Copy OK

Track 10

Filename G:\FLAC\10 - Hell's on down the line.wav

Pre-gap length 0:00:02.00

Peak level 95.6 %
Extraction speed 1.8 X
Track quality 99.9 %
Test CRC 565C9E88
Copy CRC 565C9E88
Accurately ripped (confidence 2) [604F69D5] (AR v2)
Copy OK

Track 11

Filename G:\FLAC\11 - Bullfrog blues.wav

Pre-gap length 0:00:02.00

Peak level 87.4 %
Extraction speed 1.9 X
Track quality 100.0 %
Test CRC 89058080
Copy CRC 89058080
Accurately ripped (confidence 2) [303697FE] (AR v2)
Copy OK

Track 12

Filename G:\FLAC\12 - Refried hockey boogie.wav

Pre-gap length 0:00:02.00

Peak level 96.4 %
Extraction speed 1.9 X
Track quality 100.0 %
Test CRC BD26106B
Copy CRC BD26106B
Accurately ripped (confidence 1) [14FD7A8B] (AR v2)
Copy OK

Track 13

Filename G:\FLAC\13 - House of blue lights.wav

Pre-gap length 0:00:02.00

Peak level 70.8 %
Extraction speed 1.8 X
Track quality 99.9 %
Test CRC E29AA4A0
Copy CRC E29AA4A0
Accurately ripped (confidence 1) [D3390520] (AR v2)
Copy OK

Track 14

Filename G:\FLAC\14 - Same all over.wav

Pre-gap length 0:00:02.00

Peak level 80.1 %
Extraction speed 1.9 X
Track quality 100.0 %
Test CRC 8BA80B82
Copy CRC 8BA80B82
Accurately ripped (confidence 1) [8E01C029] (AR v2)
Copy OK


All tracks accurately ripped

No errors occurred

End of status report

==== Log checksum 4C87446C1D4F031D84C17A6391C72A202497CBA02EA0CC9B6CF7FBE4E4F02C5F ====


Canned Heat - On The Road Again - BLACK BOX (2007) {2CD Box Set Weton-Wesgram BB2194 - live and re-recordings}


All thanks goes to the original releaser!


===