Subcategories

Cannonball Adderley - Fiddler On The Roof (1964) {Capitol-Blue Note}

Posted By: ruskaval
Cannonball Adderley - Fiddler On The Roof (1964) {Capitol-Blue Note}

Cannonball Adderley - Fiddler On The Roof (1964) {Capitol-Blue Note}
EAC rip (secure mode) | FLAC (tracks)+CUE+LOG -> 317 Mb | MP3 @320 -> 118 Mb
Full Artwork @ 600 dpi (jpg) -> 72 Mb | 5% repair rar | 24bit remaster by Ron McMaster
© 1964, 2003 Capitol / Blue Note | 7243 5 42309 2 9
Jazz / Hard Bop / Soul Jazz / Saxophone

It is a bit strange that none of the eight songs performed on this LP found their way into Adderley's permanent repertoire for the altoist is quite inspired throughout this surprising set. With strong assists from cornetist Nat Adderley, Charles Lloyd on tenor and flute, pianist Joe Zawinul, bassist Sam Jones and drummer Louis Hayes, Cannonball plays near his peak; this is certainly the finest album by this particular sextet.
Fiddler on the Roof is (1) the longest-running, most-beloved musical in Broadway history, (2) a smash motion picture directed by Norman Jewison and starring the Israeli-actor Topol, and (3) now an exceptional-if surprising -jazz vehicle for Cannonball Adderley.

Not surprisingly, the unpredictable Cannon performs the warm, uplifting Sheldon Harnick-Jerry Bock score with style and sentiment, and a lot of help from his extremely talented friends-namely, Nat Adderley, Charles Lloyd, Joe Zawinul, Sam Jones and Louis Hayes.

It is rather improper to single out certain tracks and solo performances for special praise. Instead, the entire album should be enjoyed-as an exciting marriage of superb material, fragrant mood and riveting artistry.

Titles of three selections in this package do, however, require explanation.Fiddler on the Roof in the show itself is also called Tradition. The Bolero-tempered Chavalah is strictly a dance sequence in the show, and does not appear in the original cast recording. Cannon, however, found it perfect in the context of this recording. Sewing Machine was deleted prior to the Broadway opening, but Cannon liked it so much he felt that it too should be included on this date.

Personnel:
Cannonball Adderley - alto saxophone
Nat Adderley - cornet, trumpet
Charles Lloyd - tenor saxophone, flute
Joe Zawinul - piano
Sam Jones - bass
Louis Hayes - drums

tracklist:
01 - Fiddler On the Roof
02 - To Life
03 - Sabbath Prayer
04 - Chavalah
05 - Sewing Machine
06 - Now I Have Everything
07 - Do You Love Me
08 - Matchmaker, Matchmaker
09 - Sweet Georgia Bright [bonus]
10 - Island Blues [bonus]
11 - Little Boy With the Sad Eyes [bonus]
12 - Goodbye Charlie [bonus]

EAC extraction logfile from 12. September 2007, 12:33 for CD
Cannonball Adderley / Fiddler On The Roof

Used drive : TEAC CD-W540E Adapter: 1 ID: 1
Read mode : Secure with NO C2, accurate stream, disable cache
Read offset correction : 686
Overread into Lead-In and Lead-Out : No

Used output format : C:\Program Files\FLAC\flac.exe (User Defined Encoder)
192 kBit/s
Additional command line options : -8 -V -T "ARTIST=%a" -T "TITLE=%t" -T "ALBUM=%g" -T "DATE=%y" -T "TRACKNUMBER=%n" -T "GENRE=%m" -T "COMMENT=EAC FLAC -8" %s

Other options :
Fill up missing offset samples with silence : Yes
Delete leading and trailing silent blocks : No
Installed external ASPI interface


Track 1
Filename C:\RIPS\Cannonball Adderley - Fiddler On The Roof (1964) [FLAC] {2003 reissue}\01 - Fiddler On the Roof.wav

Pre-gap length 0:00:02.00

Peak level 98.8 %
Track quality 100.0 %
Test CRC 182386E7
Copy CRC 182386E7
Copy OK

Track 2
Filename C:\RIPS\Cannonball Adderley - Fiddler On The Roof (1964) [FLAC] {2003 reissue}\02 - To Life.wav

Peak level 98.8 %
Track quality 100.0 %
Test CRC E901C7F8
Copy CRC E901C7F8
Copy OK

Track 3
Filename C:\RIPS\Cannonball Adderley - Fiddler On The Roof (1964) [FLAC] {2003 reissue}\03 - Sabbath Prayer.wav

Peak level 98.8 %
Track quality 100.0 %
Test CRC 2E2BD356
Copy CRC 2E2BD356
Copy OK

Track 4
Filename C:\RIPS\Cannonball Adderley - Fiddler On The Roof (1964) [FLAC] {2003 reissue}\04 - Chavalah.wav

Peak level 98.8 %
Track quality 100.0 %
Test CRC 85968A0B
Copy CRC 85968A0B
Copy OK

Track 5
Filename C:\RIPS\Cannonball Adderley - Fiddler On The Roof (1964) [FLAC] {2003 reissue}\05 - Sewing Machine.wav

Peak level 98.8 %
Track quality 100.0 %
Test CRC 77711A11
Copy CRC 77711A11
Copy OK

Track 6
Filename C:\RIPS\Cannonball Adderley - Fiddler On The Roof (1964) [FLAC] {2003 reissue}\06 - Now I Have Everything.wav

Peak level 98.8 %
Track quality 100.0 %
Test CRC AE435E9C
Copy CRC AE435E9C
Copy OK

Track 7
Filename C:\RIPS\Cannonball Adderley - Fiddler On The Roof (1964) [FLAC] {2003 reissue}\07 - Do You Love Me .wav

Peak level 98.8 %
Track quality 100.0 %
Test CRC D3D7095C
Copy CRC D3D7095C
Copy OK

Track 8
Filename C:\RIPS\Cannonball Adderley - Fiddler On The Roof (1964) [FLAC] {2003 reissue}\08 - Matchmaker, Matchmaker.wav

Peak level 89.7 %
Track quality 100.0 %
Test CRC 76A2798C
Copy CRC 76A2798C
Copy OK

Track 9
Filename C:\RIPS\Cannonball Adderley - Fiddler On The Roof (1964) [FLAC] {2003 reissue}\09 - Sweet Georgia Bright [bonus].wav

Peak level 88.1 %
Track quality 99.9 %
Test CRC 0BB22AAE
Copy CRC 0BB22AAE
Copy OK

Track 10
Filename C:\RIPS\Cannonball Adderley - Fiddler On The Roof (1964) [FLAC] {2003 reissue}\10 - Island Blues [bonus].wav

Peak level 98.8 %
Track quality 100.0 %
Test CRC FB1950EB
Copy CRC FB1950EB
Copy OK

Track 11
Filename C:\RIPS\Cannonball Adderley - Fiddler On The Roof (1964) [FLAC] {2003 reissue}\11 - Little Boy With the Sad Eyes [bonus].wav

Peak level 98.8 %
Track quality 99.9 %
Test CRC 7353332C
Copy CRC 7353332C
Copy OK

Track 12
Filename C:\RIPS\Cannonball Adderley - Fiddler On The Roof (1964) [FLAC] {2003 reissue}\12 - Goodbye Charlie [bonus].wav

Peak level 98.8 %
Track quality 100.0 %
Test CRC 7CBADA5A
Copy CRC 7CBADA5A
Copy OK

No errors occured


End of status report


Cannonball Adderley - Fiddler On The Roof (1964) {Capitol-Blue Note}

Cannonball Adderley - Fiddler On The Roof (1964) {Capitol-Blue Note}


All thanks goes to the original releaser!