Subcategories

Carsten Hennig – Massenbewegung (2008)

Posted By: d'Avignon
Carsten Hennig – Massenbewegung (2008)

Carsten Hennig – Massenbewegung (2008)
Classical/21st Century | FLAC lossless | cuesheets+log | covers+booklet | 63m42s | 263mb
Label: WERGO | cat. no. WER 6565 2


Carsten Hennig was 15 years-old when he took his first piano and organ lessons. Hennig studied music education at the University of Music Franz Liszt Weimar (1989 - 1992); film music at the Filmakademie Baden-Wuerttemberg (1992 - 1995); composition with Adriana Hölszky at the Musikhochschule Rostock (1997 - 2000); and at the Mozarteum University Salzburg (2000 - 2002).
He has received numerous grants including: Ministerium für Wissenschaft und Kunst Mecklenburg-Western Pomerania (2001); Kulturstiftung Saxony in 2008, and artist residencies at Villa Massimo in Rome (2004) and Villa Aurora in Pacific Palisades (2007). He has been artistic director of the Dresden Ensembles für zeitgenössische Musik El perro andaluz since 2009, the ensembles was awarded the Kunstförderpreis der Landeshauptstadt Dresden in 2011.
Carsten Hennig is a Dresden-based freelance composer. He is a lecturer at the Hochschule für Musik Carl Maria von Weber Dresden.

Tracks:

01. Ausflug nach Sing-Sing [0:11:34.38]
02. Aperioden mit 7 Faltungen [0:10:17.04]
03. Kadenzes - 13 Fälle [0:10:08.76]
04. Massen [0:13:10.74]
05. Synonym [0:18:31.12]

Performers:

Luxembourg Sinfonietta - Marcel Wengler
Thürmchen Ensemble Köln - Erik Oña
Ensemble Aleph
Symphonieorchester des Bayerischen Rundfunks - Martyn Brabbins
Die Deutsche Kammerphilharmonie Bremen - Friedrich Goldmann
Monica Jordan – soprano

Exact Audio Copy V1.0 beta 3 from 29. August 2011

EAC extraction logfile from 4. March 2016, 18:27

Cartsen Hennig / Massenbewegung

Used drive : TSSTcorpCDDVDW SH-216AB Adapter: 0 ID: 0

Read mode : Secure
Utilize accurate stream : Yes
Defeat audio cache : Yes
Make use of C2 pointers : No

Read offset correction : 6
Overread into Lead-In and Lead-Out : No
Fill up missing offset samples with silence : Yes
Delete leading and trailing silent blocks : No
Null samples used in CRC calculations : Yes
Used interface : Native Win32 interface for Win NT & 2000
Gap handling : Appended to previous track

Used output format : User Defined Encoder
Selected bitrate : 768 kBit/s
Quality : High
Add ID3 tag : No
Command line compressor : C:\Program Files (x86)\FLAC Frontend\tools\flac.exe
Additional command line options : -8 -V -T "ARTIST=%artist%" -T "TITLE=%title%" -T "ALBUM=%albumtitle%" -T "DATE=%year%" -T "TRACKNUMBER=%tracknr%" -T "GENRE=%genre%" -T "PERFORMER=%albuminterpret%" -T "COMPOSER=%composer%" %haslyrics%–tag-from-file=LYRICS="%lyricsfile%"%haslyrics% -T "ALBUMARTIST=%albumartist%" -T "DISCNUMBER=%cdnumber%" -T "TOTALDISCS=%totalcds%" -T "TOTALTRACKS=%numtracks%" -T "COMMENT=%comment%" %source% -o %dest%


TOC of the extracted CD

Track | Start | Length | Start sector | End sector
––––––––––––––––––––––––––––-
1 | 0:00.00 | 11:34.29 | 0 | 52078
2 | 11:34.29 | 10:17.03 | 52079 | 98356
3 | 21:51.32 | 10:08.57 | 98357 | 144013
4 | 32:00.14 | 13:10.56 | 144014 | 203319
5 | 45:10.70 | 18:31.09 | 203320 | 286653


Track 1

Filename H:\Users\astarte\03. POST\Hennig, Carsten - Massenbewegung\01 Ausflug nach Sing-Sing.wav

Pre-gap length 0:00:02.00

Peak level 98.8 %
Extraction speed 5.8 X
Track quality 100.0 %
Copy CRC 5CD10961
Track not present in AccurateRip database
Copy OK

Track 2

Filename H:\Users\astarte\03. POST\Hennig, Carsten - Massenbewegung\02 Aperioden mit 7 Faltungen.wav

Pre-gap length 0:00:04.24

Peak level 97.5 %
Extraction speed 6.9 X
Track quality 100.0 %
Copy CRC FA91C92D
Track not present in AccurateRip database
Copy OK

Track 3

Filename H:\Users\astarte\03. POST\Hennig, Carsten - Massenbewegung\03 Kadenzes - 13 Fälle.wav

Pre-gap length 0:00:04.61

Peak level 69.1 %
Extraction speed 7.8 X
Track quality 100.0 %
Copy CRC 6A2C7306
Track not present in AccurateRip database
Copy OK

Track 4

Filename H:\Users\astarte\03. POST\Hennig, Carsten - Massenbewegung\04 Massen.wav

Pre-gap length 0:00:06.18

Peak level 98.8 %
Extraction speed 8.8 X
Track quality 100.0 %
Copy CRC 1966FFBB
Track not present in AccurateRip database
Copy OK

Track 5

Filename H:\Users\astarte\03. POST\Hennig, Carsten - Massenbewegung\05 Synonym.wav

Pre-gap length 0:00:05.82

Peak level 100.0 %
Extraction speed 10.0 X
Track quality 100.0 %
Copy CRC 91921C94
Track not present in AccurateRip database
Copy OK


None of the tracks are present in the AccurateRip database

No errors occurred

End of status report

==== Log checksum EE7ECF6BB691C07DA6A8E438625247F48537EEBAEABB75F5213BDB60FF71292B ====