Subcategories

Cathy Krier - Rameau & Ligeti (2014) {Deutschlandradio / Avi Service for music, Cologne}

Posted By: ruskaval
Cathy Krier - Rameau & Ligeti (2014) {Deutschlandradio / Avi Service for music, Cologne}

Cathy Krier - Rameau & Ligeti (2014) {Deutschlandradio / Avi Service for music, Cologne}
EAC rip (secure mode) | FLAC (tracks)+CUE+LOG -> 189 Mb | MP3 @320 -> 153 Mb
Full Artwork @ 300 dpi (png) -> 76 Mb | 5% repair rar
© 2014 Deutschlandradio / Avi Service for music, Cologne | 8553308
Classical / Baroque / Contemporary Classical / Piano

In 2014 we celebrate Jean-Philippe Rameau s 250th anniversary. To highlight his wonderful compositions, this disc also presents works by 20th-century musical pioneer Ligeti. Rameau and Ligeti have a similar approach to generating music, and their short pieces are of similar drama and effect. Krier steers her own path between sentimental and spiky, with a bright, forthright tone. “Does it make sense to combine the music of a French Baroque master with avant-garde works written in the 1950‘s? Can one place these two composers – Jean-Philippe Rameau (1683-1764) and György Ligeti (1923-2006) – side by side? Do they have anything in common, and, if so, how can such traits be viewed from the vantage points of two entirely different centuries?
Cathy Krier - Rameau & Ligeti (2014) {Deutschlandradio / Avi Service for music, Cologne}

If we choose to take György Ligeti‘s Musica Ricercata as a point of departure, the work’s title immediately reminds us of an Early Baroque genre called ricercar, a precursor of the fugue. With this choice of title Ligeti was paying tribute to Girolamo Frescobaldi, the father of the ricercar……… As was most probably the case in Gregorian chant and in Baroque music, Ligeti sets himself in each piece an extremely strict set of rules and limitations, within which he strives to compose as freely as possible. These formal and structural limitations become the very basis of his writing. Ligeti displays a thoroughly intellectual approach to composition, always subjecting it to a certain concept. Viewed from this angle, Rameau and Ligeti have much in common….”
Cathy Krier - Rameau & Ligeti (2014) {Deutschlandradio / Avi Service for music, Cologne}


Personnel: Cathy Krier - piano

tracklist:
RAMEAU - Pièces de clavecin - Suite En Sol


01. No. 1 Les tricotets. Rondeau
02. No. 2 L'indifferente
03. No. 3 Menuet - Deuxième menuet
04. No. 4 La poule
05. No. 5 Les triolets
06. No. 6 Les sauvages
07. No. 7 L'enharmonique
08. No. 8 L'égiptienne

LIGETI - Musica Ricercata (11 Stucke fur Klavier)

09. No. 1 Sostenuto - Misurato - Prestissimo
10. No. 2 Mesto, rigido e cerimoniale
11. No. 3 Allegro con spirito
12. No. 4 Tempo di valse - Poco vivace - "a l'orgue de Barbarie"
13. No. 5 Rubato. Lamentoso
14. No. 6 Allegro molto capriccioso
15. No. 7 Cantabile, molto legato
16. No. 8 Vivace. Energico
17. No. 9 Adagio. Mesto - Allegro maestoso (Béla Bartók in Memoriam)
18. No. 10 Vivace. Capriccioso
19. No. 11 Andante misurato e tranquillo (Omaggio a Girolamo Frescobaldi)

RAMEAU - Pièces de clavecin des Concerts

20. premier concert en ut mineur, CRT 7: No. 2, La livri
21. deuxième concert en sol majeur, CRT 8: No. 3, L'agacante
22. troisième concert an la majeur, CRT 9: No. 2, La timide
23. quatrième concert en si bémol majeur, CRT 10: No. 2, L'indiscrète

24. La Dauphine, RCT 12

Exact Audio Copy V1.0 beta 4 from 7. December 2014

EAC extraction logfile from 20. January 2015, 20:10

Cathy Krier / Rameau & Ligeti

Used drive : ATAPI iHBS112 2 Adapter: 1 ID: 0

Read mode : Secure
Utilize accurate stream : Yes
Defeat audio cache : Yes
Make use of C2 pointers : No

Read offset correction : 6
Overread into Lead-In and Lead-Out : No
Fill up missing offset samples with silence : Yes
Delete leading and trailing silent blocks : No
Null samples used in CRC calculations : Yes
Used interface : Native Win32 interface for Win NT & 2000
Gap handling : Appended to previous track

Used output format : User Defined Encoder
Selected bitrate : 896 kBit/s
Quality : High
Add ID3 tag : No
Command line compressor : C:\Program Files\Exact Audio Copy\Flac\flac.exe
Additional command line options : -8 -V -T "ARTIST=%artist%" -T "TITLE=%title%" -T "ALBUM=%albumtitle%" -T "DATE=%year%" -T "TRACKNUMBER=%tracknr%" -T "TOTALTRACKS=%numtracks%" -T "GENRE=%genre%" -T "ALBUMARTIST=%albumartist%" -T "ALBUM ARTIST=%albumartist%" -T "COMPOSER=%composer%" -T "PERFORMER=%albuminterpret%" -T "DISCNUMBER=%cdnumber%" -T "TOTALDISCS=%totalcds%" -T "COMMENT=EAC Secure Mode, Test & Copy, AccurateRip, FLAC -8" %source%


TOC of the extracted CD

Track | Start | Length | Start sector | End sector
––––––––––––––––––––––––––––-
1 | 0:00.00 | 1:38.59 | 0 | 7408
2 | 1:38.59 | 1:37.54 | 7409 | 14737
3 | 3:16.38 | 2:19.03 | 14738 | 25165
4 | 5:35.41 | 3:59.67 | 25166 | 43157
5 | 9:35.33 | 4:29.25 | 43158 | 63357
6 | 14:04.58 | 1:38.32 | 63358 | 70739
7 | 15:43.15 | 5:27.06 | 70740 | 95270
8 | 21:10.21 | 2:02.05 | 95271 | 104425
9 | 23:12.26 | 2:43.25 | 104426 | 116675
10 | 25:55.51 | 4:46.63 | 116676 | 138188
11 | 30:42.39 | 1:05.39 | 138189 | 143102
12 | 31:48.03 | 2:15.40 | 143103 | 153267
13 | 34:03.43 | 3:34.61 | 153268 | 169378
14 | 37:38.29 | 0:46.18 | 169379 | 172846
15 | 38:24.47 | 3:00.27 | 172847 | 186373
16 | 41:24.74 | 0:55.21 | 186374 | 190519
17 | 42:20.20 | 2:33.40 | 190520 | 202034
18 | 44:53.60 | 1:16.10 | 202035 | 207744
19 | 46:09.70 | 3:34.15 | 207745 | 223809
20 | 49:44.10 | 3:18.64 | 223810 | 238723
21 | 53:02.74 | 2:09.61 | 238724 | 248459
22 | 55:12.60 | 5:02.74 | 248460 | 271183
23 | 60:15.59 | 1:11.13 | 271184 | 276521
24 | 61:26.72 | 2:58.10 | 276522 | 289881


Track 1

Filename P:\DL\Cathy Krier - Rameau & Ligeti (2014) [FLAC]\01 - Suite en Sol - I. Les Tricotets.wav

Pre-gap length 0:00:02.00

Peak level 27.6 %
Extraction speed 2.0 X
Track quality 100.0 %
Test CRC 3613A21E
Copy CRC 3613A21E
Accurately ripped (confidence 1) [F8CEF12A] (AR v2)
Copy OK

Track 2

Filename P:\DL\Cathy Krier - Rameau & Ligeti (2014) [FLAC]\02 - Suite en Sol - II. L'Indifferente.wav

Peak level 26.8 %
Extraction speed 2.0 X
Track quality 100.0 %
Test CRC 4EA75D21
Copy CRC 4EA75D21
Accurately ripped (confidence 1) [7EA42DE9] (AR v2)
Copy OK

Track 3

Filename P:\DL\Cathy Krier - Rameau & Ligeti (2014) [FLAC]\03 - Suite en Sol - III. Menuet I & II.wav

Peak level 40.6 %
Extraction speed 2.3 X
Track quality 100.0 %
Test CRC 986D1A4F
Copy CRC 986D1A4F
Accurately ripped (confidence 1) [1DD2B111] (AR v2)
Copy OK

Track 4

Filename P:\DL\Cathy Krier - Rameau & Ligeti (2014) [FLAC]\04 - Suite en Sol - IV. La Poule.wav

Peak level 49.5 %
Extraction speed 2.6 X
Track quality 100.0 %
Test CRC C2C2E79E
Copy CRC C2C2E79E
Accurately ripped (confidence 1) [63FA2B79] (AR v2)
Copy OK

Track 5

Filename P:\DL\Cathy Krier - Rameau & Ligeti (2014) [FLAC]\05 - Suite en Sol - V. Les Triolets.wav

Peak level 22.4 %
Extraction speed 2.8 X
Track quality 100.0 %
Test CRC 799228BC
Copy CRC 799228BC
Accurately ripped (confidence 1) [E02834CB] (AR v2)
Copy OK

Track 6

Filename P:\DL\Cathy Krier - Rameau & Ligeti (2014) [FLAC]\06 - Suite en Sol - VI. Les Sauvages.wav

Peak level 42.3 %
Extraction speed 2.3 X
Track quality 100.0 %
Test CRC 39FA954B
Copy CRC 39FA954B
Accurately ripped (confidence 1) [1D1DD76E] (AR v2)
Copy OK

Track 7

Filename P:\DL\Cathy Krier - Rameau & Ligeti (2014) [FLAC]\07 - Suite en Sol - VII. L'Enharmonique.wav

Peak level 25.8 %
Extraction speed 3.0 X
Track quality 100.0 %
Test CRC 6DEE5A11
Copy CRC 6DEE5A11
Accurately ripped (confidence 1) [D9954CFD] (AR v2)
Copy OK

Track 8

Filename P:\DL\Cathy Krier - Rameau & Ligeti (2014) [FLAC]\08 - Suite en Sol - VIII. L'Egiptienne.wav

Peak level 50.9 %
Extraction speed 2.8 X
Track quality 100.0 %
Test CRC 63189C67
Copy CRC 63189C67
Accurately ripped (confidence 1) [A72FFE49] (AR v2)
Copy OK

Track 9

Filename P:\DL\Cathy Krier - Rameau & Ligeti (2014) [FLAC]\09 - Musica Ricercata - I. Sostenuto - Misurato - Prestissimo.wav

Pre-gap length 0:00:05.02

Peak level 88.6 %
Extraction speed 2.6 X
Track quality 99.9 %
Test CRC 6859DE0D
Copy CRC 6859DE0D
Accurately ripped (confidence 1) [ADF84FA5] (AR v2)
Copy OK

Track 10

Filename P:\DL\Cathy Krier - Rameau & Ligeti (2014) [FLAC]\10 - Musica Ricercata - II. Mesto, rigido e cerimoniale.wav

Peak level 65.4 %
Extraction speed 3.1 X
Track quality 99.9 %
Test CRC CD91DD14
Copy CRC CD91DD14
Accurately ripped (confidence 1) [6E051946] (AR v2)
Copy OK

Track 11

Filename P:\DL\Cathy Krier - Rameau & Ligeti (2014) [FLAC]\11 - Musica Ricercata - III. Allegro con spirito.wav

Peak level 57.2 %
Extraction speed 2.7 X
Track quality 100.0 %
Test CRC 3D9D081C
Copy CRC 3D9D081C
Accurately ripped (confidence 1) [4F02F8FA] (AR v2)
Copy OK

Track 12

Filename P:\DL\Cathy Krier - Rameau & Ligeti (2014) [FLAC]\12 - Musica Ricercata - IV. Tempo di valse.wav

Peak level 45.8 %
Extraction speed 3.3 X
Track quality 100.0 %
Test CRC 6ED7BC6B
Copy CRC 6ED7BC6B
Accurately ripped (confidence 1) [B02F08EC] (AR v2)
Copy OK

Track 13

Filename P:\DL\Cathy Krier - Rameau & Ligeti (2014) [FLAC]\13 - Musica Ricercata - V. Rubato. Lamentoso.wav

Peak level 77.0 %
Extraction speed 3.0 X
Track quality 99.9 %
Test CRC DF4F3B47
Copy CRC DF4F3B47
Accurately ripped (confidence 1) [804F7485] (AR v2)
Copy OK

Track 14

Filename P:\DL\Cathy Krier - Rameau & Ligeti (2014) [FLAC]\14 - Musica Ricercata - VI. Allegro molto capriccioso.wav

Peak level 62.1 %
Extraction speed 2.4 X
Track quality 100.0 %
Test CRC 4B26535E
Copy CRC 4B26535E
Accurately ripped (confidence 1) [7D22568D] (AR v2)
Copy OK

Track 15

Filename P:\DL\Cathy Krier - Rameau & Ligeti (2014) [FLAC]\15 - Musica Ricercata - VII. Cantabile, molto legato.wav

Peak level 21.4 %
Extraction speed 3.5 X
Track quality 100.0 %
Test CRC 6C954D4F
Copy CRC 6C954D4F
Accurately ripped (confidence 1) [00ADFD03] (AR v2)
Copy OK

Track 16

Filename P:\DL\Cathy Krier - Rameau & Ligeti (2014) [FLAC]\16 - Musica Ricercata - VIII. Vivace. Energico..wav

Peak level 91.5 %
Extraction speed 2.7 X
Track quality 100.0 %
Test CRC A6545894
Copy CRC A6545894
Accurately ripped (confidence 1) [06BE9B54] (AR v2)
Copy OK

Track 17

Filename P:\DL\Cathy Krier - Rameau & Ligeti (2014) [FLAC]\17 - Musica Ricercata - IX. Adagio. Mesto - Allegro maesto..wav

Peak level 70.6 %
Extraction speed 3.6 X
Track quality 100.0 %
Test CRC 80C7D745
Copy CRC 80C7D745
Accurately ripped (confidence 1) [0F9D1D04] (AR v2)
Copy OK

Track 18

Filename P:\DL\Cathy Krier - Rameau & Ligeti (2014) [FLAC]\18 - Musica Ricercata - X. Vivace. Capriccioso.wav

Peak level 98.2 %
Extraction speed 3.0 X
Track quality 100.0 %
Test CRC A77535CE
Copy CRC A77535CE
Accurately ripped (confidence 1) [B124FC04] (AR v2)
Copy OK

Track 19

Filename P:\DL\Cathy Krier - Rameau & Ligeti (2014) [FLAC]\19 - Musica Ricercata - XI. Andante misurato e tranquillo.wav

Peak level 98.0 %
Extraction speed 3.8 X
Track quality 100.0 %
Test CRC 81A46AC7
Copy CRC 81A46AC7
Accurately ripped (confidence 1) [0DD5F5D8] (AR v2)
Copy OK

Track 20

Filename P:\DL\Cathy Krier - Rameau & Ligeti (2014) [FLAC]\20 - La Livri.wav

Pre-gap length 0:00:05.17

Peak level 24.0 %
Extraction speed 3.2 X
Track quality 99.9 %
Test CRC 9AD701EC
Copy CRC 9AD701EC
Accurately ripped (confidence 1) [7C650D21] (AR v2)
Copy OK

Track 21

Filename P:\DL\Cathy Krier - Rameau & Ligeti (2014) [FLAC]\21 - L'Agacante.wav

Peak level 47.9 %
Extraction speed 2.2 X
Track quality 99.8 %
Test CRC EAF45C4A
Copy CRC EAF45C4A
Accurately ripped (confidence 1) [F862D235] (AR v2)
Copy OK

Track 22

Filename P:\DL\Cathy Krier - Rameau & Ligeti (2014) [FLAC]\22 - La Timide, Rondeau I & II.wav

Peak level 35.6 %
Extraction speed 1.7 X
Track quality 99.6 %
Test CRC 99AC8E5B
Copy CRC 99AC8E5B
Accurately ripped (confidence 1) [1D9533D7] (AR v2)
Copy OK

Track 23

Filename P:\DL\Cathy Krier - Rameau & Ligeti (2014) [FLAC]\23 - L'Indiscrette.wav

Peak level 33.6 %
Extraction speed 1.6 X
Track quality 99.7 %
Test CRC A715F839
Copy CRC A715F839
Accurately ripped (confidence 1) [01C93763] (AR v2)
Copy OK

Track 24

Filename P:\DL\Cathy Krier - Rameau & Ligeti (2014) [FLAC]\24 - La Dauphine.wav

Pre-gap length 0:00:04.98

Peak level 43.9 %
Extraction speed 1.5 X
Track quality 99.6 %
Test CRC 15199FF7
Copy CRC 15199FF7
Accurately ripped (confidence 1) [BF36511E] (AR v2)
Copy OK


All tracks accurately ripped

No errors occurred

End of status report

–– CUETools DB Plugin V2.1.4

[CTDB TOCID: 4sBtooTMwoxL0BhmLr0Z9B6aN_g-] disk not present in database
Submit result: 4sBtooTMwoxL0BhmLr0Z9B6aN_g- has been uploaded


==== Log checksum F0934E4FB1953B2AB5602E2C0BB14EC2B3416C817CA6088F2537F48D435E7F80 ====


Cathy Krier - Rameau & Ligeti (2014) {Deutschlandradio / Avi Service for music, Cologne}

Cathy Krier - Rameau & Ligeti (2014) {Deutschlandradio / Avi Service for music, Cologne}


thanks to dtromp…