Subcategories

Cecil Taylor - Conquistador! (1966) {2004 BN Rudy Van Gelder Remaster}

Posted By: ruskaval
Cecil Taylor - Conquistador! (1966) {2004 BN Rudy Van Gelder Remaster}

Cecil Taylor - Conquistador! (1966) {2004 BN Rudy Van Gelder Remaster}
EAC rip (secure mode) | FLAC+CUE+LOG -> 354 Mb | MP3 @320 -> 130 Mb
Full Artwork @ 300 dpi (jpg) -> 9 Mb
© 2004 Blue Note / Capitol | 7243 5 76749 2 8 | 24-bit remaster
Jazz / Avant-Garde Jazz / Piano


Cecil Taylor - Conquistador! (1966) {2004 BN Rudy Van Gelder Remaster}

For the second of Cecil Taylor's two Blue Note albums (following Unit Structures), the innovative pianist utilized a sextet comprised of trumpeter Bill Dixon, altoist Jimmy Lyons, both Henry Grimes and Alan Silva on basses and drummer Andrew Cyrille. During the two lengthy pieces, Lyons' passionate solos contrast with Dixon's quieter ruminations while the music in general is unremittingly intense. Both of the Taylor Blue Notes are quite historic and near-classics but, despite this important documentation, Cecil Taylor (other than a pair of Paris concerts) would not appear on records again until 1973.
Personnel: Cecil Taylor (piano); Jimmy Lyons (alto saxophone); Bill Dixon (trumpet); Henry Grimes, Alan Silva (bass); Andrew Cyrille (drums).

tracklist:
1. Conquistador
2. With (Exit)
3. With (Exit) (alternate take, bonus track)

Cecil Taylor - Conquistador! (1966) {2004 BN Rudy Van Gelder Remaster}

Exact Audio Copy V0.99 prebeta 5 from 4. May 2009

EAC extraction logfile from 27. August 2010, 18:35

Cecil Taylor / Conquistador!

Used drive : TSSTcorpCD/DVDW TS-H552L Adapter: 3 ID: 0

Read mode : Secure
Utilize accurate stream : Yes
Defeat audio cache : Yes
Make use of C2 pointers : No

Read offset correction : 6
Overread into Lead-In and Lead-Out : No
Fill up missing offset samples with silence : Yes
Delete leading and trailing silent blocks : No
Null samples used in CRC calculations : Yes
Used interface : Native Win32 interface for Win NT & 2000
Gap handling : Appended to previous track

Used output format : User Defined Encoder
Selected bitrate : 1024 kBit/s
Quality : High
Add ID3 tag : No
Command line compressor : C:\Program Files\FLAC\flac.exe
Additional command line options : -6 -V -T "ARTIST=%a" -T "TITLE=%t" -T "ALBUM=%g" -T "DATE=%y" -T "TRACKNUMBER=%n" -T "GENRE=%m" -T "COMMENT=EAC FLAC -6" %s


TOC of the extracted CD

Track | Start | Length | Start sector | End sector
––––––––––––––––––––––––––––-
1 | 0:00.00 | 17:54.69 | 0 | 80618
2 | 17:54.69 | 19:20.44 | 80619 | 167662
3 | 37:15.38 | 17:24.40 | 167663 | 246002


Track 1

Filename C:\ruskaval\Cecil Taylor - Conquistador! (1966) {2004 BN Rudy Van Gelder Remaster}\01 - Conquistador.wav

Pre-gap length 0:00:02.00

Peak level 97.9 %
Track quality 100.0 %
Test CRC 2821768A
Copy CRC 2821768A
Accurately ripped (confidence 10) [E6B7ABAC]
Copy OK

Track 2

Filename C:\ruskaval\Cecil Taylor - Conquistador! (1966) {2004 BN Rudy Van Gelder Remaster}\02 - With (Exit).wav

Pre-gap length 0:00:03.04

Peak level 97.9 %
Track quality 100.0 %
Test CRC 2D9B8179
Copy CRC 2D9B8179
Accurately ripped (confidence 9) [F1129B08]
Copy OK

Track 3

Filename C:\ruskaval\Cecil Taylor - Conquistador! (1966) {2004 BN Rudy Van Gelder Remaster}\03 - With (Exit) (Alternate Take).wav

Pre-gap length 0:00:03.31

Peak level 98.0 %
Track quality 100.0 %
Test CRC 7487ED55
Copy CRC 7487ED55
Accurately ripped (confidence 9) [0EC1E28B]
Copy OK


All tracks accurately ripped

No errors occurred

End of status report

HF Linkz

or

FSonic Linkz

p.s. the files are interchangeable…